osu file format v14

[General]
AudioFilename: Hanatan - Karakuri pierrot a.mp3
AudioLeadIn: 0
PreviewTime: 86143
Countdown: 0
SampleSet: None
StackLeniency: 0.7
Mode: 0
LetterboxInBreaks: 1
WidescreenStoryboard: 1

[Editor]
DistanceSpacing: 1
BeatDivisor: 3
GridSize: 4
TimelineZoom: 1.7

[Metadata]
Title:Karakuri pierrot
TitleUnicode:からくりピエロ
Artist:Hanatan
ArtistUnicode:花たん
Creator:luxoDeh
Version:Normal
Source:
Tags:40meterP, 40mp, Hatsune Miku, Vocaloid, Yamako
BeatmapID:1411948
BeatmapSetID:307849

[Difficulty]
HPDrainRate:4
CircleSize:3.5
OverallDifficulty:4
ApproachRate:5
SliderMultiplier:0.9
SliderTickRate:1

[Events]
//Background and Video events
0,0,"Karakuri.Pierrot.full.771108.jpg",0,0
//Break Periods
2,105240,122664
2,161511,169723
//Storyboard Layer 0 (Background)
//Storyboard Layer 1 (Fail)
//Storyboard Layer 2 (Pass)
//Storyboard Layer 3 (Foreground)
//Storyboard Sound Samples

[TimingPoints]
20335,294.117647058824,4,2,1,50,1,0
86217,-100,4,2,1,50,0,1
105040,-100,4,2,1,50,0,0
199158,-100,4,2,1,50,0,1
234746,-100,4,2,1,50,0,0

[Colours]
Combo1 : 255,192,0
Combo2 : 255,128,128
Combo3 : 18,124,255
Combo4 : 242,24,57

[HitObjects]
88,280,20334,6,0,P|116:312|176:328,1,90
244,300,20923,2,0,P|276:288|344:288,1,90
388,308,21413,2,0,L|384:180,1,120
404,100,22099,1,0,0:0:0:0:
404,100,22393,1,0,0:0:0:0:
320,132,22687,6,0,P|276:144|224:144,1,90
148,112,23276,2,0,P|120:144|104:208,1,90
120,276,23864,2,0,P|120:324|96:380,2,90
104,188,24746,1,0,0:0:0:0:
104,188,25040,5,0,0:0:0:0:
60,108,25335,2,0,P|64:72|108:20,1,90
180,56,25923,2,0,P|232:72|288:68,2,90
94,28,26805,1,0,0:0:0:0:
94,28,27099,1,0,0:0:0:0:
32,92,27393,6,0,P|16:132|20:204,1,90
64,252,27982,2,0,P|116:272|172:264,1,90
232,236,28570,2,0,P|280:220|328:220,1,90
396,268,29158,2,0,P|432:256|444:112,1,180,0|4,0:0|0:0,0:0:0:0:
304,44,30335,6,0,L|200:48,1,90,8|0,0:0|0:0,0:0:0:0:
156,28,30825,2,0,P|132:48|100:148,1,120,8|0,0:0|0:0,0:0:0:0:
96,220,31511,2,0,P|104:272|136:320,1,90,8|0,0:0|0:0,0:0:0:0:
200,352,32099,6,0,L|380:344,1,180,0|8,0:0|0:0,0:0:0:0:
448,284,32982,1,0,0:0:0:0:
448,284,33276,2,0,P|460:240|464:172,1,90
452,108,33864,1,8,0:0:0:0:
452,108,34158,1,0,0:0:0:0:
376,60,34452,6,0,P|332:44|256:136,1,180,2|8,0:0|0:0,0:0:0:0:
264,220,35335,2,0,P|268:272|252:328,2,90
184,180,36217,1,8,0:0:0:0:
184,180,36511,1,0,0:0:0:0:
120,120,36805,6,0,P|104:76|108:28,2,90,0|0|8,0:0|0:0|0:0,0:0:0:0:
184,180,37687,2,0,P|148:208|84:228,1,90
16,224,38276,2,0,P|8:280|108:336,1,180
184,300,39158,6,0,P|232:288|288:296,1,90,4|0,0:0|0:0,0:0:0:0:
348,340,39746,2,0,P|404:328|440:288,1,90,8|0,0:0|0:0,0:0:0:0:
456,256,40236,2,0,L|440:128,1,120,8|0,0:0|0:0,0:0:0:0:
460,48,40923,1,8,0:0:0:0:
460,48,41217,1,0,0:0:0:0:
372,68,41511,6,0,L|268:100,1,90,2|0,0:0|0:0,0:0:0:0:
200,72,42099,2,0,L|104:56,2,90,8|0|0,0:0|0:0|0:0,0:0:0:0:
285,94,42982,1,0,0:0:0:0:
285,94,43276,1,8,0:0:0:0:
316,176,43570,2,0,P|328:228|324:280,1,90,0|2,0:0|0:0,0:0:0:0:
280,340,44158,5,0,0:0:0:0:
196,308,44452,2,0,P|152:288|92:184,1,150,8|8,0:0|0:0,0:0:0:0:
88,88,45335,1,0,0:0:0:0:
88,88,45629,2,0,P|128:56|184:48,1,90,8|0,0:0|0:0,0:0:0:0:
248,76,46217,6,0,P|304:88|352:80,2,90,2|0|8,0:0|0:0|0:0,0:0:0:0:
164,47,47099,1,0,0:0:0:0:
164,47,47393,1,0,0:0:0:0:
144,136,47687,2,0,L|124:228,2,90,0|8|0,0:0|0:0|0:0,0:0:0:0:
164,47,48570,6,0,P|220:71|256:187,1,180,4|8,0:0|0:0,0:0:0:0:
240,264,49452,2,0,L|224:360,2,90
304,200,50335,2,0,L|318:111,1,90,8|0,0:0|0:0,0:0:0:0:
368,36,50923,5,2,0:0:0:0:
460,188,51511,2,0,P|456:252|352:320,1,180,8|0,0:0|0:0,0:0:0:0:
284,300,52393,2,0,P|240:296|192:304,2,90,0|8|0,0:0|0:0|0:0,0:0:0:0:
369,319,53276,5,2,0:0:0:0:
424,148,53864,2,0,P|408:96|288:48,1,180,8|0,0:0|0:0,0:0:0:0:
216,76,54746,2,0,L|116:76,2,90,0|8|0,0:0|0:0|0:0,0:0:0:0:
280,140,55629,6,0,P|296:204|280:316,2,180,2|0|8,0:0|0:0|0:0,0:0:0:0:
216,76,57099,1,0,0:0:0:0:
132,112,57393,2,0,P|92:148|68:200,2,90,8|0|4,0:0|0:0|0:0,0:0:0:0:
300,48,58570,6,0,B|392:48|392:48|464:116,1,180,8|0,0:0|0:0,0:0:0:0:
484,192,59452,2,0,P|484:228|464:300,2,90,0|8|0,0:0|0:0|0:0,0:0:0:0:
455,108,60335,5,2,0:0:0:0:
296,192,60923,2,0,P|264:208|116:184,1,180,8|0,0:0|0:0,0:0:0:0:
88,112,61805,2,0,L|88:16,2,90,0|8|0,0:0|0:0|0:0,0:0:0:0:
40,188,62687,5,2,0:0:0:0:
132,344,63276,2,0,P|188:360|312:336,1,180,8|0,0:0|0:0,0:0:0:0:
376,280,64158,2,0,P|412:324|416:368,2,90,0|8|0,0:0|0:0|0:0,0:0:0:0:
304,224,65040,6,0,P|280:164|348:72,1,180,2|0,0:0|0:0,0:0:0:0:
428,52,65923,2,0,L|520:84,2,90,0|8|0,0:0|0:0|0:0,0:0:0:0:
339,74,66805,2,0,L|243:94,1,90,8|0,0:0|0:0,0:0:0:0:
172,48,67393,6,0,P|124:64|68:184,1,180,4|0,0:0|0:0,0:0:0:0:
92,260,68276,1,0,0:0:0:0:
136,340,68570,2,0,P|92:352|0:256,1,180,2|8,0:0|0:0,0:0:0:0:
8,180,69452,1,0,0:0:0:0:
84,128,69746,6,0,P|136:112|276:136,1,180,2|0,0:0|0:0,0:0:0:0:
340,168,70629,1,0,0:0:0:0:
400,232,70923,2,0,L|400:328,2,90,2|0|8,0:0|0:0|0:0,0:0:0:0:
464,168,71805,1,0,0:0:0:0:
404,104,72099,6,0,P|368:64|244:24,1,180,2|0,0:0|0:0,0:0:0:0:
160,32,72982,1,0,0:0:0:0:
88,86,73276,2,0,P|64:134|64:182,1,90,2|0,0:0|0:0,0:0:0:0:
146,200,73864,2,0,P|162:252|158:300,1,90,8|0,0:0|0:0,0:0:0:0:
97,351,74452,6,0,P|177:375|248:309,1,180,4|0,0:0|0:0,0:0:0:0:
272,231,75335,1,0,0:0:0:0:
329,161,75629,2,0,P|382:151|421:164,2,90,2|8|0,0:0|0:0|0:0,0:0:0:0:
268,228,76511,1,0,0:0:0:0:
192,280,76805,6,0,P|152:272|56:160,1,180,4|0,0:0|0:0,0:0:0:0:
56,84,77687,1,0,0:0:0:0:
132,36,77982,2,0,P|180:24|240:32,2,90,2|0|8,0:0|0:0|0:0,0:0:0:0:
56,84,78864,1,0,0:0:0:0:
32,172,79158,6,0,B|20:268|20:268|72:356,1,180,2|0,0:0|0:0,0:0:0:0:
152,340,80040,2,0,B|194:268|194:268|182:172,1,180,2|0,0:0|0:0,0:0:0:0:
148,88,80923,2,0,P|184:72|256:60,1,90,8|0,0:0|0:0,0:0:0:0:
320,84,81511,6,0,P|380:92|420:84,2,90,4|0|0,0:0|0:0|0:0,0:0:0:0:
233,61,82393,1,0,0:0:0:0:
148,36,82687,2,0,L|52:16,2,90
233,61,83570,1,0,0:0:0:0:
284,132,83864,6,0,P|296:180|296:228,1,90,2|8,0:0|0:0,0:0:0:0:
256,300,84452,2,0,P|300:324|408:292,1,150,8|2,0:0|0:0,0:0:0:0:
444,196,85335,1,0,0:0:0:0:
396,120,85629,1,12,0:0:0:0:
232,48,86217,6,0,P|176:52|128:44,1,90,4|0,0:0|0:0,0:0:0:0:
56,20,86805,2,0,P|16:80|8:116,1,90,8|0,0:0|0:0,0:0:0:0:
12,156,87295,2,0,L|52:276,1,120,8|0,0:0|0:0,0:0:0:0:
128,316,87982,1,8,0:0:0:0:
212,280,88276,1,0,0:0:0:0:
292,320,88570,6,0,P|336:324|388:288,1,90
436,236,89158,2,0,L|468:144,2,90,8|0|0,0:0|0:0|0:0,0:0:0:0:
375,303,90040,1,0,0:0:0:0:
316,236,90335,2,0,L|284:144,1,90,8|0,0:0|0:0,0:0:0:0:
248,68,90923,6,0,P|164:48|64:76,1,180,4|8,0:0|0:0,0:0:0:0:
16,140,91805,1,0,0:0:0:0:
4,228,92099,2,0,P|12:272|52:320,1,90
116,352,92687,2,0,L|220:368,2,90,8|0|0,0:0|0:0|0:0,0:0:0:0:
37,308,93570,5,0,0:0:0:0:
116,264,93864,2,0,L|220:248,1,90,8|0,0:0|0:0,0:0:0:0:
280,204,94452,2,0,L|376:212,1,90
444,260,95040,1,8,0:0:0:0:
468,172,95335,1,0,0:0:0:0:
428,92,95629,6,0,P|372:60|336:52,1,90,4|0,0:0|0:0,0:0:0:0:
260,76,96217,2,0,P|216:88|160:76,1,90,8|0,0:0|0:0,0:0:0:0:
120,56,96707,2,0,L|60:184,1,120,8|0,0:0|0:0,0:0:0:0:
20,240,97393,2,0,P|12:288|24:340,2,90,8|0|0,0:0|0:0|0:0,0:0:0:0:
69,164,98276,5,0,0:0:0:0:
152,128,98570,2,0,P|196:124|252:132,1,90,8|0,0:0|0:0,0:0:0:0:
316,176,99158,2,0,L|316:288,2,90,0|0|8,0:0|0:0|0:0,0:0:0:0:
388,120,100040,1,0,0:0:0:0:
388,120,100335,5,4,0:0:0:0:
440,192,100629,2,0,P|476:228|524:236,2,90,0|8|0,0:0|0:0|0:0,0:0:0:0:
396,112,101511,2,0,P|348:64|304:48,1,90
240,68,102099,2,0,P|192:72|136:64,1,90,8|0,0:0|0:0,0:0:0:0:
68,28,102687,6,0,P|28:76|48:196,1,180,4|0,0:0|0:0,0:0:0:0:
100,252,103570,1,0,0:0:0:0:
188,228,103864,2,0,P|240:220|288:232,2,90,0|0|8,0:0|0:0|0:0,0:0:0:0:
100,252,104746,2,0,L|40:336,1,90,0|4,0:0|0:0,0:0:0:0:
256,320,123864,6,0,L|256:212,1,90,4|0,0:0|0:0,0:0:0:0:
288,144,124452,2,0,P|260:112|200:80,1,90
160,88,124942,2,0,L|28:104,1,120
4,184,125629,1,0,0:0:0:0:
4,184,125923,1,0,0:0:0:0:
32,272,126217,6,0,P|60:304|208:308,1,180,2|0,0:0|0:0,0:0:0:0:
256,256,127099,1,0,0:0:0:0:
332,208,127393,2,0,P|376:204|432:212,2,90
256,256,128276,1,0,0:0:0:0:
196,188,128570,5,2,0:0:0:0:
72,56,129158,2,0,P|120:24|164:16,1,90
208,32,129648,2,0,P|260:52|344:48,1,120
408,20,130335,1,0,0:0:0:0:
408,20,130629,1,0,0:0:0:0:
460,96,130923,6,0,P|472:148|464:208,1,90,2|0,0:0|0:0,0:0:0:0:
400,240,131511,2,0,P|392:276|396:340,1,90,2|0,0:0|0:0,0:0:0:0:
472,376,132099,1,8,0:0:0:0:
396,328,132393,2,0,P|336:320|292:324,1,90,0|8,0:0|0:0,0:0:0:0:
224,356,132982,1,0,0:0:0:0:
144,312,133276,6,0,P|112:284|92:240,1,90,4|0,0:0|0:0,0:0:0:0:
76,152,133864,2,0,P|76:112|112:48,1,90,8|0,0:0|0:0,0:0:0:0:
148,36,134354,2,0,L|284:56,1,120,8|0,0:0|0:0,0:0:0:0:
344,100,135040,1,8,0:0:0:0:
376,184,135335,1,0,0:0:0:0:
344,100,135629,5,4,0:0:0:0:
124,328,137393,2,0,L|112:224,1,90,8|0,0:0|0:0,0:0:0:0:
136,152,137982,6,0,P|148:104|276:84,1,180,4|8,0:0|0:0,0:0:0:0:
340,120,138864,2,0,P|380:128|444:112,2,90
261,73,139746,2,0,P|229:117|213:161,1,90,8|0,0:0|0:0,0:0:0:0:
248,236,140335,6,0,P|252:288|236:340,1,90,4|0,0:0|0:0,0:0:0:0:
168,376,140923,2,0,P|132:380|64:372,1,90
4,324,141511,2,0,P|-5:280|0:235,1,90,8|0,0:0|0:0,0:0:0:0:
20,148,142099,1,8,0:0:0:0:
92,92,142393,1,0,0:0:0:0:
180,68,142687,6,0,P|224:64|304:160,1,180,4|0,0:0|0:0,0:0:0:0:
268,244,143570,2,0,P|252:292|264:348,2,90,0|2|0,0:0|0:0|0:0,0:0:0:0:
303,158,144452,2,0,P|359:150|403:162,1,90,8|0,0:0|0:0,0:0:0:0:
476,184,145040,6,0,P|492:240|416:320,1,180,2|0,0:0|0:0,0:0:0:0:
328,296,145923,2,0,P|272:284|212:288,1,90,0|2,0:0|0:0,0:0:0:0:
156,316,146511,2,0,P|104:324|40:312,2,90,0|8|0,0:0|0:0|0:0,0:0:0:0:
239,284,147393,6,0,B|267:192|267:192|247:96,1,180
208,32,148276,1,0,0:0:0:0:
120,24,148570,2,0,P|80:48|52:100,1,90,2|0,0:0|0:0,0:0:0:0:
40,172,149158,2,0,P|48:224|80:256,1,90,8|0,0:0|0:0,0:0:0:0:
152,292,149746,6,0,B|244:280|244:280|348:288,1,180,2|0,0:0|0:0,0:0:0:0:
416,312,150629,1,0,0:0:0:0:
464,236,150923,2,0,P|476:204|476:144,2,90,2|8|0,0:0|0:0|0:0,0:0:0:0:
416,312,151805,1,0,0:0:0:0:
336,356,152099,6,0,P|264:364|144:348,1,180,4|0,0:0|0:0,0:0:0:0:
92,292,152982,1,0,0:0:0:0:
48,216,153276,2,0,P|32:164|40:124,2,90,2|0|8,0:0|0:0|0:0,0:0:0:0:
92,292,154158,1,0,0:0:0:0:
172,248,154452,6,0,P|188:208|300:120,1,180,2|0,0:0|0:0,0:0:0:0:
372,164,155335,2,0,P|420:176|476:164,2,90,0|2|0,0:0|0:0|0:0,0:0:0:0:
290,122,156217,2,0,P|246:106|186:106,1,90,8|0,0:0|0:0,0:0:0:0:
116,132,156805,6,0,P|64:184|88:296,1,180,4|0,0:0|0:0,0:0:0:0:
148,340,157687,1,0,0:0:0:0:
236,316,157982,2,0,B|276:288|296:236|296:236|380:272,1,180,2|0,0:0|0:0,0:0:0:0:
448,304,158864,1,0,0:0:0:0:
464,216,159158,6,0,L|480:124,2,90,2|8|8,0:0|0:0|0:0,0:0:0:0:
448,304,160040,1,0,0:0:0:0:
372,352,160335,2,0,P|328:360|268:344,1,90,0|2,0:0|0:0,0:0:0:0:
212,300,160923,1,8,0:0:0:0:
376,124,170923,6,0,L|396:28,2,90,4|0|8,0:0|0:0|0:0,0:0:0:0:
308,184,171805,1,0,0:0:0:0:
240,244,172099,2,0,L|221:332,2,90,0|0|8,0:0|0:0|0:0,0:0:0:0:
192,168,172982,1,0,0:0:0:0:
132,104,173276,6,0,L|152:8,2,90,0|0|8,0:0|0:0|0:0,0:0:0:0:
68,164,174158,2,0,B|52:224|52:224|60:268,1,90
116,320,174746,2,0,B|160:332|160:332|216:316,2,90,0|8|0,0:0|0:0|0:0,0:0:0:0:
56,251,175629,6,0,P|36:183|92:67,1,180,2|8,0:0|0:0,0:0:0:0:
152,40,176511,2,0,L|252:20,2,90,0|0|8,0:0|0:0|0:0,0:0:0:0:
73,84,177393,1,0,0:0:0:0:
148,132,177687,2,0,L|248:152,1,90,0|2,0:0|0:0,0:0:0:0:
316,108,178276,5,0,0:0:0:0:
392,56,178570,2,0,P|424:48|488:60,2,90,8|0|0,0:0|0:0|0:0,0:0:0:0:
316,108,179452,1,0,0:0:0:0:
236,149,179746,2,0,L|216:245,2,90,8|0|2,0:0|0:0|0:0,0:0:0:0:
104,24,180923,6,0,P|56:56|24:184,1,180
40,256,181805,1,0,0:0:0:0:
104,320,182099,2,0,P|144:332|288:316,1,180
332,248,182982,5,0,0:0:0:0:
356,160,183276,2,0,L|376:52,2,90
332,248,184158,1,0,0:0:0:0:
388,316,184452,2,0,P|440:336|488:320,1,90
504,244,185040,6,0,P|512:172|440:88,1,180,2|0,0:0|0:0,0:0:0:0:
360,72,185923,1,0,0:0:0:0:
308,144,186217,2,0,P|284:164|216:176,2,90
360,72,187099,1,0,0:0:0:0:
280,32,187393,6,0,P|228:24|88:40,1,180,2|0,0:0|0:0,0:0:0:0:
36,96,188276,1,0,0:0:0:0:
20,184,188570,2,0,L|0:276,2,90
36,96,189452,1,0,0:0:0:0:
101,35,189746,6,0,P|145:67|173:195,1,180,2|0,0:0|0:0,0:0:0:0:
136,264,190629,2,0,P|116:316|116:372,2,90
175,183,191511,1,0,0:0:0:0:
260,208,191805,6,0,L|352:232,2,90
175,183,192687,1,0,0:0:0:0:
104,128,192982,2,0,P|80:88|76:36,2,90
175,183,193864,2,0,P|199:223|203:275,1,90
152,336,194452,6,0,P|208:368|320:328,1,180,2|0,0:0|0:0,0:0:0:0:
364,260,195335,1,0,0:0:0:0:
396,176,195629,2,0,P|400:128|316:28,1,180
232,20,196511,1,0,0:0:0:0:
232,20,196805,1,2,0:0:0:0:
256,192,196903,12,8,198276,0:0:0:0:
196,56,199158,6,0,P|160:80|136:124,1,90,4|0,0:0|0:0,0:0:0:0:
140,208,199746,2,0,P|140:248|120:300,1,90,8|0,0:0|0:0,0:0:0:0:
96,348,200236,2,0,L|236:340,1,120,8|0,0:0|0:0,0:0:0:0:
304,336,200923,1,8,0:0:0:0:
384,296,201217,1,0,0:0:0:0:
436,220,201511,6,0,P|452:176|456:116,1,90,2|0,0:0|0:0,0:0:0:0:
396,68,202099,2,0,P|348:40|296:36,2,90,8|0|0,0:0|0:0|0:0,0:0:0:0:
456,133,202982,1,0,0:0:0:0:
380,180,203276,2,0,L|292:232,1,90,8|0,0:0|0:0,0:0:0:0:
244,296,203864,6,0,P|180:272|128:160,1,180,4|8,0:0|0:0,0:0:0:0:
136,88,204746,1,0,0:0:0:0:
216,44,205040,2,0,P|264:36|312:48,1,90
376,100,205629,2,0,L|448:172,2,90,8|0|0,0:0|0:0|0:0,0:0:0:0:
303,44,206511,5,0,0:0:0:0:
232,100,206805,2,0,L|160:172,1,90,8|0,0:0|0:0,0:0:0:0:
108,232,207393,2,0,P|96:264|100:332,2,90,0|0|8,0:0|0:0|0:0,0:0:0:0:
168,163,208276,1,0,0:0:0:0:
225,232,208570,6,0,P|237:264|233:332,1,90,4|0,0:0|0:0,0:0:0:0:
312,368,209158,2,0,P|360:376|412:364,1,90,8|0,0:0|0:0,0:0:0:0:
456,344,209648,2,0,L|408:216,1,120,8|0,0:0|0:0,0:0:0:0:
428,144,210335,1,8,0:0:0:0:
372,72,210629,1,0,0:0:0:0:
292,112,210923,6,0,P|248:120|196:108,1,90,2|0,0:0|0:0,0:0:0:0:
128,64,211511,2,0,P|84:92|56:140,1,90,8|0,0:0|0:0,0:0:0:0:
36,208,212099,2,0,L|8:308,2,90,0|0|8,0:0|0:0|0:0,0:0:0:0:
62,122,212982,1,0,0:0:0:0:
124,188,213276,6,0,P|148:212|216:240,1,90,4|0,0:0|0:0,0:0:0:0:
284,216,213864,2,0,P|328:204|380:208,1,90,8|0,0:0|0:0,0:0:0:0:
436,268,214452,1,0,0:0:0:0:
476,188,214746,1,0,0:0:0:0:
448,104,215040,2,0,P|416:64|360:36,1,90,8|0,0:0|0:0,0:0:0:0:
300,76,215629,6,0,P|256:92|120:68,1,180,2|8,0:0|0:0,0:0:0:0:
52,20,216511,2,0,P|4:36|-28:72,2,90
127,72,217393,2,0,L|155:180,1,90,8|0,0:0|0:0,0:0:0:0:
172,248,217982,5,4,0:0:0:0:
172,248,218276,1,0,0:0:0:0:
104,308,218570,2,0,P|136:332|192:336,1,90,8|0,0:0|0:0,0:0:0:0:
244,320,219060,2,0,P|292:312|376:328,1,120,8|0,0:0|0:0,0:0:0:0:
448,352,219746,2,0,P|476:304|480:256,1,90,8|0,0:0|0:0,0:0:0:0:
444,188,220335,6,0,P|432:148|436:96,1,90
476,20,220923,1,8,0:0:0:0:
476,20,221217,1,0,0:0:0:0:
388,32,221511,2,0,L|280:48,1,90
224,96,222099,2,0,L|116:80,2,90,8|0|4,0:0|0:0|0:0,0:0:0:0:
300,148,222982,5,0,0:0:0:0:
344,228,223276,2,0,P|344:272|320:328,2,90,8|0|0,0:0|0:0|0:0,0:0:0:0:
300,148,224158,1,0,0:0:0:0:
228,200,224452,2,0,P|184:216|116:216,1,90,8|0,0:0|0:0,0:0:0:0:
68,168,225040,6,0,P|24:152|-24:152,2,90,0|0|8,0:0|0:0|0:0,0:0:0:0:
141,219,225923,1,0,0:0:0:0:
204,284,226217,2,0,P|248:300|296:300,2,90,0|0|8,0:0|0:0|0:0,0:0:0:0:
141,219,227099,1,0,0:0:0:0:
140,128,227393,6,0,P|160:68|284:48,1,180,4|8,0:0|0:0,0:0:0:0:
328,104,228276,2,0,L|328:204,2,90
392,40,229158,2,0,P|432:32|488:44,1,90,8|0,0:0|0:0,0:0:0:0:
508,124,229746,6,0,P|512:168|504:224,1,90
468,292,230335,2,0,P|440:336|392:360,1,90,8|0,0:0|0:0,0:0:0:0:
336,304,230923,2,0,L|336:208,2,90,0|2|8,0:0|0:0|0:0,0:0:0:0:
272,368,231805,1,0,0:0:0:0:
192,328,232099,6,0,P|148:296|136:252,1,90,4|0,0:0|0:0,0:0:0:0:
168,180,232687,2,0,P|176:128|168:72,2,90,8|0|0,0:0|0:0|0:0,0:0:0:0:
136,263,233570,1,0,0:0:0:0:
56,308,233864,1,8,0:0:0:0:
20,228,234158,2,0,L|8:132,2,90,0|12|12,0:0|0:0|0:0,0:0:0:0:
256,356,235629,6,0,P|304:360|356:352,1,90,8|0,0:0|0:0,0:0:0:0:
408,292,236217,2,0,P|424:252|424:180,1,90,8|0,0:0|0:0,0:0:0:0:
408,116,236805,6,0,P|392:84|256:52,1,180,4|8,0:0|0:0,0:0:0:0:
196,108,237687,2,0,L|196:208,2,90
128,52,238570,1,8,0:0:0:0:
128,52,238864,1,0,0:0:0:0:
68,120,239158,6,0,P|48:176|72:304,1,180,2|8,0:0|0:0,0:0:0:0:
144,340,240040,2,0,L|236:376,2,90
65,292,240923,2,0,P|50:251|47:185,1,90,8|0,0:0|0:0,0:0:0:0:
80,124,241511,6,0,P|112:96|240:128,1,180,4|8,0:0|0:0,0:0:0:0:
296,188,242393,2,0,L|296:288,2,90
364,128,243276,1,8,0:0:0:0:
364,128,243570,1,0,0:0:0:0:
440,176,243864,6,0,P|468:248|428:344,1,180,2|8,0:0|0:0,0:0:0:0:
348,372,244746,2,0,L|244:372,1,90
176,332,245335,2,0,L|64:320,1,90,0|8,0:0|0:0,0:0:0:0:
32,252,245923,1,0,0:0:0:0:
24,164,246217,6,0,P|28:112|152:52,1,180,4|8,0:0|0:0,0:0:0:0:
204,96,247099,2,0,L|204:192,2,90
280,48,247982,2,0,P|316:40|384:56,1,90,8|0,0:0|0:0,0:0:0:0:
440,104,248570,6,0,P|452:152|372:252,1,180,2|8,0:0|0:0,0:0:0:0:
292,228,249452,1,0,0:0:0:0:
220,176,249746,2,0,P|176:160|112:168,1,90
84,236,250335,2,0,P|128:252|192:244,1,90,8|0,0:0|0:0,0:0:0:0:
256,192,250923,12,2,255629,0:0:0:0:
