osu file format v14

[General]
AudioFilename: Hanatan - Karakuri pierrot a.mp3
AudioLeadIn: 0
PreviewTime: 86143
Countdown: 0
SampleSet: Soft
StackLeniency: 0.7
Mode: 0
LetterboxInBreaks: 1
WidescreenStoryboard: 1

[Editor]
DistanceSpacing: 1.2
BeatDivisor: 3
GridSize: 4
TimelineZoom: 1.7

[Metadata]
Title:Karakuri pierrot
TitleUnicode:からくりピエロ
Artist:Hanatan
ArtistUnicode:花たん
Creator:luxoDeh
Version:Hard
Source:
Tags:40meterP, 40mp, Hatsune Miku, Vocaloid, Yamako
BeatmapID:1401461
BeatmapSetID:307849

[Difficulty]
HPDrainRate:6
CircleSize:4
OverallDifficulty:6
ApproachRate:7
SliderMultiplier:1.2
SliderTickRate:1

[Events]
//Background and Video events
0,0,"Karakuri.Pierrot.full.771108.jpg",0,0
//Break Periods
2,105240,122964
2,135829,136493
2,161511,170023
//Storyboard Layer 0 (Background)
//Storyboard Layer 1 (Fail)
//Storyboard Layer 2 (Pass)
//Storyboard Layer 3 (Foreground)
//Storyboard Sound Samples

[TimingPoints]
20335,294.117647058824,4,2,1,50,1,0
86217,-100,4,2,1,50,0,1
105040,-100,4,2,1,50,0,0
114158,-76.9230769230769,4,2,1,50,0,0
114452,-100,4,2,1,50,0,0
180629,-133.333333333333,4,2,1,50,0,0
196805,-133.333333333333,4,2,1,15,0,0
197982,-100,4,2,1,50,0,0
199158,-100,4,2,1,50,0,1
234746,-100,4,2,1,50,0,0

[Colours]
Combo1 : 255,192,0
Combo2 : 255,128,128
Combo3 : 18,124,255
Combo4 : 242,24,57

[HitObjects]
220,324,20334,6,0,P|268:332|348:320,1,120
336,204,20923,2,0,P|288:196|208:208,1,120
108,204,21413,2,0,P|88:136|96:64,1,120
104,52,21805,1,0,0:0:0:0:
204,120,22099,1,0,0:0:0:0:
304,52,22393,1,0,0:0:0:0:
404,120,22687,6,0,L|436:220,1,80
456,224,22982,2,0,L|308:232,1,120
244,304,23570,1,0,0:0:0:0:
148,232,23864,2,0,P|108:180|80:96,2,120
244,304,24746,1,0,0:0:0:0:
340,232,25040,6,0,P|372:260|400:300,1,80
404,328,25335,2,0,P|468:296|500:224,1,120
488,136,25923,1,0,0:0:0:0:
428,80,26119,2,0,P|380:64|296:64,1,120
272,76,26511,1,0,0:0:0:0:
236,192,26805,1,0,0:0:0:0:
132,132,27099,1,0,0:0:0:0:
72,236,27393,6,0,P|76:300|144:348,1,120
192,360,27884,1,0,0:0:0:0:
192,360,27982,2,0,L|280:360,1,80
312,360,28276,2,0,P|351:316|352:257,1,120
328,180,28766,6,0,P|380:208|388:120,1,160,8|8,0:0|0:0,0:0:0:0:
308,60,29452,2,0,B|272:48|272:48|224:60|224:60|168:44,1,120,0|4,0:0|0:0,0:0:0:0:
48,56,30040,5,0,0:0:0:0:
20,196,30335,2,0,P|32:252|108:296,1,120,8|0,0:0|0:0,0:0:0:0:
172,276,30825,2,0,P|232:264|308:288,1,120,8|0,0:0|0:0,0:0:0:0:
328,300,31217,1,0,0:0:0:0:
352,160,31511,1,8,0:0:0:0:
476,236,31805,1,0,0:0:0:0:
412,364,32099,6,0,P|344:376|276:360,1,120,8|0,0:0|0:0,0:0:0:0:
212,316,32589,1,0,0:0:0:0:
212,316,32687,2,0,P|192:276|196:224,1,80,8|0,0:0|0:0,0:0:0:0:
200,192,32982,2,0,L|68:224,2,120,0|8|0,0:0|0:0|0:0,0:0:0:0:
256,60,33864,1,8,0:0:0:0:
256,60,34158,1,0,0:0:0:0:
340,176,34452,6,0,L|472:208,1,120,4|0,0:0|0:0,0:0:0:0:
488,344,35040,2,0,L|371:315,1,120,8|0,0:0|0:0,0:0:0:0:
296,256,35531,2,0,L|179:227,1,120,8|0,0:0|0:0,0:0:0:0:
144,196,35923,2,0,P|104:232|96:308,2,120,0|8|0,0:0|0:0|0:0,0:0:0:0:
260,112,36805,6,0,P|332:120|396:108,1,120,8|0,0:0|0:0,0:0:0:0:
456,56,37295,1,0,0:0:0:0:
456,56,37393,2,0,P|476:108|484:160,1,80,8|0,0:0|0:0,0:0:0:0:
476,180,37687,2,0,P|472:228|484:328,2,120
348,244,38570,1,8,0:0:0:0:
228,324,38864,2,0,P|184:292|216:232,1,120,0|4,0:0|0:0,0:0:0:0:
203,237,39452,5,0,0:0:0:0:
280,116,39746,2,0,P|276:72|192:60,1,120,8|0,0:0|0:0,0:0:0:0:
128,92,40236,2,0,P|92:132|88:232,1,120,8|0,0:0|0:0,0:0:0:0:
92,244,40629,1,0,0:0:0:0:
192,344,40923,1,8,0:0:0:0:
92,244,41217,1,0,0:0:0:0:
232,272,41511,6,0,P|296:288|356:268,1,120,2|0,0:0|0:0,0:0:0:0:
412,204,42001,1,0,0:0:0:0:
412,204,42099,2,0,P|416:152|408:104,1,80,8|0,0:0|0:0,0:0:0:0:
404,76,42393,2,0,L|512:128,2,120
268,24,43276,1,8,0:0:0:0:
268,24,43570,1,0,0:0:0:0:
144,96,43864,6,0,P|120:144|104:224,1,120,4|0,0:0|0:0,0:0:0:0:
200,316,44452,2,0,P|224:268|240:188,1,120,8|0,0:0|0:0,0:0:0:0:
236,108,44942,2,0,B|292:128|292:128|364:124,1,120,8|0,0:0|0:0,0:0:0:0:
400,120,45335,1,0,0:0:0:0:
364,260,45629,1,8,0:0:0:0:
400,120,45923,1,0,0:0:0:0:
296,220,46217,6,0,P|284:276|332:336,1,120,2|0,0:0|0:0,0:0:0:0:
412,328,46707,1,0,0:0:0:0:
412,328,46805,2,0,P|444:288|464:236,1,80,8|0,0:0|0:0,0:0:0:0:
456,216,47099,2,0,P|448:164|464:80,1,120
340,16,47687,1,0,0:0:0:0:
296,152,47982,2,0,B|272:216|272:216|220:168,1,120,8|0,0:0|0:0,0:0:0:0:
140,72,48570,5,4,0:0:0:0:
140,72,48864,1,0,0:0:0:0:
68,196,49158,2,0,P|88:240|172:280,1,120,8|0,0:0|0:0,0:0:0:0:
240,256,49648,2,0,P|308:240|372:236,1,120,8|0,0:0|0:0,0:0:0:0:
400,256,50040,1,0,0:0:0:0:
380,112,50335,1,8,0:0:0:0:
400,256,50629,1,0,0:0:0:0:
460,124,50923,6,0,P|452:72|368:32,1,120,8|0,0:0|0:0,0:0:0:0:
256,36,51511,2,0,P|208:69|196:127,1,120,8|0,0:0|0:0,0:0:0:0:
236,216,52001,2,0,P|244:268|208:328,1,120
212,324,52393,2,0,B|132:296|132:296|76:296,2,120,0|8|0,0:0|0:0|0:0,0:0:0:0:
352,364,53276,6,0,P|400:352|444:260,1,120,4|0,0:0|0:0,0:0:0:0:
440,156,53864,2,0,P|406:107|350:90,1,120,8|0,0:0|0:0,0:0:0:0:
268,140,54354,2,0,P|208:156|136:140,1,120,8|0,0:0|0:0,0:0:0:0:
112,120,54746,1,0,0:0:0:0:
124,264,55040,1,8,0:0:0:0:
112,120,55335,1,0,0:0:0:0:
40,244,55629,6,0,P|40:292|108:348,1,120,8|0,0:0|0:0,0:0:0:0:
184,352,56119,1,0,0:0:0:0:
184,352,56217,2,0,L|280:340,1,80,2|0,0:0|0:0,0:0:0:0:
308,328,56511,2,0,L|440:348,2,120,0|8|8,0:0|0:0|0:0,0:0:0:0:
228,208,57393,2,0,P|208:148|212:100,1,80,8|0,0:0|0:0,0:0:0:0:
220,84,57687,1,0,0:0:0:0:
88,140,57982,5,4,0:0:0:0:
88,140,58276,1,0,0:0:0:0:
84,284,58570,2,0,P|132:308|224:292,1,120,8|0,0:0|0:0,0:0:0:0:
284,268,59060,2,0,P|352:256|424:272,2,120,8|0|0,0:0|0:0|0:0,0:0:0:0:
244,292,59746,1,0,0:0:0:0:
260,148,60040,1,0,0:0:0:0:
168,260,60335,6,0,P|164:316|232:376,1,120,4|0,0:0|0:0,0:0:0:0:
344,344,60923,2,0,L|476:356,1,120,8|0,0:0|0:0,0:0:0:0:
463,354,61413,2,0,P|488:304|480:224,1,120,8|0,0:0|0:0,0:0:0:0:
468,196,61805,1,0,0:0:0:0:
400,68,62099,1,8,0:0:0:0:
468,196,62393,1,0,0:0:0:0:
340,128,62687,6,0,P|288:120|204:128,1,120,10|0,0:0|0:0,0:0:0:0:
104,212,63276,2,0,P|104:272|168:328,1,120,8|0,0:0|0:0,0:0:0:0:
236,332,63766,2,0,L|360:344,1,120,8|0,0:0|0:0,0:0:0:0:
404,344,64158,2,0,P|384:272|408:220,1,120,0|8,0:0|0:0,0:0:0:0:
484,116,64746,1,0,0:0:0:0:
348,164,65040,6,0,P|296:168|204:156,1,120,10|0,0:0|0:0,0:0:0:0:
124,64,65629,2,0,P|84:96|72:148,1,80,8|0,0:0|0:0,0:0:0:0:
76,168,65923,2,0,L|92:260,1,80,0|8,0:0|0:0,0:0:0:0:
100,292,66217,2,0,L|8:280,1,80,8|0,0:0|0:0,0:0:0:0:
32,328,66511,2,0,L|168:344,1,120,8|8,0:0|0:0,0:0:0:0:
296,356,67099,1,0,0:0:0:0:
412,272,67393,6,0,P|444:212|320:168,1,240,4|0,0:0|0:0,0:0:0:0:
212,264,68276,2,0,L|88:272,1,120,2|0,0:0|0:0,0:0:0:0:
36,196,68766,1,8,0:0:0:0:
36,196,68864,2,0,P|36:128|76:64,2,120,0|8|0,0:0|0:0|0:0,0:0:0:0:
112,320,69746,6,0,B|224:312|224:312|268:248|352:276,1,240,2|0,0:0|0:0,0:0:0:0:
472,324,70629,2,0,P|500:272|500:192,1,120,2|0,0:0|0:0,0:0:0:0:
444,140,71119,1,8,0:0:0:0:
444,140,71217,2,0,P|428:88|436:20,2,120,0|8|0,0:0|0:0|0:0,0:0:0:0:
376,268,72099,6,0,P|344:304|284:192,1,240,4|0,0:0|0:0,0:0:0:0:
368,80,72982,1,0,0:0:0:0:
368,80,73276,2,0,L|240:92,1,120
132,172,73864,2,0,L|260:184,1,120,8|0,0:0|0:0,0:0:0:0:
340,216,74354,1,0,0:0:0:0:
340,216,74452,6,0,P|352:264|324:348,1,120,4|0,0:0|0:0,0:0:0:0:
200,376,75040,2,0,P|188:328|216:244,1,120
256,180,75531,1,8,0:0:0:0:
256,180,75629,2,0,P|272:122|260:64,2,120,0|8|0,0:0|0:0|0:0,0:0:0:0:
204,260,76413,2,0,L|72:268,1,120,8|0,0:0|0:0,0:0:0:0:
44,296,76805,6,0,P|8:200|128:168,1,240,4|0,0:0|0:0,0:0:0:0:
248,216,77687,2,0,P|300:224|384:208,1,120,2|0,0:0|0:0,0:0:0:0:
448,160,78178,1,8,0:0:0:0:
448,160,78276,2,0,P|468:216|456:304,2,120,0|8|0,0:0|0:0|0:0,0:0:0:0:
344,60,79158,6,0,P|292:40|104:72,1,240,4|0,0:0|0:0,0:0:0:0:
36,184,80040,2,0,P|32:248|68:316,1,120,2|0,0:0|0:0,0:0:0:0:
140,340,80531,1,8,0:0:0:0:
140,340,80629,2,0,L|276:360,2,120,0|8|0,0:0|0:0|0:0,0:0:0:0:
204,212,81511,6,0,L|340:192,1,120,4|0,0:0|0:0,0:0:0:0:
320,52,82099,2,0,L|456:72,1,120
488,152,82589,1,0,0:0:0:0:
488,152,82687,2,0,P|496:220|484:280,2,120,2|0|0,0:0|0:0|0:0,0:0:0:0:
356,208,83570,1,0,0:0:0:0:
252,308,83864,6,0,P|204:320|132:304,1,120,4|8,0:0|0:0,0:0:0:0:
52,192,84452,2,0,L|36:108,1,80,8|0,0:0|0:0,0:0:0:0:
28,64,84746,1,0,0:0:0:0:
120,88,84942,2,0,P|180:100|248:80,1,120,2|8,0:0|0:0,0:0:0:0:
272,52,85335,2,0,L|256:192,1,120,0|4,0:0|0:0,0:0:0:0:
404,332,86217,5,4,0:0:0:0:
432,192,86511,1,0,0:0:0:0:
392,52,86805,2,0,P|340:48|296:52,1,80,8|0,0:0|0:0,0:0:0:0:
272,76,87099,2,0,P|232:80|176:76,1,80
148,64,87393,1,0,0:0:0:0:
12,20,87687,1,0,0:0:0:0:
88,144,87982,6,0,P|104:196|84:276,2,120,8|0|0,0:0|0:0|0:0,0:0:0:0:
12,20,88864,1,0,0:0:0:0:
88,144,89158,2,0,P|144:160|172:160,1,80,8|0,0:0|0:0,0:0:0:0:
208,136,89452,2,0,P|252:128|312:132,1,80
332,144,89746,2,0,P|392:184|412:252,2,120,0|0|8,0:0|0:0|0:0,0:0:0:0:
276,276,90629,1,0,0:0:0:0:
416,312,90923,6,0,P|468:288|496:204,1,120,4|0,0:0|0:0,0:0:0:0:
444,100,91511,2,0,P|396:80|376:48,1,80,8|0,0:0|0:0,0:0:0:0:
364,12,91805,2,0,L|240:56,2,120
504,48,92687,6,0,P|520:96|504:156,1,80,8|0,0:0|0:0,0:0:0:0:
496,168,92982,2,0,P|480:232|496:300,2,120
368,100,93864,2,0,P|308:88|236:104,1,120,8|0,0:0|0:0,0:0:0:0:
168,148,94354,1,0,0:0:0:0:
168,148,94452,2,0,P|144:184|136:224,1,80,2|0,0:0|0:0,0:0:0:0:
132,268,94746,2,0,L|8:176,2,120,0|8|0,0:0|0:0|0:0,0:0:0:0:
216,316,95531,1,0,0:0:0:0:
216,316,95629,6,0,B|276:332|276:332|352:312,1,120,4|0,0:0|0:0,0:0:0:0:
456,244,96217,2,0,L|464:156,1,80,8|0,0:0|0:0,0:0:0:0:
480,120,96511,2,0,L|424:52,1,80
396,24,96805,1,0,0:0:0:0:
268,92,97099,1,0,0:0:0:0:
136,40,97393,6,0,P|108:84|100:132,1,80,8|0,0:0|0:0,0:0:0:0:
108,160,97687,2,0,P|120:212|116:248,1,80
100,284,97982,1,0,0:0:0:0:
232,224,98276,1,0,0:0:0:0:
100,284,98570,1,8,0:0:0:0:
240,308,98864,2,0,P|280:312|320:308,1,80
364,292,99158,2,0,P|404:296|464:372,2,120,2|0|8,0:0|0:0|0:0,0:0:0:0:
228,340,100040,1,0,0:0:0:0:
104,264,100335,6,0,P|76:208|76:132,1,120,4|0,0:0|0:0,0:0:0:0:
156,32,100923,2,0,P|200:28|248:36,1,80,8|0,0:0|0:0,0:0:0:0:
280,48,101217,2,0,P|328:76|376:152,2,120
216,176,102099,2,0,P|251:223|302:254,1,120,8|0,0:0|0:0,0:0:0:0:
392,216,102589,1,0,0:0:0:0:
392,216,102687,6,0,P|456:228|504:288,1,120,4|0,0:0|0:0,0:0:0:0:
384,356,103276,2,0,P|336:360|248:348,1,120
180,304,103766,1,0,0:0:0:0:
180,304,103864,2,0,L|200:204,1,80
256,192,104158,12,4,105040,0:0:0:0:
364,92,123864,5,4,0:0:0:0:
364,92,124158,1,0,0:0:0:0:
444,212,124452,2,0,P|400:232|312:224,1,120
240,196,124942,2,0,P|184:188|120:196,1,120
76,212,125335,1,0,0:0:0:0:
108,72,125629,1,0,0:0:0:0:
76,212,125923,1,0,0:0:0:0:
180,112,126217,6,0,P|224:92|384:72,1,200,2|0,0:0|0:0,0:0:0:0:
420,76,126805,2,0,L|376:200,1,120
328,272,127295,2,0,P|356:300|440:320,1,120
480,312,127687,1,0,0:0:0:0:
472,168,127982,1,0,0:0:0:0:
480,312,128276,1,0,0:0:0:0:
396,196,128570,6,0,P|352:156|260:152,1,120,2|0,0:0|0:0,0:0:0:0:
152,144,129158,2,0,P|93:155|50:195,1,120
56,292,129648,2,0,P|100:332|192:336,1,120
204,328,130040,2,0,L|308:244,2,120
240,188,130923,6,0,P|256:120|248:44,1,120,2|0,0:0|0:0,0:0:0:0:
116,24,131511,1,2,0:0:0:0:
56,156,131805,1,0,0:0:0:0:
116,24,132099,1,8,0:0:0:0:
144,116,132295,1,0,0:0:0:0:
144,116,132393,2,0,L|156:200,1,80,8|0,0:0|0:0,0:0:0:0:
148,244,132687,2,0,L|264:192,1,120,8|0,0:0|0:0,0:0:0:0:
388,260,133276,5,4,0:0:0:0:
472,52,133864,2,0,P|424:72|340:80,1,120,8|0,0:0|0:0,0:0:0:0:
264,60,134354,2,0,P|196:48|120:60,1,120,8|0,0:0|0:0,0:0:0:0:
100,68,134746,1,0,0:0:0:0:
56,204,135040,1,8,0:0:0:0:
100,68,135335,1,0,0:0:0:0:
212,160,135629,5,4,0:0:0:0:
212,160,137393,6,0,L|224:252,1,80,8|0,0:0|0:0,0:0:0:0:
228,288,137687,2,0,P|264:228|340:208,1,120,8|4,0:0|0:0,0:0:0:0:
444,252,138276,5,0,0:0:0:0:
436,108,138570,2,0,P|408:56|348:28,1,120,8|0,0:0|0:0,0:0:0:0:
276,80,139060,2,0,P|220:84|140:80,1,120,8|0,0:0|0:0,0:0:0:0:
112,64,139452,1,0,0:0:0:0:
44,192,139746,1,8,0:0:0:0:
112,64,140040,1,0,0:0:0:0:
124,208,140335,6,0,P|140:268|192:320,1,120,2|0,0:0|0:0,0:0:0:0:
320,308,140923,2,0,P|358:262|373:205,1,120,8|0,0:0|0:0,0:0:0:0:
328,120,141413,1,0,0:0:0:0:
328,120,141511,2,0,P|328:72|368:32,1,80,8|0,0:0|0:0,0:0:0:0:
388,28,141805,2,0,P|456:24|504:88,1,120,8|8,0:0|0:0,0:0:0:0:
500,152,142295,1,0,0:0:0:0:
500,152,142393,2,0,L|488:236,1,80,8|0,0:0|0:0,0:0:0:0:
500,280,142687,6,0,B|440:344|360:284|360:284|380:236|340:188,1,240,4|0,0:0|0:0,0:0:0:0:
224,140,143570,2,0,P|168:128|88:144,1,120,2|0,0:0|0:0,0:0:0:0:
20,176,144060,1,8,0:0:0:0:
20,176,144158,2,0,L|36:48,2,120,0|8|0,0:0|0:0|0:0,0:0:0:0:
24,320,145040,6,0,B|60:360|136:360|136:360|156:304|220:276,1,240,4|0,0:0|0:0,0:0:0:0:
352,236,145923,2,0,P|408:232|488:260,1,120,2|0,0:0|0:0,0:0:0:0:
440,340,146413,1,8,0:0:0:0:
440,340,146511,2,0,P|384:344|304:316,2,120,0|8|0,0:0|0:0|0:0,0:0:0:0:
484,204,147393,6,0,P|488:144|336:64,1,240,4|0,0:0|0:0,0:0:0:0:
256,164,148276,1,0,0:0:0:0:
152,68,148570,2,0,P|100:80|44:128,1,120
48,264,149158,2,0,P|100:252|156:204,1,120,8|0,0:0|0:0,0:0:0:0:
256,112,149746,6,0,P|320:100|388:120,1,120,4|0,0:0|0:0,0:0:0:0:
404,252,150335,2,0,P|340:264|272:244,1,120,8|0,0:0|0:0,0:0:0:0:
356,184,150825,1,8,0:0:0:0:
356,184,150923,2,0,P|400:168|452:184,1,80
474,194,151217,2,0,L|446:62,2,120,8|0|0,0:0|0:0|0:0,0:0:0:0:
472,332,152099,6,0,P|432:360|244:340,1,240,4|0,0:0|0:0,0:0:0:0:
156,236,152982,2,0,P|136:172|140:112,1,120,2|0,0:0|0:0,0:0:0:0:
180,36,153472,1,8,0:0:0:0:
180,36,153570,2,0,P|236:44|308:32,2,120,0|8|0,0:0|0:0|0:0,0:0:0:0:
36,16,154452,6,0,P|8:104|28:256,1,240,4|0,0:0|0:0,0:0:0:0:
128,352,155335,2,0,P|176:368|260:356,1,120,2|0,0:0|0:0,0:0:0:0:
328,320,155825,1,8,0:0:0:0:
328,320,155923,2,0,L|364:192,2,120,0|8|0,0:0|0:0|0:0,0:0:0:0:
264,248,156707,1,8,0:0:0:0:
264,248,156805,6,0,L|236:132,1,120,4|0,0:0|0:0,0:0:0:0:
124,44,157393,2,0,L|96:176,1,120,8|0,0:0|0:0,0:0:0:0:
28,224,157884,1,0,0:0:0:0:
28,224,157982,2,0,P|72:252|152:264,1,120,4|0,0:0|0:0,0:0:0:0:
264,200,158570,2,0,P|328:176|392:188,1,120,8|0,0:0|0:0,0:0:0:0:
460,236,159060,1,0,0:0:0:0:
460,236,159158,6,0,L|488:96,2,120,4|8|8,0:0|0:0|0:0,0:0:0:0:
436,328,159942,1,8,0:0:0:0:
436,328,160040,2,0,P|376:316|300:332,1,120,0|2,0:0|0:0,0:0:0:0:
236,376,160531,1,0,0:0:0:0:
236,376,160629,2,0,P|200:336|168:256,1,120,8|8,0:0|0:0,0:0:0:0:
172,132,161217,1,0,0:0:0:0:
368,332,170923,6,0,L|380:240,1,80,4|8,0:0|0:0,0:0:0:0:
404,212,171217,2,0,L|372:128,1,80
356,92,171511,1,8,0:0:0:0:
356,92,171805,1,0,0:0:0:0:
224,36,172099,2,0,L|212:128,1,80,2|8,0:0|0:0,0:0:0:0:
188,156,172393,2,0,L|220:240,1,80
236,276,172687,1,8,0:0:0:0:
236,276,172981,1,0,0:0:0:0:
124,368,173276,6,0,P|80:348|56:308,1,80,2|0,0:0|0:0,0:0:0:0:
56,276,173570,2,0,L|76:184,1,80
80,152,173864,2,0,L|72:64,1,80,8|0,0:0|0:0,0:0:0:0:
72,24,174158,2,0,P|132:48|176:44,1,80,2|8,0:0|0:0,0:0:0:0:
192,40,174452,2,0,P|236:28|276:32,1,80
316,48,174746,2,0,P|372:64|448:56,2,120,8|8|0,0:0|0:0|0:0,0:0:0:0:
196,128,175629,6,0,P|174:195|296:176,1,240,4|8,0:0|0:0,0:0:0:0:
317,48,176511,1,0,0:0:0:0:
173,41,176805,2,0,P|123:70|98:102,1,80,0|8,0:0|0:0,0:0:0:0:
83,127,177099,2,0,P|66:181|85:252,1,120,0|8,0:0|0:0,0:0:0:0:
169,354,177687,1,0,0:0:0:0:
279,261,177982,6,0,P|332:235|407:245,2,120,8|0|8,0:0|0:0|0:0,0:0:0:0:
169,354,178864,1,0,0:0:0:0:
109,279,179060,1,8,0:0:0:0:
109,279,179158,2,0,P|88:218|91:186,1,80
96,156,179452,2,0,P|109:110|141:68,1,80,8|0,0:0|0:0,0:0:0:0:
156,45,179746,1,8,0:0:0:0:
255,148,180040,1,0,0:0:0:0:
156,45,180335,5,2,0:0:0:0:
156,45,180629,1,0,0:0:0:0:
259,75,180923,2,0,P|303:78|340:74,1,60.0000022888184
352,64,181217,2,0,P|388:58|430:65,1,60.0000022888184
445,71,181511,1,0,0:0:0:0:
445,71,181805,1,0,0:0:0:0:
469,176,182099,2,0,P|464:213|453:245,1,60.0000022888184
423,247,182393,2,0,P|413:286|419:329,1,60.0000022888184
424,339,182687,1,0,0:0:0:0:
424,339,182982,1,0,0:0:0:0:
318,362,183276,6,0,L|251:366,1,60.0000022888184
227,345,183570,2,0,L|165:339,1,60.0000022888184
134,354,183864,1,0,0:0:0:0:
134,354,184158,1,0,0:0:0:0:
64,271,184452,2,0,P|41:223|41:159,2,90.0000034332277
134,354,185335,5,0,0:0:0:0:
175,254,185629,2,0,P|188:209|187:182,1,60.0000022888184
176,162,185923,2,0,P|168:121|169:91,1,60.0000022888184
182,70,186217,1,0,0:0:0:0:
182,70,186511,1,0,0:0:0:0:
278,21,186805,2,0,P|301:59|321:76,1,60.0000022888184
348,71,187099,2,0,P|380:100|403:130,1,60.0000022888184
398,147,187393,1,0,0:0:0:0:
398,147,187687,1,0,0:0:0:0:
422,252,187982,6,0,P|413:291|398:318,1,60.0000022888184
376,331,188276,2,0,P|340:352|306:354,1,60.0000022888184
286,354,188570,1,0,0:0:0:0:
286,354,188864,1,0,0:0:0:0:
190,303,189158,2,0,P|164:271|139:206,2,90.0000034332277
286,354,190040,5,0,0:0:0:0:
303,247,190335,2,0,L|312:179,1,60.0000022888184
329,156,190629,2,0,L|320:88,1,60.0000022888184
317,60,190923,1,0,0:0:0:0:
317,60,191217,1,0,0:0:0:0:
216,19,191511,2,0,L|207:87,1,60.0000022888184
190,110,191805,2,0,L|199:178,1,60.0000022888184
202,206,192099,1,0,0:0:0:0:
202,206,192393,1,0,0:0:0:0:
240,306,192687,6,0,P|207:323|167:325,1,60.0000022888184
148,326,192982,2,0,P|100:311|70:292,1,60.0000022888184
63,284,193276,1,0,0:0:0:0:
63,284,193570,1,0,0:0:0:0:
28,181,193864,2,0,P|22:136|30:75,2,90.0000034332277
63,284,194746,5,0,0:0:0:0:
131,200,195040,2,0,P|169:195|203:198,1,60.0000022888184
223,212,195335,2,0,P|264:213|291:207,1,60.0000022888184
314,193,195629,1,0,0:0:0:0:
314,193,195923,1,0,0:0:0:0:
386,113,196217,2,0,P|413:142|427:181,1,60.0000022888184
428,195,196511,2,0,P|424:242|413:276,1,60.0000022888184
407,287,196805,1,0,0:0:0:0:
256,192,196903,12,8,197884,0:0:0:0:
256,137,198178,5,8,0:0:0:0:
256,137,198276,2,0,L|256:55,1,80,8|0,0:0|0:0,0:0:0:0:
267,10,198570,2,0,L|184:22,1,80,8|0,0:0|0:0,0:0:0:0:
141,33,198864,1,8,0:0:0:0:
41,137,199158,6,0,P|29:192|68:277,1,120,4|0,0:0|0:0,0:0:0:0:
156,344,199746,2,0,P|208:352|256:344,1,80,8|0,0:0|0:0,0:0:0:0:
280,336,200040,2,0,P|320:316|352:280,1,80,0|8,0:0|0:0,0:0:0:0:
364,248,200335,1,0,0:0:0:0:
388,108,200629,1,0,0:0:0:0:
364,248,200923,6,0,P|388:304|440:348,2,120,8|0|0,0:0|0:0|0:0,0:0:0:0:
388,108,201805,1,0,0:0:0:0:
268,184,202099,2,0,P|224:196|184:196,1,80,8|0,0:0|0:0,0:0:0:0:
144,184,202393,2,0,P|104:160|80:120,1,80,0|8,0:0|0:0,0:0:0:0:
72,88,202687,2,0,L|12:220,2,120,0|0|8,0:0|0:0|0:0,0:0:0:0:
196,16,203570,1,0,0:0:0:0:
308,108,203864,6,0,P|344:132|432:128,1,120,4|0,0:0|0:0,0:0:0:0:
496,12,204452,2,0,L|512:104,1,80,8|0,0:0|0:0,0:0:0:0:
500,140,204746,2,0,L|488:232,1,80,0|8,0:0|0:0,0:0:0:0:
500,268,205040,1,0,0:0:0:0:
376,340,205335,1,0,0:0:0:0:
252,268,205629,6,0,P|208:264|160:276,1,80,8|0,0:0|0:0,0:0:0:0:
132,292,205923,2,0,P|76:300|32:288,1,80,0|8,0:0|0:0,0:0:0:0:
20,264,206217,2,0,L|44:136,2,120,0|0|8,0:0|0:0|0:0,0:0:0:0:
116,372,207099,1,0,0:0:0:0:
208,340,207295,1,0,0:0:0:0:
252,320,207393,2,0,P|296:312|356:332,1,80,2|0,0:0|0:0,0:0:0:0:
376,336,207687,2,0,P|432:316|480:260,2,120,0|8|0,0:0|0:0|0:0,0:0:0:0:
296,216,208570,6,0,P|337:173|393:153,1,120,4|0,0:0|0:0,0:0:0:0:
488,40,209158,2,0,P|444:20|412:16,1,80,8|0,0:0|0:0,0:0:0:0:
368,28,209452,2,0,P|320:40|268:32,1,80,0|8,0:0|0:0,0:0:0:0:
244,28,209746,1,0,0:0:0:0:
124,108,210040,1,0,0:0:0:0:
244,28,210335,6,0,P|268:80|268:120,1,80,8|0,0:0|0:0,0:0:0:0:
252,148,210629,2,0,P|240:192|252:248,1,80,0|8,0:0|0:0,0:0:0:0:
260,272,210923,1,0,0:0:0:0:
120,244,211217,1,0,0:0:0:0:
260,272,211511,1,8,0:0:0:0:
384,200,211805,2,0,P|432:192|476:200,1,80,8|0,0:0|0:0,0:0:0:0:
504,216,212099,6,0,L|480:76,2,120,0|0|8,0:0|0:0|0:0,0:0:0:0:
440,348,212982,1,0,0:0:0:0:
440,348,213276,1,4,0:0:0:0:
316,272,213570,1,0,0:0:0:0:
352,132,213864,6,0,P|356:84|348:36,1,80,8|0,0:0|0:0,0:0:0:0:
324,12,214158,2,0,L|200:80,1,120
128,40,214648,1,8,0:0:0:0:
128,40,214746,2,0,P|112:96|120:176,1,120,0|8,0:0|0:0,0:0:0:0:
172,292,215335,1,0,0:0:0:0:
80,180,215629,5,4,0:0:0:0:
92,324,215923,2,0,P|128:368|208:372,1,120,0|8,0:0|0:0,0:0:0:0:
304,296,216511,2,0,P|348:288|404:296,1,80,8|0,0:0|0:0,0:0:0:0:
428,304,216805,2,0,P|468:264|476:220,1,80,2|8,0:0|0:0,0:0:0:0:
468,196,217099,2,0,P|460:136|480:56,2,120,0|8|0,0:0|0:0|0:0,0:0:0:0:
504,336,217982,5,4,0:0:0:0:
402,234,218276,1,0,0:0:0:0:
276,304,218570,2,0,P|228:308|184:300,1,80,8|0,0:0|0:0,0:0:0:0:
156,280,218864,2,0,P|112:240|92:192,1,80,0|8,0:0|0:0,0:0:0:0:
80,180,219158,1,0,0:0:0:0:
104,36,219452,1,0,0:0:0:0:
80,180,219746,6,0,P|136:188|168:184,1,80,8|0,0:0|0:0,0:0:0:0:
204,172,220040,2,0,P|248:144|264:120,1,80,0|8,0:0|0:0,0:0:0:0:
276,76,220335,1,0,0:0:0:0:
328,212,220629,1,0,0:0:0:0:
276,76,220923,2,0,P|240:48|200:36,1,80,8|0,0:0|0:0,0:0:0:0:
160,32,221217,2,0,P|116:32|68:48,1,80,0|8,0:0|0:0,0:0:0:0:
40,64,221511,1,0,0:0:0:0:
8,204,221805,1,0,0:0:0:0:
80,328,222099,2,0,P|128:348|204:320,2,120,8|0|4,0:0|0:0|0:0,0:0:0:0:
144,200,222982,5,0,0:0:0:0:
236,88,223276,2,0,P|292:68|332:76,1,80,8|0,0:0|0:0,0:0:0:0:
360,72,223570,2,0,P|404:84|444:120,1,80
464,140,223864,1,0,0:0:0:0:
492,280,224158,1,0,0:0:0:0:
464,140,224452,6,0,P|396:144|368:160,1,80,8|0,0:0|0:0,0:0:0:0:
348,180,224746,2,0,P|316:220|304:272,1,80,0|8,0:0|0:0,0:0:0:0:
296,292,225040,1,0,0:0:0:0:
240,160,225335,1,0,0:0:0:0:
296,292,225629,2,0,P|332:320|376:332,1,80,8|0,0:0|0:0,0:0:0:0:
412,336,225923,2,0,P|452:336|508:316,1,80,0|8,0:0|0:0,0:0:0:0:
504,280,226217,2,0,P|500:216|508:140,2,120,0|0|8,0:0|0:0|0:0,0:0:0:0:
392,192,227099,1,0,0:0:0:0:
392,192,227393,5,4,0:0:0:0:
256,148,227687,1,0,0:0:0:0:
164,260,227982,2,0,P|112:268|36:256,2,120,8|0|0,0:0|0:0|0:0,0:0:0:0:
256,148,228864,1,0,0:0:0:0:
372,64,229158,6,0,P|424:56|500:68,2,120,8|0|0,0:0|0:0|0:0,0:0:0:0:
256,148,230040,1,0,0:0:0:0:
312,280,230335,2,0,P|336:316|372:340,1,80,8|0,0:0|0:0,0:0:0:0:
365,337,230629,1,0,0:0:0:0:
440,280,230825,1,8,0:0:0:0:
440,280,230923,2,0,P|480:236|488:200,1,80
484,168,231217,2,0,P|440:132|424:48,2,120,0|8|0,0:0|0:0|0:0,0:0:0:0:
428,36,232099,6,0,P|368:24|296:40,1,120,4|0,0:0|0:0,0:0:0:0:
196,120,232687,1,8,0:0:0:0:
196,120,232982,1,0,0:0:0:0:
92,220,233276,2,0,P|96:288|152:344,1,120
260,376,233864,1,8,0:0:0:0:
348,260,234158,2,0,P|376:224|424:204,1,80,0|8,0:0|0:0,0:0:0:0:
452,216,234452,6,0,L|392:88,1,120,12|4,0:0|0:0,0:0:0:0:
401,107,235040,1,0,0:0:0:0:
401,107,235335,2,0,P|352:120|296:112,1,80,0|8,0:0|0:0,0:0:0:0:
276,104,235629,2,0,P|236:96|176:100,1,80,0|8,0:0|0:0,0:0:0:0:
152,108,235923,2,0,B|136:136|104:148|104:148|72:160|40:200,1,120,2|8,0:0|0:0,0:0:0:0:
12,316,236511,2,0,P|48:352|100:360,1,80,0|8,0:0|0:0,0:0:0:0:
120,348,236805,6,0,P|176:320|244:320,1,120,4|0,0:0|0:0,0:0:0:0:
372,352,237393,2,0,P|412:348|472:272,1,120,8|0,0:0|0:0,0:0:0:0:
448,200,237884,2,0,P|428:156|440:68,1,120,8|0,0:0|0:0,0:0:0:0:
448,40,238276,1,0,0:0:0:0:
312,88,238570,1,8,0:0:0:0:
448,40,238864,1,0,0:0:0:0:
308,8,239158,6,0,P|248:36|232:92,1,120,2|0,0:0|0:0,0:0:0:0:
256,176,239648,1,0,0:0:0:0:
256,176,239746,2,0,P|264:224|256:284,1,80,8|0,0:0|0:0,0:0:0:0:
248,300,240040,2,0,L|392:264,2,120
116,356,240923,2,0,L|-28:320,1,120,8|0,0:0|0:0,0:0:0:0:
20,232,241413,1,8,0:0:0:0:
20,232,241511,6,0,P|12:180|60:100,1,120,4|0,0:0|0:0,0:0:0:0:
164,52,242099,2,0,P|212:40|296:60,1,120,8|0,0:0|0:0,0:0:0:0:
364,100,242589,2,0,P|392:156|392:236,1,120,8|0,0:0|0:0,0:0:0:0:
396,260,242982,2,0,L|504:184,2,120,0|8|0,0:0|0:0|0:0,0:0:0:0:
316,312,243766,1,0,0:0:0:0:
316,312,243864,6,0,P|248:320|180:304,1,120
92,216,244452,2,0,L|76:88,2,120,8|0|0,0:0|0:0|0:0,0:0:0:0:
28,348,245335,1,0,0:0:0:0:
92,216,245629,1,8,0:0:0:0:
28,348,245923,1,0,0:0:0:0:
152,272,246217,6,0,P|208:256|284:272,1,120,4|0,0:0|0:0,0:0:0:0:
392,336,246805,2,0,P|440:312|472:236,1,120,8|0,0:0|0:0,0:0:0:0:
424,172,247295,2,0,P|408:112|440:44,1,120,8|0,0:0|0:0,0:0:0:0:
460,24,247687,1,0,0:0:0:0:
328,80,247982,1,8,0:0:0:0:
460,24,248276,1,0,0:0:0:0:
316,4,248570,6,0,P|268:32|252:96,1,120,2|0,0:0|0:0,0:0:0:0:
268,184,249060,1,0,0:0:0:0:
268,184,249158,2,0,P|268:240|212:288,2,120,8|0|0,0:0|0:0|0:0,0:0:0:0:
184,68,250040,1,0,0:0:0:0:
184,68,250335,1,8,0:0:0:0:
128,200,250629,1,0,0:0:0:0:
256,192,250923,12,0,254452,0:0:0:0:
256,164,254746,6,0,L|256:32,2,120,0|8|0,0:0|0:0|0:0,0:0:0:0:
256,308,255629,1,2,0:0:0:0:
