osu file format v14

[General]
AudioFilename: Hanatan - Karakuri pierrot a.mp3
AudioLeadIn: 0
PreviewTime: 86143
Countdown: 0
SampleSet: None
StackLeniency: 0.7
Mode: 0
LetterboxInBreaks: 1
WidescreenStoryboard: 1

[Editor]
DistanceSpacing: 0.8
BeatDivisor: 3
GridSize: 4
TimelineZoom: 1.7

[Metadata]
Title:Karakuri pierrot
TitleUnicode:からくりピエロ
Artist:Hanatan
ArtistUnicode:花たん
Creator:luxoDeh
Version:Easy
Source:
Tags:40meterP, 40mp, Hatsune Miku, Vocaloid, Yamako
BeatmapID:1406819
BeatmapSetID:307849

[Difficulty]
HPDrainRate:3
CircleSize:3
OverallDifficulty:3
ApproachRate:3
SliderMultiplier:0.8
SliderTickRate:1

[Events]
//Background and Video events
0,0,"Karakuri.Pierrot.full.771108.jpg",0,0
//Break Periods
2,105240,122424
2,161511,169483
//Storyboard Layer 0 (Background)
//Storyboard Layer 1 (Fail)
//Storyboard Layer 2 (Pass)
//Storyboard Layer 3 (Foreground)
//Storyboard Sound Samples

[TimingPoints]
20335,294.117647058824,4,2,1,50,1,0
86217,-100,4,2,1,50,0,1
105040,-100,4,2,1,50,0,0
199158,-100,4,2,1,50,0,1
234746,-100,4,2,1,50,0,0

[Colours]
Combo1 : 255,192,0
Combo2 : 255,128,128
Combo3 : 18,124,255
Combo4 : 242,24,57

[HitObjects]
160,308,20334,6,0,P|120:288|92:180,1,160
176,88,21511,2,0,L|348:112,1,160
432,192,22687,2,0,P|424:269|362:316,1,160
256,244,23864,2,0,L|256:80,2,160
160,328,25629,6,0,P|108:324|40:228,2,160
256,244,27393,2,0,P|300:232|420:248,1,160
492,344,28570,1,0,0:0:0:0:
500,216,29158,2,0,P|500:168|416:72,1,160,0|4,0:0|0:0,0:0:0:0:
312,48,30335,6,0,P|260:40|140:48,1,160,8|0,0:0|0:0,0:0:0:0:
52,124,31511,2,0,P|28:172|68:276,2,160,8|0|8,0:0|0:0|0:0,0:0:0:0:
153,45,33276,1,0,0:0:0:0:
240,140,33864,2,0,P|268:168|388:196,1,160,8|2,0:0|0:0,0:0:0:0:
488,124,35040,6,0,L|508:292,2,160,8|0|8,0:0|0:0|0:0,0:0:0:0:
392,40,36805,1,0,0:0:0:0:
272,88,37393,2,0,P|216:96|108:80,1,160,8|0,0:0|0:0,0:0:0:0:
4,16,38570,2,0,P|-8:88|4:176,1,160,8|4,0:0|0:0,0:0:0:0:
76,280,39746,6,0,P|116:312|236:312,2,160,8|0|8,0:0|0:0|0:0,0:0:0:0:
175,199,41511,1,0,0:0:0:0:
272,116,42099,2,0,P|316:104|440:124,1,160,8|0,0:0|0:0,0:0:0:0:
428,248,43276,2,0,P|384:260|260:240,1,160,8|2,0:0|0:0,0:0:0:0:
168,172,44452,6,0,P|112:172|40:256,2,160,8|0|8,0:0|0:0|0:0,0:0:0:0:
273,245,46217,1,0,0:0:0:0:
360,340,46805,2,0,P|400:316|452:212,1,160,8|0,0:0|0:0,0:0:0:0:
404,100,47982,2,0,L|404:16,2,80,8|0|4,0:0|0:0|0:0,0:0:0:0:
316,192,49158,6,0,P|256:212|152:180,1,160,8|0,0:0|0:0,0:0:0:0:
104,164,50040,2,0,P|60:192|44:304,1,160
52,356,50923,1,2,0:0:0:0:
180,376,51511,2,0,L|344:376,1,160,8|0,0:0|0:0,0:0:0:0:
396,348,52393,2,0,P|428:308|416:192,1,160
392,148,53276,5,2,0:0:0:0:
292,68,53864,2,0,P|236:56|120:76,2,160,8|0|8,0:0|0:0|0:0,0:0:0:0:
312,196,55629,2,0,L|276:352,1,160,2|0,0:0|0:0,0:0:0:0:
148,352,56805,2,0,L|112:196,1,160,8|8,0:0|0:0,0:0:0:0:
88,72,57982,5,4,0:0:0:0:
204,128,58570,2,0,P|260:140|364:128,1,160,8|0,0:0|0:0,0:0:0:0:
412,88,59452,2,0,L|392:248,1,160
384,312,60335,1,2,0:0:0:0:
268,360,60923,2,0,P|220:368|96:352,1,160,8|0,0:0|0:0,0:0:0:0:
68,308,61805,2,0,P|52:264|64:144,1,160
92,100,62687,5,2,0:0:0:0:
208,44,63276,2,0,P|256:32|368:48,2,160,8|0|8,0:0|0:0|0:0,0:0:0:0:
116,136,65040,1,2,0:0:0:0:
228,196,65629,1,0,0:0:0:0:
340,256,66217,2,0,P|404:244|456:164,1,160,8|8,0:0|0:0,0:0:0:0:
440,108,67099,1,0,0:0:0:0:
404,56,67393,6,0,P|360:32|244:152,1,240,4|0,0:0|0:0,0:0:0:0:
240,204,68570,2,0,P|224:268|120:288,1,160,2|8,0:0|0:0,0:0:0:0:
44,216,69746,2,0,P|40:156|168:32,1,240,2|0,0:0|0:0,0:0:0:0:
220,48,70923,2,0,P|272:56|384:40,1,160,2|8,0:0|0:0,0:0:0:0:
500,80,72099,6,0,P|504:168|388:280,1,240,4|0,0:0|0:0,0:0:0:0:
344,276,73276,2,0,L|176:276,2,160,2|8|2,0:0|0:0|0:0,0:0:0:0:
376,152,75040,1,0,0:0:0:0:
268,84,75629,1,0,0:0:0:0:
160,152,76217,1,0,0:0:0:0:
80,52,76805,6,0,P|40:100|100:268,1,240,4|0,0:0|0:0,0:0:0:0:
140,288,77982,2,0,P|188:300|300:288,1,160,2|8,0:0|0:0,0:0:0:0:
360,176,79158,2,0,P|420:180|392:328,1,240,2|0,0:0|0:0,0:0:0:0:
356,348,80335,2,0,L|188:348,1,160,2|8,0:0|0:0,0:0:0:0:
92,276,81511,6,0,L|40:124,1,160,4|0,0:0|0:0,0:0:0:0:
140,44,82687,2,0,L|192:196,1,160,2|0,0:0|0:0,0:0:0:0:
260,304,83864,2,0,P|331:329|416:292,2,160,2|8|0,0:0|0:0|0:0,0:0:0:0:
331,197,85629,1,4,0:0:0:0:
331,69,86217,5,4,0:0:0:0:
228,144,86805,2,0,P|148:164|64:136,1,160,8|0,0:0|0:0,0:0:0:0:
32,96,87687,1,0,0:0:0:0:
76,48,87982,2,0,P|152:27|228:47,1,160,8|0,0:0|0:0,0:0:0:0:
336,120,89158,2,0,P|392:144|484:120,2,160,8|0|8,0:0|0:0|0:0,0:0:0:0:
248,28,90923,6,0,P|216:56|192:176,1,160,4|8,0:0|0:0,0:0:0:0:
244,280,92099,2,0,P|228:320|104:352,2,160,0|8|0,0:0|0:0|0:0,0:0:0:0:
244,216,93570,2,0,L|244:132,2,80,0|8|0,0:0|0:0|0:0,0:0:0:0:
244,280,94452,2,0,P|260:320|384:352,2,160,2|8|4,0:0|0:0|0:0,0:0:0:0:
316,176,96217,6,0,P|392:190|434:255,2,160,8|0|8,0:0|0:0|0:0,0:0:0:0:
188,200,97982,2,0,L|104:200,2,80,0|0|8,0:0|0:0|0:0,0:0:0:0:
244,84,99158,2,0,L|328:84,2,80,0|0|8,0:0|0:0|0:0,0:0:0:0:
124,36,100335,6,0,P|72:48|20:140,1,160,2|8,0:0|0:0,0:0:0:0:
92,240,101511,2,0,B|168:264|168:264|252:236,1,160,0|8,0:0|0:0,0:0:0:0:
336,152,102687,2,0,P|388:160|448:264,2,160,2|0|0,0:0|0:0|0:0,0:0:0:0:
244,238,104452,2,0,B|168:264|168:264|92:240,1,160,8|4,0:0|0:0,0:0:0:0:
256,296,123864,5,4,0:0:0:0:
312,180,124452,2,0,P|352:164|468:188,2,160
256,296,126217,1,2,0:0:0:0:
196,184,126805,2,0,P|156:200|40:176,2,160
256,68,128570,5,2,0:0:0:0:
356,148,129158,2,0,P|380:196|372:308,1,160
268,368,130335,2,0,L|104:364,1,160,0|2,0:0|0:0,0:0:0:0:
36,256,131511,2,0,P|24:216|28:176,2,80,0|0|8,0:0|0:0|0:0,0:0:0:0:
128,168,132687,2,0,P|140:128|136:88,2,80,8|0|4,0:0|0:0|0:0,0:0:0:0:
208,268,133864,6,0,P|256:288|368:256,1,160,8|0,0:0|0:0,0:0:0:0:
448,172,135040,2,0,L|472:92,2,80,8|0|4,0:0|0:0|0:0,0:0:0:0:
96,328,137393,2,0,P|56:296|64:176,1,160,8|4,0:0|0:0,0:0:0:0:
132,96,138570,6,0,P|176:84|292:100,2,160,8|0|8,0:0|0:0|0:0,0:0:0:0:
51,194,140335,1,2,0:0:0:0:
128,296,140923,1,0,0:0:0:0:
256,296,141511,1,8,0:0:0:0:
333,194,142099,1,8,0:0:0:0:
292,72,142687,6,0,B|240:44|176:64|176:64|124:44|56:68,1,240,4|0,0:0|0:0,0:0:0:0:
16,116,143864,2,0,P|-4:192|20:280,1,160,2|8,0:0|0:0,0:0:0:0:
128,332,145040,2,0,P|200:352|244:212,1,240,2|0,0:0|0:0,0:0:0:0:
212,176,146217,2,0,L|376:188,1,160,2|8,0:0|0:0,0:0:0:0:
484,124,147393,6,0,P|464:56|308:20,1,240,2|0,0:0|0:0,0:0:0:0:
272,64,148570,2,0,P|208:80|104:60,1,160,2|8,0:0|0:0,0:0:0:0:
12,140,149746,1,0,0:0:0:0:
64,256,150335,1,0,0:0:0:0:
184,300,150923,1,2,0:0:0:0:
304,252,151511,1,2,0:0:0:0:
332,128,152099,6,0,P|390:155|412:320,1,240,4|0,0:0|0:0,0:0:0:0:
368,356,153276,2,0,P|312:368|200:352,1,160,2|8,0:0|0:0,0:0:0:0:
88,328,154452,2,0,P|30:301|8:136,1,240,2|0,0:0|0:0,0:0:0:0:
52,96,155629,2,0,P|108:84|220:100,1,160,2|8,0:0|0:0,0:0:0:0:
292,196,156805,6,0,P|336:212|468:228,1,160,4|0,0:0|0:0,0:0:0:0:
444,100,157982,2,0,P|400:84|268:68,1,160,2|0,0:0|0:0,0:0:0:0:
200,160,159158,2,0,P|154:157|116:149,2,80,2|8|8,0:0|0:0|0:0,0:0:0:0:
288,67,160335,2,0,P|334:70|372:78,2,80,0|8|8,0:0|0:0|0:0,0:0:0:0:
348,268,170923,6,0,L|376:184,2,80,4|0|8,0:0|0:0|0:0,0:0:0:0:
260,176,172099,2,0,L|260:80,2,80,0|0|8,0:0|0:0|0:0,0:0:0:0:
204,292,173276,2,0,P|168:308|56:244,1,160,0|8,0:0|0:0,0:0:0:0:
56,200,174158,1,0,0:0:0:0:
56,136,174452,2,0,P|64:100|92:64,2,80,0|0|8,0:0|0:0|0:0,0:0:0:0:
148,224,175629,6,0,L|316:244,1,160,0|8,0:0|0:0,0:0:0:0:
372,252,176511,1,0,0:0:0:0:
436,260,176805,2,0,P|468:216|488:100,2,160,0|8|2,0:0|0:0|0:0,0:0:0:0:
340,344,178570,1,8,0:0:0:0:
212,352,179158,2,0,L|124:356,2,80,0|0|8,0:0|0:0|0:0,0:0:0:0:
284,248,180335,5,4,0:0:0:0:
348,136,180923,2,0,P|312:112|188:92,1,160
128,196,182099,2,0,P|164:220|288:240,1,160
400,200,183276,2,0,L|456:136,2,80
356,320,184452,1,0,0:0:0:0:
232,356,185040,5,2,0:0:0:0:
112,312,185629,2,0,P|80:272|52:160,1,160
112,56,186805,2,0,P|168:32|284:44,1,160
368,112,187982,2,0,P|408:128|452:128,2,80
265,36,189158,1,0,0:0:0:0:
180,132,189746,5,2,0:0:0:0:
108,240,190335,2,0,P|156:259|262:232,1,160
335,132,191511,2,0,P|375:111|488:136,1,160
483,259,192687,2,0,L|483:338,2,80
483,131,193864,1,0,0:0:0:0:
392,44,194452,5,2,0:0:0:0:
264,32,195040,2,0,P|192:32|112:84,1,160
68,196,196217,2,0,P|72:256|152:332,1,160
256,192,196903,12,4,199158,0:0:0:0:
172,120,200335,6,0,P|132:116|84:124,2,80,0|0|8,0:0|0:0|0:0,0:0:0:0:
276,196,201511,2,0,P|316:200|364:192,2,80,0|0|8,0:0|0:0|0:0,0:0:0:0:
172,120,202687,2,0,P|123:117|9:159,1,160,0|8,0:0|0:0,0:0:0:0:
20,280,203864,5,2,0:0:0:0:
136,332,204452,2,0,P|216:344|304:328,1,160,8|0,0:0|0:0,0:0:0:0:
352,220,205629,2,0,L|352:136,2,80,8|0|0,0:0|0:0|0:0,0:0:0:0:
452,296,206805,2,0,L|452:376,2,80,8|0|0,0:0|0:0|0:0,0:0:0:0:
488,172,207982,2,0,P|480:112|388:48,1,160,8|4,0:0|0:0,0:0:0:0:
280,60,209158,6,0,P|240:64|196:56,2,80,8|0|0,0:0|0:0|0:0,0:0:0:0:
407,51,210335,2,0,P|451:47|487:55,2,80,8|0|0,0:0|0:0|0:0,0:0:0:0:
320,144,211511,1,8,0:0:0:0:
256,252,212099,1,0,0:0:0:0:
184,144,212687,1,8,0:0:0:0:
109,40,213276,6,0,P|73:80|62:182,1,160,2|8,0:0|0:0,0:0:0:0:
132,288,214452,2,0,L|132:372,2,80,0|0|8,0:0|0:0|0:0,0:0:0:0:
228,204,215629,2,0,L|228:120,2,80,0|0|8,0:0|0:0|0:0,0:0:0:0:
312,300,216805,2,0,P|352:324|388:332,2,80,0|0|8,0:0|0:0|0:0,0:0:0:0:
228,204,217982,5,4,0:0:0:0:
140,112,218570,2,0,P|80:116|8:192,1,160,8|0,0:0|0:0,0:0:0:0:
72,296,219746,2,0,P|132:292|204:216,1,160,8|0,0:0|0:0,0:0:0:0:
284,128,220923,2,0,P|328:112|440:132,2,160,8|0|8,0:0|0:0|0:0,0:0:0:0:
200,225,222687,5,2,0:0:0:0:
96,300,223276,2,0,L|96:380,2,80,8|0|0,0:0|0:0|0:0,0:0:0:0:
32,188,224452,2,0,L|32:104,2,80,8|0|0,0:0|0:0|0:0,0:0:0:0:
96,300,225629,2,0,P|172:320|260:292,1,160,8|0,0:0|0:0,0:0:0:0:
308,184,226805,2,0,P|316:136|308:92,2,80,8|0|4,0:0|0:0|0:0,0:0:0:0:
248,299,227982,5,8,0:0:0:0:
164,204,228570,1,0,0:0:0:0:
184,76,229158,1,8,0:0:0:0:
300,20,229746,2,0,P|348:16|459:21,1,160,0|8,0:0|0:0,0:0:0:0:
508,139,230923,2,0,L|508:223,2,80,0|0|8,0:0|0:0|0:0,0:0:0:0:
459,21,232099,6,0,P|419:45|387:154,1,160,2|8,0:0|0:0,0:0:0:0:
426,268,233276,2,0,P|418:334|327:372,1,160,0|8,0:0|0:0,0:0:0:0:
225,318,234452,2,0,L|225:227,1,80,10|12,0:0|0:0,0:0:0:0:
166,55,235629,2,0,P|128:56|45:159,2,160,0|8|4,0:0|0:0|0:0,0:0:0:0:
276,119,237393,6,0,P|331:146|430:113,1,160,8|0,0:0|0:0,0:0:0:0:
494,14,238570,2,0,P|518:50|535:105,2,80,8|0|0,0:0|0:0|0:0,0:0:0:0:
366,11,239746,1,8,0:0:0:0:
243,48,240335,1,0,0:0:0:0:
294,165,240923,1,8,0:0:0:0:
166,174,241511,6,0,P|130:211|122:329,1,160,2|8,0:0|0:0,0:0:0:0:
236,360,242687,2,0,L|409:360,1,160,0|8,0:0|0:0,0:0:0:0:
484,268,243864,2,0,P|504:204|484:104,2,160,0|8|0,0:0|0:0|0:0,0:0:0:0:
396,360,245629,1,8,0:0:0:0:
308,268,246217,6,0,P|288:204|308:104,1,160,4|8,0:0|0:0,0:0:0:0:
400,28,247393,2,0,L|484:28,2,80,0|0|8,0:0|0:0|0:0,0:0:0:0:
272,28,248570,2,0,P|232:32|136:124,1,160,0|8,0:0|0:0,0:0:0:0:
108,228,249746,1,0,0:0:0:0:
196,324,250335,1,8,0:0:0:0:
256,192,250923,12,2,255629,0:0:0:0:
