osu file format v14

[General]
AudioFilename: audio.mp3
AudioLeadIn: 0
PreviewTime: 56307
Countdown: 0
SampleSet: Soft
StackLeniency: 0.7
Mode: 0
LetterboxInBreaks: 0
WidescreenStoryboard: 0

[Editor]
DistanceSpacing: 0.1
BeatDivisor: 6
GridSize: 32
TimelineZoom: 1

[Metadata]
Title:Jishou Mushoku
TitleUnicode:自傷無色
Artist:Hanatan
ArtistUnicode:花たん
Creator:quanhitter39
Version:.
Source:
Tags:
BeatmapID:1818514
BeatmapSetID:870179

[Difficulty]
HPDrainRate:5
CircleSize:4
OverallDifficulty:7
ApproachRate:8.5
SliderMultiplier:2
SliderTickRate:1

[Events]
//Background and Video events
0,0,"yes.jpg",0,0
//Break Periods
//Storyboard Layer 0 (Background)
//Storyboard Layer 1 (Fail)
//Storyboard Layer 2 (Pass)
//Storyboard Layer 3 (Foreground)
//Storyboard Sound Samples

[TimingPoints]
807,500,4,2,0,40,1,0
24807,-113.636363636364,4,2,0,40,0,0
56807,-83.3333333333333,4,2,0,40,0,1
68307,-111.111111111111,4,2,0,40,0,1
68807,-83.3333333333333,4,2,0,40,0,1
88807,-142.857142857143,4,2,0,40,0,0

[Colours]
Combo1 : 255,255,255
Combo2 : 243,199,116
Combo3 : 179,245,118
Combo4 : 166,218,247
Combo5 : 231,152,248

[HitObjects]
38,36,8807,6,0,P|112:36|192:52,1,133.333333333333
314,150,9307,2,0,P|240:150|160:166,1,133.333333333333
93,261,9807,2,0,P|99:213|85:171,1,66.6666666666667
13,334,10140,1,0,0:0:0:0:
166,293,10307,2,0,P|231:276|302:316,1,133.333333333333
409,85,10807,6,0,P|396:144|381:224,1,133.333333333333
159,0,11307,2,0,P|173:65|185:130,1,133.333333333333
485,0,11807,2,0,P|470:65|458:130,1,133.333333333333
406,230,12307,2,0,B|331:231|256:239,1,133.333333333333
203,175,12807,5,0,0:0:0:0:
101,191,12973,1,0,0:0:0:0:
185,80,13140,1,0,0:0:0:0:
287,96,13306,1,0,0:0:0:0:
346,177,13473,2,0,P|349:226|335:297,1,66.6666666666667
269,377,13807,5,0,0:0:0:0:
234,248,13973,1,0,0:0:0:0:
336,296,14140,1,0,0:0:0:0:
168,317,14307,2,0,P|125:311|92:295,2,66.6666666666667
9,189,14807,6,0,P|10:136|2:77,1,66.6666666666667
42,21,15140,1,0,0:0:0:0:
126,230,15307,2,0,P|126:162|125:73,1,133.333333333333
199,293,15807,2,0,L|182:374,1,66.6666666666667
276,240,16140,1,0,0:0:0:0:
209,84,16307,2,0,L|191:12,2,66.6666666666667
476,159,16807,6,0,P|407:153|345:182,1,133.333333333333
214,2,17307,2,0,P|283:-4|345:25,1,133.333333333333
82,170,17807,2,0,P|127:167|175:174,1,66.6666666666667
9,238,18140,1,0,0:0:0:0:
127,353,18307,2,0,P|134:274|130:203,1,133.333333333333
231,54,18807,6,0,P|209:135|198:211,1,133.333333333333
402,0,19307,2,0,P|420:64|432:129,1,133.333333333333
110,0,19807,2,0,P|91:64|79:129,1,133.333333333333
120,207,20307,2,0,B|173:189|173:189|280:221,1,133.333333333333
299,143,20807,5,0,0:0:0:0:
257,64,20973,1,0,0:0:0:0:
316,295,21140,1,0,0:0:0:0:
243,363,21307,1,0,0:0:0:0:
215,258,21473,2,0,L|227:185,1,66.6666666666667
449,296,21807,5,0,0:0:0:0:
383,210,21973,1,0,0:0:0:0:
501,101,22140,1,0,0:0:0:0:
415,112,22307,1,0,0:0:0:0:
453,20,22473,1,0,0:0:0:0:
508,193,22640,1,0,0:0:0:0:
321,132,22807,6,0,P|251:145|198:200,1,133.333333333333
74,15,23307,2,0,P|121:40|144:121,1,133.333333333333
58,240,23807,1,0,0:0:0:0:
6,311,23973,1,0,0:0:0:0:
67,158,24140,1,0,0:0:0:0:
8,74,24307,1,0,0:0:0:0:
146,136,24473,1,0,0:0:0:0:
279,106,24640,1,0,0:0:0:0:
442,3,24807,6,0,P|429:58|419:160,1,117.333336914063
471,212,25307,1,0,0:0:0:0:
303,359,25640,1,0,0:0:0:0:
229,158,25807,2,0,P|222:236|226:306,1,117.333336914063
207,296,26307,2,0,P|177:237|136:190,1,117.333336914063
388,198,26807,6,0,P|474:210|522:220,1,117.333336914063
446,294,27307,1,0,0:0:0:0:
352,343,27473,1,0,0:0:0:0:
315,129,27640,1,0,0:0:0:0:
444,278,27807,2,0,P|452:179|452:100,1,176.000005371094
151,43,28807,6,0,P|231:41|290:39,1,117.333336914063
351,10,29307,1,0,0:0:0:0:
248,207,29640,1,0,0:0:0:0:
350,354,29807,2,0,P|336:290|327:228,1,117.333336914063
346,231,30307,2,0,P|420:209|473:186,1,117.333336914063
285,130,30807,6,0,P|200:111|141:91,1,117.333336914063
263,33,31307,1,0,0:0:0:0:
218,201,31473,1,0,0:0:0:0:
247,31,31640,1,0,0:0:0:0:
87,102,31807,2,0,P|78:197|79:251,1,117.333336914063
160,255,32306,2,0,P|66:260|8:267,1,117.333336914063
257,322,32807,6,0,P|339:317|407:323,1,117.333336914063
465,371,33307,1,0,0:0:0:0:
368,209,33640,1,0,0:0:0:0:
455,77,33807,2,0,P|467:134|483:190,1,117.333336914063
413,119,34307,2,0,P|428:62|441:5,1,117.333336914063
274,142,34807,6,0,P|211:139|165:169,1,117.333336914063
119,72,35307,1,0,0:0:0:0:
185,127,35473,1,0,0:0:0:0:
49,201,35640,1,0,0:0:0:0:
184,281,35807,2,0,P|85:284|16:326,1,176.000005371094
319,344,36807,6,0,P|306:287|315:198,1,117.333336914063
364,142,37307,1,0,0:0:0:0:
242,6,37640,1,0,0:0:0:0:
173,136,37807,2,0,P|166:66|160:15,1,117.333336914063
119,85,38307,2,0,P|109:154|98:236,1,117.333336914063
159,296,38807,6,0,P|194:304|253:309,1,58.6666684570313
280,227,39140,1,0,0:0:0:0:
318,365,39307,2,0,P|312:297|324:242,1,117.333336914063
393,140,39807,5,0,0:0:0:0:
398,178,39973,1,0,0:0:0:0:
402,215,40140,1,0,0:0:0:0:
256,21,40307,1,0,0:0:0:0:
251,59,40473,1,0,0:0:0:0:
247,96,40640,1,0,0:0:0:0:
84,220,40807,6,0,P|141:209|224:237,1,117.333336914063
366,162,41307,2,0,P|301:165|230:130,1,117.333336914063
190,6,41807,2,0,P|202:49|203:93,1,58.6666684570313
322,25,42140,1,0,0:0:0:0:
286,130,42307,2,0,P|275:193|282:268,1,117.333336914063
339,350,42807,6,0,P|264:350|165:348,1,117.333336914063
143,250,43307,2,0,L|154:313,1,58.6666684570313
85,169,43640,1,0,0:0:0:0:
205,113,43807,2,0,P|215:49|228:-5,1,117.333336914063
249,0,44307,2,0,P|330:22|403:36,1,117.333336914063
502,140,44807,6,0,P|476:201|483:270,1,117.333336914063
380,185,45307,2,0,P|395:138|397:94,1,58.6666684570313
306,232,45640,1,0,0:0:0:0:
244,41,45807,2,0,P|310:58|391:69,1,117.333336914063
189,98,46307,2,0,P|132:113|74:122,1,117.333336914063
30,362,46807,6,0,P|31:327|40:200,1,117.333336914063
105,176,47307,1,0,0:0:0:0:
16,284,47473,1,0,0:0:0:0:
105,176,47640,1,0,0:0:0:0:
0,54,47807,2,0,P|13:111|30:193,1,117.333336914063
226,61,48307,2,0,P|169:74|87:91,1,117.333336914063
335,175,48807,6,0,P|328:101|326:19,1,117.333336914063
258,220,49307,2,0,P|251:265|249:317,1,58.6666684570313
184,165,49640,1,0,0:0:0:0:
358,291,49807,2,0,P|422:293|493:302,1,117.333336914063
253,348,50307,2,0,P|189:350|118:359,1,117.333336914063
16,266,50807,6,0,P|89:269|152:214,1,117.333336914063
199,304,51307,2,0,L|203:240,1,58.6666684570313
132,150,51640,1,0,0:0:0:0:
311,256,51807,2,0,P|298:317|288:385,1,117.333336914063
390,276,52307,2,0,P|380:218|368:160,1,117.333336914063
306,4,52807,6,0,P|287:68|271:133,1,117.333336914063
186,174,53307,2,0,L|174:116,1,58.6666684570313
128,245,53640,1,0,0:0:0:0:
235,55,53807,2,0,P|140:65|64:77,1,117.333336914063
11,97,54307,2,0,L|-2:162,1,58.6666684570313
53,19,54640,1,0,0:0:0:0:
110,185,54807,6,0,P|46:205|-11:228,1,117.333336914063
237,291,55307,2,0,P|301:311|358:334,1,117.333336914063
219,50,55807,1,0,0:0:0:0:
368,371,56807,6,0,P|373:255|371:192,1,159.999995117188
275,0,57307,2,0,P|274:79|278:159,1,159.999995117188
412,0,57807,2,0,P|401:33|407:97,1,79.9999975585938
223,318,58140,1,0,0:0:0:0:
150,282,58307,2,0,P|76:278|-1:342,1,159.999995117188
333,236,58807,6,0,P|346:173|380:112,1,79.9999975585938
401,77,59140,1,0,0:0:0:0:
466,264,59307,2,0,P|456:199|488:91,1,159.999995117188
366,349,59807,2,0,P|316:343|252:375,1,79.9999975585938
149,74,60140,1,0,0:0:0:0:
205,130,60307,2,0,P|299:147|360:109,1,159.999995117188
97,304,60807,6,0,P|65:236|32:204,1,79.9999975585938
153,226,61140,1,0,0:0:0:0:
85,71,61307,2,0,P|65:154|69:235,1,159.999995117188
318,9,61807,2,0,P|330:105|326:195,1,159.999995117188
381,321,62307,2,0,P|386:265|400:197,1,79.9999975585938
463,370,62640,1,0,0:0:0:0:
277,310,62807,6,0,P|199:307|143:366,1,159.999995117188
0,147,63307,2,0,P|68:173|161:216,1,159.999995117188
344,51,63807,6,0,P|308:61|234:39,1,79.9999975585938
178,4,64140,1,0,0:0:0:0:
235,194,64306,2,0,P|254:127|250:24,1,159.999995117188
405,213,64806,6,0,P|423:288|430:340,1,79.9999975585938
485,102,65140,1,0,0:0:0:0:
337,284,65306,2,0,P|324:175|314:91,1,159.999995117188
262,310,65807,2,0,P|394:329|467:345,1,159.999995117188
172,226,66307,2,0,L|87:234,1,79.9999975585938
20,284,66640,1,0,0:0:0:0:
84,74,66807,6,0,P|79:136|76:205,1,79.9999975585938
124,281,67140,1,0,0:0:0:0:
240,174,67307,2,0,P|157:179|62:202,1,159.999995117188
336,103,67807,2,0,P|445:103|518:117,1,159.999995117188
495,111,68307,2,0,P|463:78|473:135,1,119.999996337891
508,265,68807,6,0,P|516:199|512:148,1,79.9999975585938
442,353,69140,1,0,0:0:0:0:
329,164,69307,2,0,P|351:236|342:354,1,159.999995117188
235,25,69807,2,0,P|200:82|223:202,1,159.999995117188
71,358,70307,1,0,0:0:0:0:
140,295,70473,2,0,P|146:243|123:175,1,79.9999975585938
339,357,70807,6,0,P|390:277|427:195,1,159.999995117188
177,164,71307,2,0,P|257:215|339:252,1,159.999995117188
368,11,71807,2,0,P|331:46|315:76,1,79.9999975585938
397,158,72140,1,0,0:0:0:0:
468,80,72307,1,0,0:0:0:0:
419,270,72473,1,0,0:0:0:0:
320,213,72640,1,0,0:0:0:0:
104,354,72807,6,0,P|183:357|263:365,1,159.999995117188
279,142,73307,2,0,P|217:192|158:246,1,159.999995117188
406,0,73807,6,0,P|455:45|489:92,1,79.9999975585938
299,14,74140,1,0,0:0:0:0:
382,239,74307,2,0,P|389:171|384:73,1,159.999995117188
428,300,74807,2,0,P|372:295|302:299,1,79.9999975585938
185,100,75140,1,0,0:0:0:0:
251,165,75307,2,0,P|350:156|398:122,1,159.999995117188
208,323,75807,2,0,P|186:241|156:148,1,159.999995117188
79,112,76307,1,0,0:0:0:0:
156,28,76473,1,0,0:0:0:0:
140,185,76640,1,0,0:0:0:0:
71,248,76807,6,0,P|30:328|10:395,1,159.999995117188
183,278,77307,2,0,P|142:213|126:152,1,79.9999975585938
315,17,77640,1,0,0:0:0:0:
240,80,77807,2,0,P|160:102|85:68,1,159.999995117188
178,6,78307,2,0,P|206:89|202:130,1,79.9999975585938
133,254,78640,1,0,0:0:0:0:
223,198,78807,6,0,P|308:211|394:246,1,159.999995117188
508,88,79307,2,0,P|423:101|337:136,1,159.999995117188
56,4,79807,2,0,P|141:17|227:52,1,159.999995117188
332,28,80307,5,0,0:0:0:0:
233,131,80473,1,0,0:0:0:0:
98,146,80640,1,0,0:0:0:0:
256,332,80807,6,0,P|199:251|159:183,1,159.999995117188
437,140,81307,2,0,P|356:197|288:237,1,159.999995117188
240,14,81807,2,0,P|278:52|306:102,1,79.9999975585938
132,219,82140,1,0,0:0:0:0:
254,181,82307,2,0,P|338:189|393:246,1,159.999995117188
210,3,82807,6,0,P|190:66|191:124,1,79.9999975585938
256,239,83140,1,0,0:0:0:0:
157,209,83307,2,0,P|70:221|22:277,1,159.999995117188
242,359,83807,2,0,P|235:272|238:192,1,159.999995117188
482,85,84307,2,0,B|399:44|409:124|322:80,1,159.999995117188
247,0,84807,6,0,P|274:92|271:172,1,159.999995117188
364,352,85307,2,0,P|367:291|378:238,1,79.9999975585938
59,223,85640,1,0,0:0:0:0:
124,315,85807,2,0,P|59:324|12:337,1,79.9999975585938
201,255,86140,1,0,0:0:0:0:
275,376,86307,2,0,P|276:327|280:284,1,79.9999975585938
142,132,86640,1,0,0:0:0:0:
37,147,86807,6,0,P|142:160|250:160,1,159.999995117188
448,27,87307,2,0,P|343:40|235:40,1,159.999995117188
511,375,87807,2,0,P|508:316|506:232,1,79.9999975585938
385,59,88140,1,0,0:0:0:0:
496,40,88307,2,0,L|482:138,1,79.9999975585938
325,210,88807,6,0,P|258:204|205:199,1,93.3333304850261
174,129,89307,2,0,P|241:123|294:118,1,93.3333304850261
107,75,89807,2,0,L|113:16,1,46.6666652425131
45,139,90140,1,0,0:0:0:0:
79,257,90307,2,0,L|60:143,1,93.3333304850261
151,304,90807,6,0,L|255:314,1,93.3333304850261
315,349,91307,2,0,L|211:359,1,93.3333304850261
334,271,91807,2,0,L|469:322,1,139.999995727539
488,146,92807,6,0,L|483:206,3,46.6666652425131
386,106,93807,2,0,L|381:166,3,46.6666652425131
294,81,94807,6,0,L|289:141,2,46.6666652425131
213,140,95307,2,0,L|218:200,2,46.6666652425131
145,198,95807,2,0,L|140:258,2,46.6666652425131
80,137,96307,1,0,0:0:0:0:
155,29,96807,6,0,L|147:86,3,46.6666652425131
241,49,97807,2,0,L|233:106,3,46.6666652425131
323,66,98807,6,0,L|315:123,2,46.6666652425131
396,126,99307,2,0,L|404:183,2,46.6666652425131
474,183,99807,2,0,L|466:240,2,46.6666652425131
394,278,100307,1,0,0:0:0:0:
291,303,100807,6,0,L|219:290,3,46.6666652425131
156,347,101807,6,0,L|88:355,1,46.6666652425131
29,293,102140,1,0,0:0:0:0:
29,293,102307,1,0,0:0:0:0:
