osu file format v14

[General]
AudioFilename: audio.mp3
AudioLeadIn: 0
PreviewTime: 56776
Countdown: 0
SampleSet: None
StackLeniency: 0.7
Mode: 1
LetterboxInBreaks: 0
WidescreenStoryboard: 1

[Editor]
Bookmarks: 24776,40776,112776,152776,168776
DistanceSpacing: 0.1
BeatDivisor: 6
GridSize: 32
TimelineZoom: 1

[Metadata]
Title:Jishou Mushoku
TitleUnicode:自傷無色
Artist:Hanatan
ArtistUnicode:花たん
Creator:Vulkin
Version:I'm Yours
Source:
Tags:utaite vocaloid hatsune miku yurica flower cordelia nekobolo Self Inflicted Achromatic nicovideo
BeatmapID:1593775
BeatmapSetID:757616

[Difficulty]
HPDrainRate:6
CircleSize:7
OverallDifficulty:6
ApproachRate:10
SliderMultiplier:1.4
SliderTickRate:1

[Events]
//Background and Video events
0,0,"green-urban-living-room-abandoned-house-1920x1080-31288.jpg",0,0
//Break Periods
//Storyboard Layer 0 (Background)
//Storyboard Layer 1 (Fail)
//Storyboard Layer 2 (Pass)
//Storyboard Layer 3 (Foreground)
//Storyboard Sound Samples

[TimingPoints]
776,1000,4,1,0,100,1,0
56776,-100,4,1,0,100,0,1
88776,-100,4,1,0,100,0,0
120776,-100,4,1,0,100,0,1
152776,-100,4,1,0,100,0,0
184776,-100,4,1,0,100,0,1
200776,-100,4,1,0,100,0,0

[HitObjects]
256,192,776,5,0,0:0:0:0:
256,192,942,1,0,0:0:0:0:
256,192,1109,1,0,0:0:0:0:
256,192,1276,1,8,0:0:0:0:
256,192,1776,1,8,0:0:0:0:
256,192,1942,1,8,0:0:0:0:
256,192,2109,1,0,0:0:0:0:
256,192,2276,1,8,0:0:0:0:
256,192,2776,1,8,0:0:0:0:
256,192,2942,1,0,0:0:0:0:
256,192,3109,1,0,0:0:0:0:
256,192,3276,1,8,0:0:0:0:
256,192,3442,1,8,0:0:0:0:
256,192,3609,1,0,0:0:0:0:
256,192,3776,1,8,0:0:0:0:
256,192,3942,1,0,0:0:0:0:
256,192,4109,1,0,0:0:0:0:
256,192,4276,1,8,0:0:0:0:
256,192,4776,1,0,0:0:0:0:
256,192,4942,1,0,0:0:0:0:
256,192,5109,1,0,0:0:0:0:
256,192,5276,1,8,0:0:0:0:
256,192,5776,1,8,0:0:0:0:
256,192,5942,1,8,0:0:0:0:
256,192,6109,1,0,0:0:0:0:
256,192,6276,1,8,0:0:0:0:
256,192,6776,1,8,0:0:0:0:
256,192,6942,1,0,0:0:0:0:
256,192,7109,1,0,0:0:0:0:
256,192,7276,1,8,0:0:0:0:
256,192,7442,1,8,0:0:0:0:
256,192,7609,1,8,0:0:0:0:
256,192,8109,1,8,0:0:0:0:
256,192,8192,1,8,0:0:0:0:
256,192,8275,1,8,0:0:0:0:
256,192,8442,1,8,0:0:0:0:
256,192,8609,1,8,0:0:0:0:
256,192,8775,1,0,0:0:0:0:
256,192,9276,1,8,0:0:0:0:
256,192,9609,1,0,0:0:0:0:
256,192,9776,1,8,0:0:0:0:
256,192,9942,1,0,0:0:0:0:
256,192,10109,1,8,0:0:0:0:
256,192,10276,1,8,0:0:0:0:
256,192,10609,1,0,0:0:0:0:
256,192,10776,1,8,0:0:0:0:
256,192,10942,1,0,0:0:0:0:
256,192,11109,1,0,0:0:0:0:
256,192,11276,1,8,0:0:0:0:
256,192,11442,1,8,0:0:0:0:
256,192,11609,1,0,0:0:0:0:
256,192,11776,1,8,0:0:0:0:
256,192,12276,1,8,0:0:0:0:
256,192,12609,1,8,0:0:0:0:
256,192,12776,1,0,0:0:0:0:
256,192,13276,1,8,0:0:0:0:
256,192,13442,1,0,0:0:0:0:
256,192,13609,1,0,0:0:0:0:
256,192,13776,1,8,0:0:0:0:
256,192,14109,1,0,0:0:0:0:
256,192,14276,1,8,0:0:0:0:
256,192,14776,1,0,0:0:0:0:
256,192,15276,1,8,0:0:0:0:
256,192,15442,1,8,0:0:0:0:
256,192,15609,1,0,0:0:0:0:
256,192,15776,1,8,0:0:0:0:
256,192,16109,1,8,0:0:0:0:
256,192,16276,1,8,0:0:0:0:
256,192,16442,1,0,0:0:0:0:
256,192,16609,1,0,0:0:0:0:
256,192,16776,1,8,0:0:0:0:
256,192,17276,1,8,0:0:0:0:
256,192,17609,1,0,0:0:0:0:
256,192,17776,1,8,0:0:0:0:
256,192,17942,1,0,0:0:0:0:
256,192,18109,1,8,0:0:0:0:
256,192,18276,1,8,0:0:0:0:
256,192,18609,1,0,0:0:0:0:
256,192,18776,1,8,0:0:0:0:
256,192,18942,1,0,0:0:0:0:
256,192,19109,1,0,0:0:0:0:
256,192,19276,1,8,0:0:0:0:
256,192,19442,1,8,0:0:0:0:
256,192,19609,1,0,0:0:0:0:
256,192,19776,1,8,0:0:0:0:
256,192,20109,1,0,0:0:0:0:
256,192,20276,1,8,0:0:0:0:
256,192,20609,1,8,0:0:0:0:
256,192,20776,1,0,0:0:0:0:
256,192,21276,1,8,0:0:0:0:
256,192,21442,1,0,0:0:0:0:
256,192,21609,1,0,0:0:0:0:
256,192,21776,1,8,0:0:0:0:
256,192,21942,1,0,0:0:0:0:
256,192,22109,1,0,0:0:0:0:
256,192,22276,1,8,0:0:0:0:
256,192,22609,1,8,0:0:0:0:
256,192,22776,1,0,0:0:0:0:
256,192,23109,1,0,0:0:0:0:
256,192,23276,1,0,0:0:0:0:
256,192,23442,1,8,0:0:0:0:
256,192,23609,1,8,0:0:0:0:
256,192,23776,1,0,0:0:0:0:
256,192,24109,1,8,0:0:0:0:
256,192,24192,1,8,0:0:0:0:
256,192,24276,1,8,0:0:0:0:
256,192,24442,1,8,0:0:0:0:
256,192,24609,1,8,0:0:0:0:
256,192,24776,1,4,0:0:0:0:
256,192,25276,1,8,0:0:0:0:
256,192,25609,1,0,0:0:0:0:
256,192,25776,1,8,0:0:0:0:
256,192,26276,1,0,0:0:0:0:
256,192,26609,1,0,0:0:0:0:
256,192,26776,1,8,0:0:0:0:
256,192,27276,1,8,0:0:0:0:
256,192,27609,1,8,0:0:0:0:
256,192,27776,1,8,0:0:0:0:
256,192,27942,1,0,0:0:0:0:
256,192,28109,1,0,0:0:0:0:
256,192,28276,1,8,0:0:0:0:
256,192,28609,1,0,0:0:0:0:
256,192,28776,1,0,0:0:0:0:
256,192,29276,1,8,0:0:0:0:
256,192,29609,1,0,0:0:0:0:
256,192,29776,1,8,0:0:0:0:
256,192,30276,1,8,0:0:0:0:
256,192,30609,1,8,0:0:0:0:
256,192,30776,1,8,0:0:0:0:
256,192,31109,1,8,0:0:0:0:
256,192,31276,1,8,0:0:0:0:
256,192,31442,1,8,0:0:0:0:
256,192,31609,1,0,0:0:0:0:
256,192,31776,1,8,0:0:0:0:
256,192,32109,1,8,0:0:0:0:
256,192,32275,1,8,0:0:0:0:
256,192,32609,1,8,0:0:0:0:
256,192,32776,1,0,0:0:0:0:
256,192,33276,1,8,0:0:0:0:
256,192,33609,1,0,0:0:0:0:
256,192,33776,1,8,0:0:0:0:
256,192,34276,1,8,0:0:0:0:
256,192,34609,1,8,0:0:0:0:
256,192,34776,1,8,0:0:0:0:
256,192,35276,1,8,0:0:0:0:
256,192,35442,1,8,0:0:0:0:
256,192,35609,1,0,0:0:0:0:
256,192,35776,1,8,0:0:0:0:
256,192,36109,1,0,0:0:0:0:
256,192,36276,1,8,0:0:0:0:
256,192,36442,1,0,0:0:0:0:
256,192,36609,1,0,0:0:0:0:
256,192,36776,1,8,0:0:0:0:
256,192,36942,1,0,0:0:0:0:
256,192,37109,1,8,0:0:0:0:
256,192,37609,1,0,0:0:0:0:
256,192,37776,1,8,0:0:0:0:
256,192,38276,1,8,0:0:0:0:
256,192,38609,1,8,0:0:0:0:
256,192,38776,1,0,0:0:0:0:
256,192,39109,1,0,0:0:0:0:
256,192,39276,1,8,0:0:0:0:
256,192,39609,1,0,0:0:0:0:
256,192,39776,1,8,0:0:0:0:
256,192,39942,1,8,0:0:0:0:
256,192,40026,1,0,0:0:0:0:
256,192,40109,1,8,0:0:0:0:
256,192,40276,1,0,0:0:0:0:
256,192,40442,1,0,0:0:0:0:
256,192,40526,1,8,0:0:0:0:
256,192,40609,1,0,0:0:0:0:
256,192,40776,1,4,0:0:0:0:
256,192,41276,1,8,0:0:0:0:
256,192,41609,1,0,0:0:0:0:
256,192,41776,1,8,0:0:0:0:
256,192,42276,1,8,0:0:0:0:
256,192,42609,1,8,0:0:0:0:
256,192,42776,1,8,0:0:0:0:
256,192,43276,1,8,0:0:0:0:
256,192,43609,1,8,0:0:0:0:
256,192,43776,1,0,0:0:0:0:
256,192,44109,1,8,0:0:0:0:
256,192,44276,1,0,0:0:0:0:
256,192,44609,1,0,0:0:0:0:
256,192,44776,1,0,0:0:0:0:
256,192,45276,1,8,0:0:0:0:
256,192,45609,1,0,0:0:0:0:
256,192,45776,1,8,0:0:0:0:
256,192,46276,1,0,0:0:0:0:
256,192,46609,1,0,0:0:0:0:
256,192,46776,1,8,0:0:0:0:
256,192,46942,1,8,0:0:0:0:
256,192,47109,1,0,0:0:0:0:
256,192,47276,1,8,0:0:0:0:
256,192,47442,1,8,0:0:0:0:
256,192,47609,1,0,0:0:0:0:
256,192,47776,1,8,0:0:0:0:
256,192,47942,1,0,0:0:0:0:
256,192,48109,1,0,0:0:0:0:
256,192,48276,1,8,0:0:0:0:
256,192,48776,1,0,0:0:0:0:
256,192,49276,1,8,0:0:0:0:
256,192,49609,1,0,0:0:0:0:
256,192,49776,1,8,0:0:0:0:
256,192,50276,1,8,0:0:0:0:
256,192,50609,1,8,0:0:0:0:
256,192,50610,1,8,0:0:0:0:
256,192,50776,1,8,0:0:0:0:
256,192,51276,1,8,0:0:0:0:
256,192,51609,1,8,0:0:0:0:
256,192,51776,1,0,0:0:0:0:
256,192,52109,1,0,0:0:0:0:
256,192,52276,1,8,0:0:0:0:
256,192,52609,1,8,0:0:0:0:
256,192,52776,1,0,0:0:0:0:
256,192,53276,1,8,0:0:0:0:
256,192,53609,1,0,0:0:0:0:
256,192,53776,1,8,0:0:0:0:
256,192,54276,1,8,0:0:0:0:
256,192,54609,1,0,0:0:0:0:
256,192,54776,1,8,0:0:0:0:
256,192,55109,1,0,0:0:0:0:
256,192,55276,1,8,0:0:0:0:
256,192,55442,1,0,0:0:0:0:
256,192,55609,1,0,0:0:0:0:
256,192,55776,1,8,0:0:0:0:
256,192,56776,1,4,0:0:0:0:
256,192,57276,1,8,0:0:0:0:
256,192,57776,1,0,0:0:0:0:
256,192,58109,1,0,0:0:0:0:
256,192,58276,1,8,0:0:0:0:
256,192,58609,1,8,0:0:0:0:
256,192,58776,1,8,0:0:0:0:
256,192,59109,1,0,0:0:0:0:
256,192,59276,1,8,0:0:0:0:
256,192,59609,1,8,0:0:0:0:
256,192,59776,1,0,0:0:0:0:
256,192,60109,1,0,0:0:0:0:
256,192,60276,1,8,0:0:0:0:
256,192,60776,1,0,0:0:0:0:
256,192,61109,1,0,0:0:0:0:
256,192,61276,1,8,0:0:0:0:
256,192,61442,1,0,0:0:0:0:
256,192,61609,1,0,0:0:0:0:
256,192,61776,1,8,0:0:0:0:
256,192,62109,1,8,0:0:0:0:
256,192,62276,1,8,0:0:0:0:
256,192,62442,1,0,0:0:0:0:
256,192,62609,1,8,0:0:0:0:
256,192,62776,1,8,0:0:0:0:
256,192,63109,1,0,0:0:0:0:
256,192,63276,1,8,0:0:0:0:
256,192,63609,1,8,0:0:0:0:
256,192,63776,1,0,0:0:0:0:
256,192,63942,1,0,0:0:0:0:
256,192,64109,1,0,0:0:0:0:
256,192,64275,1,8,0:0:0:0:
256,192,64442,1,0,0:0:0:0:
256,192,64609,1,0,0:0:0:0:
256,192,64775,1,8,0:0:0:0:
256,192,65109,1,0,0:0:0:0:
256,192,65275,1,8,0:0:0:0:
256,192,65609,1,0,0:0:0:0:
256,192,65776,1,8,0:0:0:0:
256,192,65942,1,8,0:0:0:0:
256,192,66109,1,0,0:0:0:0:
256,192,66276,1,8,0:0:0:0:
256,192,66609,1,0,0:0:0:0:
256,192,66776,1,8,0:0:0:0:
256,192,66942,1,0,0:0:0:0:
256,192,67109,1,0,0:0:0:0:
256,192,67276,1,8,0:0:0:0:
256,192,67442,1,8,0:0:0:0:
256,192,67609,1,0,0:0:0:0:
256,192,67776,1,8,0:0:0:0:
256,192,68276,1,0,0:0:0:0:
256,192,68609,1,0,0:0:0:0:
256,192,68776,1,8,0:0:0:0:
256,192,69109,1,0,0:0:0:0:
256,192,69276,1,8,0:0:0:0:
256,192,69609,1,8,0:0:0:0:
256,192,69776,1,8,0:0:0:0:
256,192,70276,1,0,0:0:0:0:
256,192,70609,1,8,0:0:0:0:
256,192,70776,1,0,0:0:0:0:
256,192,71109,1,8,0:0:0:0:
256,192,71276,1,8,0:0:0:0:
256,192,71442,1,8,0:0:0:0:
256,192,71609,1,0,0:0:0:0:
256,192,71776,1,8,0:0:0:0:
256,192,72109,1,0,0:0:0:0:
256,192,72276,1,8,0:0:0:0:
256,192,72609,1,8,0:0:0:0:
256,192,72776,1,4,0:0:0:0:
256,192,73276,1,8,0:0:0:0:
256,192,73609,1,0,0:0:0:0:
256,192,73776,1,8,0:0:0:0:
256,192,73942,1,0,0:0:0:0:
256,192,74109,1,8,0:0:0:0:
256,192,74276,1,8,0:0:0:0:
256,192,74609,1,0,0:0:0:0:
256,192,74776,1,8,0:0:0:0:
256,192,75109,1,0,0:0:0:0:
256,192,75276,1,8,0:0:0:0:
256,192,75609,1,8,0:0:0:0:
256,192,75776,1,8,0:0:0:0:
256,192,76109,1,8,0:0:0:0:
256,192,76276,1,0,0:0:0:0:
256,192,76776,1,8,0:0:0:0:
256,192,77109,1,0,0:0:0:0:
256,192,77276,1,8,0:0:0:0:
256,192,77442,1,0,0:0:0:0:
256,192,77609,1,0,0:0:0:0:
256,192,77776,1,8,0:0:0:0:
256,192,78109,1,0,0:0:0:0:
256,192,78276,1,8,0:0:0:0:
256,192,78442,1,8,0:0:0:0:
256,192,78609,1,0,0:0:0:0:
256,192,78776,1,8,0:0:0:0:
256,192,79109,1,8,0:0:0:0:
256,192,79276,1,8,0:0:0:0:
256,192,79609,1,0,0:0:0:0:
256,192,79776,1,8,0:0:0:0:
256,192,79942,1,8,0:0:0:0:
256,192,80109,1,8,0:0:0:0:
256,192,80276,1,0,0:0:0:0:
256,192,80609,1,0,0:0:0:0:
256,192,80776,1,8,0:0:0:0:
256,192,80942,1,8,0:0:0:0:
256,192,81109,1,0,0:0:0:0:
256,192,81276,1,8,0:0:0:0:
256,192,81609,1,0,0:0:0:0:
256,192,81776,1,8,0:0:0:0:
256,192,81942,1,8,0:0:0:0:
256,192,82109,1,8,0:0:0:0:
256,192,82276,1,0,0:0:0:0:
256,192,82609,1,0,0:0:0:0:
256,192,82776,1,8,0:0:0:0:
256,192,83109,1,0,0:0:0:0:
256,192,83276,1,8,0:0:0:0:
256,192,83609,1,8,0:0:0:0:
256,192,83776,1,8,0:0:0:0:
256,192,84109,1,0,0:0:0:0:
256,192,84276,1,8,0:0:0:0:
256,192,84776,1,8,0:0:0:0:
256,192,85276,1,0,0:0:0:0:
256,192,85609,1,8,0:0:0:0:
256,192,85776,1,8,0:0:0:0:
256,192,86109,1,8,0:0:0:0:
256,192,86276,1,0,0:0:0:0:
256,192,86609,1,0,0:0:0:0:
256,192,86776,1,8,0:0:0:0:
256,192,87109,1,0,0:0:0:0:
256,192,87276,1,8,0:0:0:0:
256,192,87442,1,8,0:0:0:0:
256,192,87609,1,0,0:0:0:0:
256,192,87776,1,8,0:0:0:0:
256,192,88109,1,8,0:0:0:0:
256,192,88276,1,8,0:0:0:0:
256,192,88776,1,4,0:0:0:0:
256,192,89276,1,8,0:0:0:0:
256,192,89609,1,0,0:0:0:0:
256,192,89776,1,8,0:0:0:0:
256,192,89942,1,0,0:0:0:0:
256,192,90109,1,0,0:0:0:0:
256,192,90276,1,8,0:0:0:0:
256,192,90609,1,0,0:0:0:0:
256,192,90776,1,8,0:0:0:0:
256,192,91109,1,8,0:0:0:0:
256,192,91276,1,8,0:0:0:0:
256,192,91609,1,0,0:0:0:0:
256,192,91776,1,8,0:0:0:0:
256,192,92276,1,0,0:0:0:0:
256,192,92776,1,8,0:0:0:0:
256,192,93109,1,0,0:0:0:0:
256,192,93276,1,0,0:0:0:0:
256,192,93609,1,0,0:0:0:0:
256,192,93776,1,8,0:0:0:0:
256,192,93942,1,0,0:0:0:0:
256,192,94109,1,0,0:0:0:0:
256,192,94276,1,8,0:0:0:0:
256,192,94776,1,8,0:0:0:0:
256,192,95109,1,0,0:0:0:0:
256,192,95276,1,0,0:0:0:0:
256,192,95609,1,8,0:0:0:0:
256,192,95776,1,8,0:0:0:0:
256,192,95942,1,0,0:0:0:0:
256,192,96109,1,0,0:0:0:0:
256,192,96276,1,8,0:0:0:0:
256,192,96776,1,0,0:0:0:0:
256,192,97109,1,0,0:0:0:0:
256,192,97276,1,8,0:0:0:0:
256,192,97609,1,0,0:0:0:0:
256,192,97776,1,8,0:0:0:0:
256,192,97942,1,0,0:0:0:0:
256,192,98109,1,8,0:0:0:0:
256,192,98276,1,8,0:0:0:0:
256,192,98609,1,0,0:0:0:0:
256,192,98776,1,8,0:0:0:0:
256,192,99109,1,0,0:0:0:0:
256,192,99276,1,8,0:0:0:0:
256,192,99609,1,8,0:0:0:0:
256,192,99776,1,8,0:0:0:0:
256,192,100109,1,0,0:0:0:0:
256,192,100276,1,8,0:0:0:0:
256,192,100776,1,0,0:0:0:0:
256,192,101109,1,0,0:0:0:0:
256,192,101276,1,8,0:0:0:0:
256,192,101609,1,8,0:0:0:0:
256,192,101776,1,8,0:0:0:0:
256,192,101942,1,0,0:0:0:0:
256,192,102109,1,0,0:0:0:0:
256,192,102276,1,8,0:0:0:0:
256,192,102609,1,0,0:0:0:0:
256,192,102776,1,8,0:0:0:0:
256,192,103109,1,8,0:0:0:0:
256,192,103276,1,8,0:0:0:0:
256,192,103609,1,0,0:0:0:0:
256,192,103776,1,8,0:0:0:0:
256,192,104109,1,8,0:0:0:0:
256,192,104276,1,8,0:0:0:0:
256,192,104442,1,0,0:0:0:0:
256,192,104609,1,0,0:0:0:0:
256,192,104776,1,12,0:0:0:0:
256,192,105276,1,8,0:0:0:0:
256,192,105609,1,0,0:0:0:0:
256,192,105776,1,8,0:0:0:0:
256,192,106276,1,8,0:0:0:0:
256,192,106609,1,8,0:0:0:0:
256,192,106776,1,8,0:0:0:0:
256,192,107276,1,8,0:0:0:0:
256,192,107609,1,0,0:0:0:0:
256,192,107776,1,8,0:0:0:0:
256,192,108109,1,8,0:0:0:0:
256,192,108276,1,0,0:0:0:0:
256,192,108609,1,8,0:0:0:0:
256,192,108776,1,0,0:0:0:0:
256,192,109276,1,8,0:0:0:0:
256,192,109609,1,0,0:0:0:0:
256,192,109776,1,8,0:0:0:0:
256,192,110276,1,0,0:0:0:0:
256,192,110609,1,0,0:0:0:0:
256,192,110776,1,8,0:0:0:0:
256,192,110942,1,0,0:0:0:0:
256,192,111109,1,0,0:0:0:0:
256,192,111276,1,8,0:0:0:0:
256,192,111442,1,8,0:0:0:0:
256,192,111609,1,0,0:0:0:0:
256,192,111776,1,8,0:0:0:0:
256,192,111942,1,0,0:0:0:0:
256,192,112109,1,0,0:0:0:0:
256,192,112276,1,8,0:0:0:0:
256,192,112776,1,0,0:0:0:0:
256,192,113776,1,8,0:0:0:0:
256,192,114776,1,0,0:0:0:0:
256,192,115276,1,0,0:0:0:0:
256,192,115776,1,8,0:0:0:0:
256,192,116276,1,8,0:0:0:0:
256,192,116776,1,0,0:0:0:0:
256,192,117776,1,8,0:0:0:0:
256,192,118776,1,8,0:0:0:0:
256,192,119276,1,0,0:0:0:0:
256,192,119609,1,0,0:0:0:0:
256,192,119776,1,8,0:0:0:0:
256,192,120276,1,8,0:0:0:0:
256,192,120776,1,4,0:0:0:0:
256,192,121276,1,8,0:0:0:0:
256,192,121609,1,0,0:0:0:0:
256,192,121776,1,8,0:0:0:0:
256,192,121942,1,0,0:0:0:0:
256,192,122109,1,8,0:0:0:0:
256,192,122276,1,8,0:0:0:0:
256,192,122609,1,0,0:0:0:0:
256,192,122776,1,8,0:0:0:0:
256,192,123109,1,8,0:0:0:0:
256,192,123276,1,8,0:0:0:0:
256,192,123609,1,8,0:0:0:0:
256,192,123776,1,0,0:0:0:0:
256,192,123942,1,0,0:0:0:0:
256,192,124109,1,8,0:0:0:0:
256,192,124276,1,0,0:0:0:0:
256,192,124609,1,0,0:0:0:0:
256,192,124776,1,8,0:0:0:0:
256,192,125109,1,0,0:0:0:0:
256,192,125276,1,8,0:0:0:0:
256,192,125609,1,8,0:0:0:0:
256,192,125776,1,8,0:0:0:0:
256,192,126109,1,0,0:0:0:0:
256,192,126276,1,0,0:0:0:0:
256,192,126609,1,8,0:0:0:0:
256,192,126776,1,8,0:0:0:0:
256,192,127109,1,0,0:0:0:0:
256,192,127276,1,8,0:0:0:0:
256,192,127609,1,8,0:0:0:0:
256,192,127776,1,8,0:0:0:0:
256,192,127942,1,0,0:0:0:0:
256,192,128109,1,0,0:0:0:0:
256,192,128275,1,8,0:0:0:0:
256,192,128609,1,0,0:0:0:0:
256,192,128775,1,8,0:0:0:0:
256,192,128942,1,0,0:0:0:0:
256,192,129109,1,8,0:0:0:0:
256,192,129275,1,8,0:0:0:0:
256,192,129609,1,0,0:0:0:0:
256,192,129775,1,8,0:0:0:0:
256,192,129942,1,8,0:0:0:0:
256,192,130109,1,0,0:0:0:0:
256,192,130275,1,8,0:0:0:0:
256,192,130609,1,8,0:0:0:0:
256,192,130775,1,0,0:0:0:0:
256,192,131109,1,0,0:0:0:0:
256,192,131276,1,8,0:0:0:0:
256,192,131609,1,8,0:0:0:0:
256,192,131776,1,8,0:0:0:0:
256,192,132109,1,0,0:0:0:0:
256,192,132276,1,8,0:0:0:0:
256,192,132609,1,8,0:0:0:0:
256,192,132776,1,0,0:0:0:0:
256,192,133109,1,0,0:0:0:0:
256,192,133276,1,8,0:0:0:0:
256,192,133776,1,8,0:0:0:0:
256,192,134276,1,0,0:0:0:0:
256,192,134609,1,8,0:0:0:0:
256,192,134776,1,0,0:0:0:0:
256,192,135109,1,8,0:0:0:0:
256,192,135276,1,8,0:0:0:0:
256,192,135442,1,0,0:0:0:0:
256,192,135609,1,0,0:0:0:0:
256,192,135776,1,8,0:0:0:0:
256,192,136109,1,8,0:0:0:0:
256,192,136276,1,8,0:0:0:0:
256,192,136442,1,0,0:0:0:0:
256,192,136609,1,0,0:0:0:0:
256,192,136776,1,12,0:0:0:0:
256,192,137276,1,8,0:0:0:0:
256,192,137609,1,0,0:0:0:0:
256,192,137776,1,8,0:0:0:0:
256,192,137942,1,0,0:0:0:0:
256,192,138109,1,8,0:0:0:0:
256,192,138276,1,8,0:0:0:0:
256,192,138609,1,0,0:0:0:0:
256,192,138776,1,8,0:0:0:0:
256,192,139109,1,8,0:0:0:0:
256,192,139276,1,8,0:0:0:0:
256,192,139442,1,0,0:0:0:0:
256,192,139609,1,0,0:0:0:0:
256,192,139776,1,8,0:0:0:0:
256,192,140109,1,8,0:0:0:0:
256,192,140276,1,0,0:0:0:0:
256,192,140776,1,8,0:0:0:0:
256,192,141109,1,0,0:0:0:0:
256,192,141276,1,0,0:0:0:0:
256,192,141609,1,0,0:0:0:0:
256,192,141776,1,8,0:0:0:0:
256,192,142109,1,0,0:0:0:0:
256,192,142276,1,0,0:0:0:0:
256,192,142609,1,8,0:0:0:0:
256,192,142776,1,8,0:0:0:0:
256,192,143109,1,0,0:0:0:0:
256,192,143276,1,8,0:0:0:0:
256,192,143609,1,8,0:0:0:0:
256,192,143776,1,8,0:0:0:0:
256,192,143942,1,0,0:0:0:0:
256,192,144109,1,0,0:0:0:0:
256,192,144276,1,8,0:0:0:0:
256,192,144776,1,8,0:0:0:0:
256,192,144942,1,0,0:0:0:0:
256,192,145109,1,0,0:0:0:0:
256,192,145276,1,8,0:0:0:0:
256,192,145609,1,0,0:0:0:0:
256,192,145776,1,8,0:0:0:0:
256,192,145942,1,8,0:0:0:0:
256,192,146109,1,0,0:0:0:0:
256,192,146276,1,8,0:0:0:0:
256,192,146609,1,0,0:0:0:0:
256,192,146776,1,8,0:0:0:0:
256,192,147109,1,8,0:0:0:0:
256,192,147276,1,0,0:0:0:0:
256,192,147609,1,8,0:0:0:0:
256,192,147776,1,8,0:0:0:0:
256,192,148109,1,0,0:0:0:0:
256,192,148276,1,8,0:0:0:0:
256,192,148776,1,8,0:0:0:0:
256,192,149109,1,0,0:0:0:0:
256,192,149276,1,8,0:0:0:0:
256,192,149609,1,8,0:0:0:0:
256,192,149776,1,8,0:0:0:0:
256,192,150109,1,8,0:0:0:0:
256,192,150276,1,0,0:0:0:0:
256,192,150609,1,0,0:0:0:0:
256,192,150776,1,8,0:0:0:0:
256,192,151109,1,0,0:0:0:0:
256,192,151276,1,8,0:0:0:0:
256,192,151442,1,8,0:0:0:0:
256,192,151609,1,0,0:0:0:0:
256,192,151776,1,8,0:0:0:0:
256,192,152109,1,8,0:0:0:0:
256,192,152276,1,0,0:0:0:0:
256,192,152776,1,12,0:0:0:0:
256,192,153776,1,8,0:0:0:0:
256,192,154776,1,8,0:0:0:0:
256,192,155276,1,8,0:0:0:0:
256,192,155776,1,8,0:0:0:0:
256,192,156276,1,8,0:0:0:0:
256,192,156776,1,8,0:0:0:0:
256,192,157776,1,8,0:0:0:0:
256,192,158776,1,8,0:0:0:0:
256,192,159276,1,8,0:0:0:0:
256,192,159776,1,8,0:0:0:0:
256,192,160276,1,0,0:0:0:0:
256,192,160776,1,12,0:0:0:0:
256,192,161776,1,8,0:0:0:0:
256,192,162776,1,8,0:0:0:0:
256,192,163276,1,8,0:0:0:0:
256,192,163776,1,8,0:0:0:0:
256,192,164276,1,8,0:0:0:0:
256,192,164776,1,8,0:0:0:0:
256,192,165776,1,8,0:0:0:0:
256,192,166776,1,8,0:0:0:0:
256,192,167276,1,0,0:0:0:0:
256,192,167776,1,8,0:0:0:0:
256,192,168276,1,8,0:0:0:0:
256,192,168442,1,8,0:0:0:0:
256,192,168609,1,0,0:0:0:0:
256,192,168776,1,12,0:0:0:0:
256,192,169776,1,8,0:0:0:0:
256,192,170776,1,0,0:0:0:0:
256,192,171776,1,8,0:0:0:0:
256,192,172776,1,0,0:0:0:0:
256,192,173776,1,8,0:0:0:0:
256,192,174776,1,0,0:0:0:0:
256,192,175276,1,0,0:0:0:0:
256,192,175776,1,8,0:0:0:0:
256,192,176276,1,0,0:0:0:0:
256,192,176776,1,12,0:0:0:0:
256,192,177276,1,0,0:0:0:0:
256,192,177609,1,0,0:0:0:0:
256,192,177776,1,8,0:0:0:0:
256,192,178109,1,8,0:0:0:0:
256,192,178276,1,8,0:0:0:0:
256,192,178609,1,0,0:0:0:0:
256,192,178776,1,8,0:0:0:0:
256,192,179276,1,8,0:0:0:0:
256,192,179609,1,0,0:0:0:0:
256,192,179776,1,8,0:0:0:0:
256,192,180109,1,8,0:0:0:0:
256,192,180276,1,0,0:0:0:0:
256,192,180442,1,0,0:0:0:0:
256,192,180609,1,0,0:0:0:0:
256,192,180776,1,12,0:0:0:0:
256,192,181109,1,0,0:0:0:0:
256,192,181276,1,8,0:0:0:0:
256,192,181442,1,8,0:0:0:0:
256,192,181609,1,0,0:0:0:0:
256,192,181776,1,12,0:0:0:0:
256,192,182109,1,0,0:0:0:0:
256,192,182276,1,8,0:0:0:0:
256,192,182442,1,0,0:0:0:0:
256,192,182609,1,0,0:0:0:0:
256,192,182776,1,12,0:0:0:0:
256,192,183109,1,0,0:0:0:0:
256,192,183276,1,12,0:0:0:0:
256,192,183609,1,0,0:0:0:0:
256,192,183776,1,12,0:0:0:0:
256,192,183942,1,0,0:0:0:0:
256,192,184109,1,0,0:0:0:0:
256,192,184276,1,12,0:0:0:0:
256,192,184776,1,4,0:0:0:0:
256,192,185276,1,8,0:0:0:0:
256,192,185776,1,8,0:0:0:0:
256,192,185942,1,0,0:0:0:0:
256,192,186109,1,0,0:0:0:0:
256,192,186276,1,8,0:0:0:0:
256,192,186609,1,0,0:0:0:0:
256,192,186776,1,8,0:0:0:0:
256,192,187109,1,0,0:0:0:0:
256,192,187276,1,8,0:0:0:0:
256,192,187609,1,8,0:0:0:0:
256,192,187776,1,8,0:0:0:0:
256,192,188109,1,8,0:0:0:0:
256,192,188276,1,0,0:0:0:0:
256,192,188776,1,8,0:0:0:0:
256,192,189276,1,0,0:0:0:0:
256,192,189609,1,0,0:0:0:0:
256,192,189776,1,8,0:0:0:0:
256,192,190276,1,0,0:0:0:0:
256,192,190609,1,8,0:0:0:0:
256,192,190776,1,8,0:0:0:0:
256,192,191109,1,0,0:0:0:0:
256,192,191276,1,8,0:0:0:0:
256,192,191609,1,8,0:0:0:0:
256,192,191776,1,8,0:0:0:0:
256,192,191942,1,0,0:0:0:0:
256,192,192109,1,0,0:0:0:0:
256,192,192276,1,8,0:0:0:0:
256,192,192609,1,0,0:0:0:0:
256,192,192776,1,8,0:0:0:0:
256,192,192942,1,0,0:0:0:0:
256,192,193109,1,0,0:0:0:0:
256,192,193276,1,8,0:0:0:0:
256,192,193609,1,0,0:0:0:0:
256,192,193776,1,8,0:0:0:0:
256,192,193942,1,0,0:0:0:0:
256,192,194109,1,8,0:0:0:0:
256,192,194276,1,8,0:0:0:0:
256,192,194609,1,0,0:0:0:0:
256,192,194776,1,8,0:0:0:0:
256,192,195109,1,8,0:0:0:0:
256,192,195276,1,8,0:0:0:0:
256,192,195609,1,0,0:0:0:0:
256,192,195776,1,8,0:0:0:0:
256,192,196109,1,0,0:0:0:0:
256,192,196276,1,8,0:0:0:0:
256,192,196776,1,8,0:0:0:0:
256,192,197109,1,0,0:0:0:0:
256,192,197276,1,8,0:0:0:0:
256,192,197609,1,8,0:0:0:0:
256,192,197776,1,8,0:0:0:0:
256,192,198109,1,8,0:0:0:0:
256,192,198276,1,0,0:0:0:0:
256,192,198609,1,0,0:0:0:0:
256,192,198776,1,8,0:0:0:0:
256,192,199109,1,0,0:0:0:0:
256,192,199276,1,8,0:0:0:0:
256,192,199442,1,8,0:0:0:0:
256,192,199609,1,0,0:0:0:0:
256,192,199776,1,8,0:0:0:0:
256,192,200109,1,8,0:0:0:0:
256,192,200276,1,8,0:0:0:0:
256,192,200776,1,4,0:0:0:0:
256,192,201776,1,0,0:0:0:0:
256,192,202776,1,0,0:0:0:0:
256,192,203276,1,0,0:0:0:0:
256,192,203776,1,0,0:0:0:0:
256,192,204276,1,0,0:0:0:0:
256,192,204776,1,8,0:0:0:0:
256,192,205776,1,8,0:0:0:0:
256,192,206776,1,8,0:0:0:0:
256,192,207276,1,8,0:0:0:0:
256,192,207776,1,8,0:0:0:0:
256,192,208276,1,8,0:0:0:0:
256,192,208776,1,0,0:0:0:0:
256,192,209776,1,8,0:0:0:0:
256,192,210776,1,0,0:0:0:0:
256,192,210942,1,0,0:0:0:0:
256,192,211109,1,0,0:0:0:0:
256,192,211276,1,8,0:0:0:0:
256,192,211442,1,0,0:0:0:0:
256,192,211609,1,0,0:0:0:0:
256,192,211776,1,8,0:0:0:0:
256,192,211942,1,8,0:0:0:0:
256,192,212109,1,0,0:0:0:0:
256,192,212276,1,8,0:0:0:0:
256,192,212776,1,0,0:0:0:0:
256,192,212942,1,0,0:0:0:0:
256,192,213109,1,0,0:0:0:0:
256,192,213276,1,8,0:0:0:0:
256,192,213776,1,8,0:0:0:0:
256,192,213942,1,0,0:0:0:0:
256,192,214109,1,0,0:0:0:0:
256,192,214276,1,8,0:0:0:0:
