osu file format v14

[General]
AudioFilename: audio.mp3
AudioLeadIn: 0
PreviewTime: 56776
Countdown: 0
SampleSet: Soft
StackLeniency: 0.7
Mode: 0
LetterboxInBreaks: 0
EpilepsyWarning: 1
WidescreenStoryboard: 1

[Editor]
Bookmarks: 24776,40776,88776,104776,120776,152776,160776,164776,168776,184776,200776
DistanceSpacing: 0.9
BeatDivisor: 3
GridSize: 16
TimelineZoom: 1

[Metadata]
Title:Jishou Mushoku
TitleUnicode:自傷無色
Artist:Hanatan
ArtistUnicode:花たん
Creator:Rizen
Version:Normal
Source:
Tags:moph fizz utaite yurica self inflicted achromatic
BeatmapID:1068746
BeatmapSetID:502184

[Difficulty]
HPDrainRate:5
CircleSize:3.2
OverallDifficulty:4
ApproachRate:5
SliderMultiplier:1.33
SliderTickRate:1

[Events]
//Background and Video events
0,0,"bg.jpg",0,0
//Break Periods
2,88976,99576
2,152976,159576
2,164976,167576
//Storyboard Layer 0 (Background)
//Storyboard Layer 1 (Fail)
//Storyboard Layer 2 (Pass)
//Storyboard Layer 3 (Foreground)
//Storyboard Sound Samples

[TimingPoints]
776,500,4,2,1,70,1,0
12776,-100,4,2,1,60,0,0
16776,-100,4,2,1,70,0,0
20776,-100,4,2,1,60,0,0
24776,-100,4,2,1,50,0,0
39776,-100,4,2,1,60,0,0
40276,-100,4,2,1,70,0,0
40776,-100,4,2,1,50,0,0
56776,-100,4,2,1,70,0,1
71776,-100,4,2,1,60,0,0
72276,-100,4,2,1,50,0,0
72776,-100,4,2,1,70,0,1
88776,-100,4,2,1,70,0,0
104776,-100,4,2,1,50,0,0
112776,-100,4,2,1,40,0,0
119776,-100,4,2,1,50,0,0
120276,-100,4,2,1,70,0,0
120776,-100,4,2,1,70,0,1
135776,-100,4,2,1,60,0,0
136276,-100,4,2,1,50,0,0
136776,-100,4,2,1,70,0,1
152776,-100,4,2,1,50,0,0
160776,-100,4,2,1,50,0,0
168776,-125,4,2,1,50,0,0
176776,-100,4,2,1,50,0,0
182776,-100,4,2,1,60,0,0
183776,-100,4,2,1,70,0,0
184776,-100,4,2,1,70,0,1
200776,-100,4,2,1,70,0,0

[Colours]
Combo1 : 143,143,143
Combo2 : 202,0,0
Combo3 : 255,140,47
Combo4 : 142,69,2
Combo5 : 255,193,138
Combo6 : 82,80,80

[HitObjects]
191,123,8776,6,0,B|256:135|256:135|322:123,1,133,6|2,1:0|1:0,0:0:0:0:
416,197,9776,2,0,P|432:237|428:281,1,88.6666666666667,10|2,1:0|0:1,0:0:0:0:
417,324,10276,1,2,1:0:0:0:
315,260,10776,6,0,P|274:246|230:249,1,88.6666666666667,2|2,1:0|0:1,0:0:0:0:
193,266,11276,2,0,P|149:269|107:255,1,88.6666666666667,2|2,1:0|1:0,0:0:0:0:
80,225,11776,1,10,1:0:0:0:
169,145,12276,1,2,1:0:0:0:
229,249,12776,6,0,B|220:337|220:337|230:380,1,133,2|0,1:0|1:0,0:0:0:0:
338,330,13776,2,0,B|346:241|346:241|336:198,1,133,8|2,1:0|1:2,0:0:0:0:
224,154,14776,6,0,P|163:180|98:174,1,133,2|0,1:2|1:0,0:0:0:0:
78,55,15776,2,0,P|138:28|203:34,1,133,8|0,1:0|0:0,0:0:0:0:
298,107,16776,38,0,B|287:172|287:172|300:237,1,133,2|2,1:0|1:0,0:0:0:0:
384,323,17776,2,0,L|401:236,1,88.6666666666667,10|2,1:0|0:1,0:0:0:0:
411,192,18276,1,2,1:0:0:0:
300,237,18776,6,0,P|257:246|214:237,1,88.6666666666667,2|2,1:0|0:1,0:0:0:0:
187,206,19276,2,0,L|196:117,1,88.6666666666667,2|2,1:0|1:0,0:0:0:0:
202,78,19776,1,10,1:0:0:0:
95,24,20276,1,2,0:1:0:0:
95,143,20776,6,0,B|105:232|105:232|128:269,1,133,0|0,1:0|1:0,0:0:0:0:
231,328,21776,2,0,B|294:312|294:312|360:328,1,133,8|2,1:0|1:2,0:0:0:0:
464,270,22776,6,0,B|487:233|487:233|497:144,1,133,2|0,1:2|1:0,0:0:0:0:
411,59,23776,2,0,P|378:116|383:181,1,133,8|0,1:0|1:0,0:0:0:0:
296,263,24776,6,0,P|301:197|268:140,1,133,6|2,1:0|0:1,0:0:0:0:
154,107,25776,1,10,1:0:0:0:
68,191,26276,1,2,0:1:0:0:
90,308,26776,2,0,P|148:279|182:223,2,133,2|2|10,0:1|1:0|1:0,0:0:0:0:
68,191,28276,1,0,0:0:0:0:
153,107,28776,6,0,P|219:108|274:145,1,133,2|2,1:2|0:1,0:0:0:0:
284,264,29776,1,10,1:0:0:0:
392,314,30276,1,2,0:2:0:0:
492,235,30776,2,0,L|511:103,2,133,2|2|10,0:2|1:0|1:0,0:0:0:0:
382,195,32275,1,0,0:0:0:0:
284,263,32776,70,0,P|220:281|156:264,1,133,2|2,1:0|0:1,0:0:0:0:
59,194,33776,1,10,1:0:0:0:
168,146,34276,1,2,0:1:0:0:
156,264,34776,2,0,P|106:305|41:314,2,133,2|2|10,0:1|1:0|1:0,0:0:0:0:
59,194,36276,1,2,0:1:0:0:
168,146,36776,6,0,L|187:14,1,133,2|0,1:0|0:0,0:0:0:0:
290,76,37776,1,10,1:0:0:0:
408,61,38276,1,2,0:1:0:0:
511,123,38776,2,0,L|491:254,1,133,2|2,0:1|1:0,0:0:0:0:
385,309,39776,2,0,B|297:297|297:297|256:312,1,133,10|8,3:1|3:0,0:0:0:0:
155,377,40776,70,0,P|136:313|154:250,1,133,4|2,1:0|0:1,0:0:0:0:
257,189,41776,2,0,P|275:125|257:62,1,133,10|2,1:0|0:1,0:0:0:0:
155,125,42776,2,0,B|67:137|67:137|26:121,2,133,2|2|10,1:0|1:0|1:0,0:0:0:0:
256,188,44276,1,2,1:0:0:0:
358,125,44776,6,0,B|446:137|446:137|486:121,1,133,2|2,1:2|0:1,0:0:0:0:
411,28,45776,2,0,P|346:16|284:39,1,133,10|2,1:0|0:2,0:0:0:0:
242,150,46776,2,0,P|272:208|329:240,2,133,2|0|8,1:2|1:0|1:0,0:0:0:0:
358,125,48276,1,0,1:0:0:0:
445,206,48776,70,0,L|428:337,1,133,0|2,1:0|0:1,0:0:0:0:
312,372,49776,2,0,L|328:240,1,133,10|2,1:0|0:1,0:0:0:0:
227,175,50776,2,0,L|210:306,2,133,2|2|10,1:0|1:0|1:0,0:0:0:0:
127,107,52276,1,2,1:0:0:0:
23,163,52776,6,0,P|7:100|27:38,1,133,2|2,1:0|0:1,0:0:0:0:
127,107,53776,2,0,P|143:170|122:232,1,133,10|2,1:0|0:1,0:0:0:0:
15,286,54776,2,0,P|58:335|121:352,1,133,2|0,1:0|3:0,0:0:0:0:
227,295,55776,1,8,3:1:0:0:
461,248,56776,6,0,L|328:235,1,133,6|2,0:1|1:0,0:0:0:0:
227,295,57776,2,0,L|138:286,1,88.6666666666667,10|2,1:0|0:1,0:0:0:0:
98,283,58276,1,2,1:0:0:0:
19,192,58776,6,0,P|11:148|25:106,1,88.6666666666667,10|2,1:3|1:0,0:0:0:0:
58,83,59276,2,0,L|146:74,1,88.6666666666667,2|2,1:0|0:1,0:0:0:0:
181,93,59776,2,0,L|269:84,1,88.6666666666667,10|2,1:0|0:1,0:0:0:0:
305,101,60276,1,10,3:0:0:0:
407,161,60776,6,0,P|424:97|403:34,1,133,6|2,1:3|1:0,0:0:0:0:
305,101,61776,2,0,P|288:164|309:227,1,133,10|2,1:0|1:2,0:0:0:0:
378,324,62776,6,0,P|336:310|292:310,1,88.6666666666667,10|2,1:3|1:0,0:0:0:0:
255,328,63276,2,0,P|213:341|169:341,1,88.6666666666667,2|2,1:0|0:1,0:0:0:0:
134,320,63776,2,0,P|148:279|130:195,1,133,10|10,1:0|0:3,0:0:0:0:
47,108,64775,38,0,L|134:96,1,88.6666666666667,6|2,1:3|0:1,0:0:0:0:
175,92,65275,1,2,1:0:0:0:
218,206,65776,2,0,L|130:194,1,88.6666666666667,10|2,1:0|0:1,0:0:0:0:
90,190,66276,1,2,1:0:0:0:
50,302,66776,6,0,L|137:290,1,88.6666666666667,10|2,1:3|1:0,0:0:0:0:
169,314,67276,2,0,L|256:302,1,88.6666666666667,2|2,1:0|0:1,0:0:0:0:
296,297,67776,1,10,1:0:0:0:
404,347,68276,1,10,0:3:0:0:
488,260,68776,6,0,P|494:217|481:175,1,88.6666666666667,6|2,1:3|0:1,0:0:0:0:
453,147,69276,2,0,P|446:103|459:61,1,88.6666666666667,2|0,1:0|1:0,0:0:0:0:
484,30,69776,2,0,P|443:44|356:31,1,133,10|2,1:0|1:0,0:0:0:0:
256,97,70776,6,0,P|212:88|169:96,1,88.6666666666667,10|2,1:3|1:0,0:0:0:0:
137,120,71276,2,0,P|93:127|50:119,1,88.6666666666667,2|2,1:0|0:1,0:0:0:0:
15,99,71776,2,0,P|30:163|15:227,1,133,10|8,3:0|3:0,0:0:0:0:
98,312,72776,38,0,B|163:297|163:297|227:310,1,133,6|2,1:0|1:0,0:0:0:0:
343,345,73776,2,0,L|430:332,1,88.6666666666667,10|2,1:0|0:1,0:0:0:0:
470,327,74276,1,2,1:0:0:0:
474,208,74776,6,0,P|430:201|386:208,1,88.6666666666667,10|2,1:3|1:0,0:0:0:0:
348,221,75276,2,0,P|304:227|260:221,1,88.6666666666667,2|2,1:0|0:1,0:0:0:0:
228,197,75776,2,0,L|242:109,1,88.6666666666667,10|2,1:0|0:1,0:0:0:0:
250,70,76276,1,10,0:3:0:0:
139,26,76776,6,0,P|110:86|114:151,1,133,6|2,1:3|1:0,0:0:0:0:
228,197,77776,2,0,P|256:256|252:321,1,133,10|2,1:0|1:2,0:0:0:0:
355,383,78776,6,0,P|359:339|377:298,1,88.6666666666667,10|2,1:3|1:0,0:0:0:0:
381,258,79276,2,0,P|376:214|358:173,1,88.6666666666667,2|2,1:0|0:1,0:0:0:0:
328,148,79776,2,0,P|392:162|456:146,1,133,10|10,1:0|0:3,0:0:0:0:
390,45,80776,38,0,P|348:32|304:33,1,88.6666666666667,6|2,1:3|0:1,0:0:0:0:
267,48,81276,1,2,1:0:0:0:
169,117,81776,2,0,P|126:130|82:129,1,88.6666666666667,10|2,1:0|0:1,0:0:0:0:
45,115,82276,1,2,1:0:0:0:
110,215,82776,6,0,P|119:257|113:301,1,88.6666666666667,10|2,1:3|1:0,0:0:0:0:
144,327,83276,2,0,P|186:317|230:323,1,88.6666666666667,2|2,1:0|0:1,0:0:0:0:
262,347,83776,2,0,P|305:353|348:343,1,88.6666666666667,10|2,1:0|0:1,0:0:0:0:
377,315,84276,1,10,0:3:0:0:
454,223,84776,6,0,L|434:91,1,133,6|2,1:3|1:0,0:0:0:0:
332,28,85776,2,0,L|318:115,1,88.6666666666667,10|2,1:0|0:1,0:0:0:0:
286,138,86276,2,0,P|242:140|200:124,1,88.6666666666667,2|2,1:0|1:0,0:0:0:0:
178,91,86776,6,0,P|136:75|92:77,1,88.6666666666667,10|2,1:3|1:0,0:0:0:0:
62,103,87276,2,0,L|42:234,2,133,2|10|8,1:0|3:1|3:1,0:0:0:0:
148,186,88776,37,4,0:1:0:0:
256,192,100776,12,8,103776,0:1:0:0:
142,188,104776,54,0,P|206:203|270:188,1,133,4|2,0:1|0:1,0:0:0:0:
375,131,105776,2,0,P|439:116|503:131,1,133,10|2,1:0|0:1,0:0:0:0:
503,251,106776,2,0,P|438:265|374:250,2,133,2|2|10,1:0|1:0|1:0,0:0:0:0:
440,148,108276,1,2,1:0:0:0:
319,142,108776,6,0,P|270:185|250:248,1,133,2|2,0:0|0:1,0:0:0:0:
206,359,109776,2,0,P|185:296|137:252,1,133,10|2,1:0|0:0,0:0:0:0:
17,253,110776,2,0,P|37:190|85:146,2,133,2|0|8,1:2|1:0|1:0,0:0:0:0:
83,352,112276,1,0,1:0:0:0:
141,249,112776,70,0,L|273:235,1,133,2|2,0:1|0:1,0:0:0:0:
351,325,113776,2,0,P|386:270|388:205,1,133,10|2,0:1|0:1,0:0:0:0:
304,120,114776,2,0,P|361:89|427:92,2,133,2|2|10,0:1|1:0|0:1,0:0:0:0:
273,235,116276,1,2,0:1:0:0:
188,150,116776,6,0,L|170:18,1,133,2|2,1:0|0:1,0:0:0:0:
56,54,117776,2,0,L|38:185,1,133,10|2,0:1|0:1,0:0:0:0:
130,263,118776,2,0,P|193:245|256:262,1,133,2|2,1:0|3:0,0:0:0:0:
353,192,119776,69,10,3:1:0:0:
366,311,120276,1,8,1:0:0:0:
257,262,120776,22,0,L|275:131,1,133,6|2,0:1|1:0,0:0:0:0:
202,35,121776,2,0,P|162:19|118:23,1,88.6666666666667,10|2,1:0|0:1,0:0:0:0:
75,34,122276,1,2,1:0:0:0:
4,130,122776,6,0,L|16:217,1,88.6666666666667,10|2,1:3|1:0,0:0:0:0:
48,242,123276,2,0,P|88:225|132:230,1,88.6666666666667,2|2,1:0|0:1,0:0:0:0:
164,253,123776,2,0,P|204:269|248:264,1,88.6666666666667,10|2,1:0|0:1,0:0:0:0:
285,248,124276,1,10,3:0:0:0:
395,201,124776,6,0,P|402:266|377:327,1,133,6|2,1:3|1:0,0:0:0:0:
285,248,125776,2,0,P|277:182|302:121,1,133,10|2,1:0|1:2,0:0:0:0:
368,22,126776,6,0,P|328:4|284:2,1,88.6666666666667,10|2,1:3|1:0,0:0:0:0:
245,14,127276,2,0,P|204:32|160:35,1,88.6666666666667,2|2,1:0|0:1,0:0:0:0:
124,18,127776,2,0,P|156:76|148:140,1,133,10|10,1:0|0:3,0:0:0:0:
58,219,128775,38,0,P|34:182|29:138,1,88.6666666666667,6|2,1:3|0:1,0:0:0:0:
36,100,129275,1,2,1:0:0:0:
147,140,129775,2,0,P|170:176|175:220,1,88.6666666666667,10|2,1:0|0:1,0:0:0:0:
169,260,130275,1,2,1:0:0:0:
106,362,130775,6,0,P|146:379|190:378,1,88.6666666666667,10|2,1:3|1:0,0:0:0:0:
228,363,131276,2,0,P|268:346|312:347,1,88.6666666666667,2|2,1:0|0:1,0:0:0:0:
347,365,131776,1,10,1:0:0:0:
380,250,132276,1,10,0:3:0:0:
260,238,132776,6,0,P|270:196|296:160,1,88.6666666666667,6|2,1:3|0:1,0:0:0:0:
329,138,133276,2,0,L|321:49,1,88.6666666666667,2|0,1:0|1:0,0:0:0:0:
355,28,133776,2,0,P|291:45|226:36,1,133,10|2,1:0|1:0,0:0:0:0:
115,81,134776,6,0,P|73:67|29:73,1,88.6666666666667,10|2,1:3|1:0,0:0:0:0:
8,107,135276,2,0,P|24:147|57:177,1,88.6666666666667,2|2,1:0|0:1,0:0:0:0:
95,190,135776,2,0,B|110:254|110:254|95:319,1,133,10|8,3:0|3:0,0:0:0:0:
203,372,136776,38,0,B|188:306|188:306|203:242,1,133,6|2,1:0|1:0,0:0:0:0:
303,307,137776,2,0,P|346:308|386:289,1,88.6666666666667,10|2,1:0|0:1,0:0:0:0:
416,262,138276,1,2,1:0:0:0:
320,187,138776,6,0,P|313:144|321:101,1,88.6666666666667,10|2,1:3|1:0,0:0:0:0:
344,68,139276,2,0,L|255:59,1,88.6666666666667,2|2,1:0|0:1,0:0:0:0:
222,36,139776,2,0,L|133:27,1,88.6666666666667,10|2,1:0|0:1,0:0:0:0:
94,22,140276,1,10,0:3:0:0:
7,103,140776,6,0,P|0:169|31:226,1,133,6|2,1:3|1:0,0:0:0:0:
120,306,141776,2,0,P|151:248|144:183,1,133,10|2,1:0|1:2,0:0:0:0:
92,75,142776,6,0,P|134:64|178:69,1,88.6666666666667,10|2,1:3|1:0,0:0:0:0:
212,89,143276,2,0,P|255:94|298:83,1,88.6666666666667,2|2,1:0|0:1,0:0:0:0:
327,110,143776,2,0,L|317:198,1,88.6666666666667,10|2,1:0|1:0,0:0:0:0:
313,237,144276,1,10,0:3:0:0:
385,331,144775,38,0,L|394:242,1,88.6666666666667,6|2,1:3|0:1,0:0:0:0:
397,202,145275,1,2,1:0:0:0:
472,295,145776,2,0,L|481:206,1,88.6666666666667,10|2,1:0|0:1,0:0:0:0:
484,167,146276,1,2,1:0:0:0:
398,83,146775,6,0,P|354:84|313:67,1,88.6666666666667,10|2,1:3|1:0,0:0:0:0:
276,52,147276,2,0,P|232:50|191:67,1,88.6666666666667,2|2,1:0|0:1,0:0:0:0:
165,98,147776,2,0,L|168:186,1,88.6666666666667,10|2,1:0|0:1,0:0:0:0:
171,226,148276,1,10,0:3:0:0:
74,296,148776,6,0,L|69:163,1,133,6|2,1:3|1:0,0:0:0:0:
171,226,149776,2,0,L|167:314,1,88.6666666666667,10|2,1:0|0:1,0:0:0:0:
191,345,150276,2,0,P|232:360|276:358,1,88.6666666666667,2|2,1:0|1:0,0:0:0:0:
306,332,150776,6,0,P|347:316|391:318,1,88.6666666666667,10|2,1:3|1:0,0:0:0:0:
425,337,151276,2,0,P|472:291|485:227,2,133,2|10|8,1:0|3:1|3:1,0:0:0:0:
365,232,152776,37,6,0:1:0:0:
398,295,160776,53,6,1:0:0:0:
290,241,161276,1,2,1:0:0:0:
177,283,161776,2,0,P|114:302|50:287,1,133,10|2,1:0|1:0,0:0:0:0:
112,184,162776,1,2,1:0:0:0:
220,130,163276,1,2,1:0:0:0:
333,172,163776,2,0,P|395:191|459:176,1,133,10|2,1:0|1:0,0:0:0:0:
400,71,164776,5,0,1:0:0:0:
400,71,168776,6,0,L|408:177,1,106.4,4|2,0:1|0:1,0:0:0:0:
308,212,169776,2,0,L|316:105,1,106.4,2|2,0:1|0:1,0:0:0:0:
232,40,170776,2,0,P|130:30|66:110,1,212.8,2|2,0:1|0:1,0:0:0:0:
171,127,172276,1,2,0:1:0:0:
97,206,172776,6,0,P|68:162|66:110,1,106.4,2|2,0:2|0:1,0:0:0:0:
171,127,173776,1,2,0:1:0:0:
274,100,174276,1,2,0:2:0:0:
373,137,174776,2,0,L|366:243,1,106.4,2|2,0:2|0:1,0:0:0:0:
268,206,175776,2,0,L|273:99,1,106.4,2|2,0:1|0:1,0:0:0:0:
171,127,176776,6,0,B|163:260|163:260|120:245|74:252|39:282,1,266,6|10,1:0|1:0,0:0:0:0:
118,371,178276,1,2,0:1:0:0:
237,360,178776,6,0,L|369:347,1,133,2|2,0:1|1:0,0:0:0:0:
447,255,179776,2,0,L|314:242,1,133,10|0,1:0|0:0,0:0:0:0:
251,140,180776,38,0,P|314:123|378:140,2,133,6|2|14,1:0|0:1|1:0,0:0:0:0:
215,254,182276,1,2,0:1:0:0:
98,281,182776,5,6,1:0:0:0:
18,191,183276,1,2,1:0:0:0:
59,77,183776,2,0,L|49:34,2,44.3333333333333,10|10|10,3:1|3:1|3:1,0:0:0:0:
67,116,184276,1,10,3:1:0:0:
171,56,184776,70,0,B|236:43|236:43|301:55,1,133,6|2,1:0|1:0,0:0:0:0:
393,130,185776,2,0,P|414:92|420:48,1,88.6666666666667,10|2,1:0|0:1,0:0:0:0:
412,9,186276,1,2,1:0:0:0:
301,55,186776,6,0,P|279:93|273:137,1,88.6666666666667,10|2,1:3|1:0,0:0:0:0:
292,172,187276,2,0,P|313:210|319:254,1,88.6666666666667,2|2,1:0|0:1,0:0:0:0:
301,289,187776,2,0,P|259:276|215:280,1,88.6666666666667,10|2,1:0|0:1,0:0:0:0:
177,290,188276,1,10,0:3:0:0:
63,252,188776,6,0,B|69:164|69:164|85:122,1,133,6|2,1:3|1:0,0:0:0:0:
171,38,189776,2,0,P|113:6|47:10,1,133,10|2,1:0|1:2,0:0:0:0:
85,122,190776,6,0,P|128:130|171:122,1,88.6666666666667,10|2,1:3|1:0,0:0:0:0:
207,105,191276,2,0,L|295:105,1,88.6666666666667,2|2,1:0|0:1,0:0:0:0:
332,91,191776,2,0,P|375:83|418:91,1,88.6666666666667,10|2,1:0|1:0,0:0:0:0:
455,107,192276,1,10,0:3:0:0:
373,195,192775,38,0,P|361:237|364:281,1,88.6666666666667,6|2,1:3|0:1,0:0:0:0:
374,319,193275,1,2,1:0:0:0:
267,374,193776,2,0,P|279:331|276:287,1,88.6666666666667,10|2,1:0|0:1,0:0:0:0:
267,250,194276,1,2,1:0:0:0:
171,321,194775,6,0,P|127:322|86:305,1,88.6666666666667,10|2,1:3|1:0,0:0:0:0:
65,271,195276,2,0,P|65:226|49:186,1,88.6666666666667,2|2,1:0|0:1,0:0:0:0:
26,153,195776,2,0,P|25:108|41:68,1,88.6666666666667,10|2,1:0|0:1,0:0:0:0:
73,43,196276,1,10,0:3:0:0:
150,134,196776,6,0,L|281:117,1,133,6|2,1:3|1:0,0:0:0:0:
320,230,197776,2,0,L|232:218,1,88.6666666666667,10|2,1:0|0:1,0:0:0:0:
203,246,198276,2,0,P|200:289|216:331,1,88.6666666666667,2|2,1:0|1:0,0:0:0:0:
244,359,198776,6,0,P|285:343|329:345,1,88.6666666666667,10|2,1:3|1:0,0:0:0:0:
368,339,199276,2,0,P|418:296|438:233,2,133,2|10|8,1:0|3:0|1:0,0:0:0:0:
320,230,200776,37,4,0:1:0:0:
