osu file format v14

[General]
AudioFilename: audio.mp3
AudioLeadIn: 0
PreviewTime: 56776
Countdown: 0
SampleSet: Soft
StackLeniency: 0.4
Mode: 0
LetterboxInBreaks: 0
EpilepsyWarning: 1
WidescreenStoryboard: 1

[Editor]
Bookmarks: 8776,24776,56776,88776,120776,152776,160776,164776,168776,176776,184776,200776
DistanceSpacing: 1.8
BeatDivisor: 6
GridSize: 16
TimelineZoom: 1.7

[Metadata]
Title:Jishou Mushoku
TitleUnicode:自傷無色
Artist:Hanatan
ArtistUnicode:花たん
Creator:Rizen
Version:Hard
Source:
Tags:moph fizz utaite yurica self inflicted achromatic
BeatmapID:1090154
BeatmapSetID:502184

[Difficulty]
HPDrainRate:5
CircleSize:4
OverallDifficulty:6.5
ApproachRate:7.5
SliderMultiplier:1.55
SliderTickRate:1

[Events]
//Background and Video events
0,0,"bg.jpg",0,0
//Break Periods
2,88976,99876
2,152976,159876
2,168976,175876
//Storyboard Layer 0 (Background)
//Storyboard Layer 1 (Fail)
//Storyboard Layer 2 (Pass)
//Storyboard Layer 3 (Foreground)
//Storyboard Sound Samples

[TimingPoints]
776,500,4,2,1,70,1,0
12776,-100,4,2,1,60,0,0
16776,-100,4,2,1,70,0,0
20776,-100,4,2,1,60,0,0
24776,-100,4,2,1,50,0,0
39776,-100,4,2,1,60,0,0
40276,-100,4,2,1,70,0,0
40776,-100,4,2,1,50,0,0
56776,-100,4,2,1,70,0,1
71776,-100,4,2,1,60,0,0
72276,-100,4,2,1,50,0,0
72776,-100,4,2,1,70,0,1
88776,-100,4,2,1,70,0,0
104776,-100,4,2,1,50,0,0
112776,-100,4,2,1,40,0,0
119776,-100,4,2,1,50,0,0
120276,-100,4,2,1,70,0,0
120776,-100,4,2,1,70,0,1
135776,-100,4,2,1,60,0,0
136276,-100,4,2,1,50,0,0
136776,-100,4,2,1,70,0,1
152776,-100,4,2,1,50,0,0
160776,-100,4,2,1,50,0,0
167776,-100,4,2,1,60,0,0
168276,-100,4,2,1,70,0,0
168776,-100,4,2,1,50,0,0
182776,-100,4,2,1,60,0,0
183776,-100,4,2,1,70,0,0
184776,-100,4,2,1,70,0,1
200776,-100,4,2,1,70,0,0

[Colours]
Combo1 : 143,143,143
Combo2 : 202,0,0
Combo3 : 255,140,47
Combo4 : 142,69,2
Combo5 : 255,193,138
Combo6 : 82,80,80

[HitObjects]
129,338,8776,6,0,P|112:289|120:238,1,103.333333333333,6|0,1:0|0:0,0:0:0:0:
193,181,9276,2,0,P|209:132|201:81,1,103.333333333333,2|0,1:0|1:0,0:0:0:0:
157,0,9776,1,10,1:0:0:0:
193,181,10109,1,2,0:1:0:0:
193,181,10276,2,0,L|295:169,1,103.333333333333,2|0,1:0|1:0,0:0:0:0:
388,161,10776,5,2,1:0:0:0:
240,273,11109,1,2,0:1:0:0:
240,273,11276,1,2,1:0:0:0:
220,88,11609,1,2,1:0:0:0:
220,88,11776,2,0,L|322:76,1,103.333333333333,10|0,1:0|0:0,0:0:0:0:
407,115,12276,2,0,P|417:65|397:17,1,103.333333333333,2|0,1:0|0:0,0:0:0:0:
322,76,12776,6,0,P|311:125|331:173,1,103.333333333333,2|0,1:0|0:0,0:0:0:0:
417,209,13276,2,0,L|465:227,2,51.6666666666667,0|0|0,1:0|1:0|1:0,0:0:0:0:
344,267,13776,2,0,L|222:312,1,103.333333333333,8|0,1:0|0:0,0:0:0:0:
160,338,14276,1,2,1:2:0:0:
25,209,14609,1,0,1:0:0:0:
25,209,14776,6,0,P|74:196|124:207,1,103.333333333333,2|0,1:2|0:0,0:0:0:0:
75,286,15276,2,0,L|75:337,2,51.6666666666667,0|0|0,1:0|1:0|1:0,0:0:0:0:
25,209,15776,2,0,L|25:105,1,103.333333333333,8|0,1:0|1:0,0:0:0:0:
84,34,16276,2,0,P|133:21|183:32,1,103.333333333333,0|0,0:0|1:0,0:0:0:0:
240,106,16776,38,0,P|289:117|339:104,1,103.333333333333,2|0,1:0|0:0,0:0:0:0:
399,33,17276,2,0,P|425:76|429:127,1,103.333333333333,2|0,1:0|1:0,0:0:0:0:
363,193,17776,1,10,1:0:0:0:
181,153,18109,1,2,0:1:0:0:
181,153,18276,2,0,L|85:192,1,103.333333333333,2|0,1:0|1:0,0:0:0:0:
0,154,18776,5,2,1:0:0:0:
91,315,19109,1,2,0:1:0:0:
91,315,19276,1,2,1:0:0:0:
181,153,19609,1,2,1:0:0:0:
181,153,19776,2,0,L|166:50,1,103.333333333333,10|0,1:0|0:0,0:0:0:0:
258,37,20276,2,0,L|272:139,1,103.333333333333,2|0,0:1|0:0,0:0:0:0:
241,226,20776,6,0,P|292:230|336:205,1,103.333333333333,0|0,1:0|0:0,0:0:0:0:
390,129,21276,2,0,L|383:77,2,51.6666666666667,0|0|0,1:0|1:0|1:0,0:0:0:0:
470,176,21776,2,0,L|456:278,1,103.333333333333,8|0,1:0|0:0,0:0:0:0:
379,330,22276,2,0,P|334:304|284:308,1,103.333333333333,2|0,1:2|1:0,0:0:0:0:
221,377,22776,6,0,P|192:334|192:284,1,103.333333333333,2|0,1:2|1:0,0:0:0:0:
258,218,23276,2,0,B|308:226,2,51.6666666666667,0|0|0,1:0|0:0|0:0,0:0:0:0:
234,127,23776,2,0,L|132:109,1,103.333333333333,8|0,1:0|1:0,0:0:0:0:
40,94,24276,1,0,1:0:0:0:
108,266,24609,1,2,1:0:0:0:
108,266,24776,6,0,P|106:215|76:174,1,103.333333333333,6|2,1:0|0:1,0:0:0:0:
21,250,25276,2,0,P|22:300|52:341,1,103.333333333333,2|2,0:1|0:1,0:0:0:0:
145,348,25776,1,10,1:0:0:0:
292,234,26109,1,2,0:1:0:0:
292,234,26276,2,0,L|394:251,1,103.333333333333,2|2,0:1|1:0,0:0:0:0:
476,293,26776,6,0,P|486:243|466:195,1,103.333333333333,2|0,0:1|1:0,0:0:0:0:
384,153,27276,2,0,L|332:160,2,51.6666666666667,2|0|2,1:0|1:0|1:0,0:0:0:0:
461,101,27776,2,0,L|512:108,2,51.6666666666667,10|0|0,1:0|0:0|0:0,0:0:0:0:
377,59,28276,1,0,0:0:0:0:
236,180,28609,1,2,0:1:0:0:
236,180,28776,70,0,L|254:281,1,103.333333333333,2|2,1:2|0:1,0:0:0:0:
321,346,29276,2,0,P|275:370|224:369,1,103.333333333333,2|2,0:1|0:1,0:0:0:0:
162,300,29776,1,10,1:0:0:0:
343,259,30109,1,2,0:1:0:0:
343,259,30276,2,0,P|386:286|411:331,1,103.333333333333,2|2,0:2|1:0,0:0:0:0:
467,256,30776,6,0,L|449:155,1,103.333333333333,2|0,0:2|1:0,0:0:0:0:
386,85,31276,2,0,L|395:34,2,51.6666666666667,2|0|2,1:0|1:0|1:0,0:0:0:0:
323,153,31776,2,0,L|332:203,2,51.6666666666667,10|0|0,1:0|0:0|0:0,0:0:0:0:
260,84,32275,1,0,0:0:0:0:
87,153,32609,1,2,0:1:0:0:
87,153,32776,70,0,P|65:107|71:56,1,103.333333333333,2|2,1:0|0:1,0:0:0:0:
156,95,33276,2,0,P|178:140|171:191,1,103.333333333333,2|2,0:1|0:1,0:0:0:0:
95,245,33776,1,10,1:0:0:0:
70,56,34109,1,0,0:0:0:0:
70,56,34276,2,0,P|107:19|156:5,1,103.333333333333,2|2,0:1|1:0,0:0:0:0:
236,52,34776,6,0,L|338:63,1,103.333333333333,2|0,0:1|1:0,0:0:0:0:
416,114,35276,2,0,L|467:119,2,51.6666666666667,2|0|2,1:0|1:0|1:0,0:0:0:0:
406,206,35776,2,0,L|457:211,2,51.6666666666667,10|0|0,1:0|0:0|0:0,0:0:0:0:
317,234,36276,1,2,0:1:0:0:
169,121,36609,1,2,0:1:0:0:
169,121,36776,70,0,P|179:171|167:221,1,103.333333333333,2|2,1:0|0:1,0:0:0:0:
91,274,37276,1,0,0:0:0:0:
247,374,37609,1,2,0:1:0:0:
247,374,37776,2,0,L|349:363,1,103.333333333333,10|0,1:0|0:0,0:0:0:0:
401,285,38276,2,0,L|298:274,1,103.333333333333,2|2,0:1|1:0,0:0:0:0:
227,335,38776,6,0,P|207:287|214:237,1,103.333333333333,2|2,0:1|1:0,0:0:0:0:
293,187,39276,2,0,P|312:139|305:89,1,103.333333333333,2|2,1:0|1:0,0:0:0:0:
237,24,39776,2,0,L|185:19,2,51.6666666666667,10|0|0,3:1|3:0|3:0,0:0:0:0:
304,88,40276,2,0,L|355:92,1,51.6666666666667,8|0,3:0|3:0,0:0:0:0:
448,97,40609,1,0,3:0:0:0:
431,179,40776,70,0,B|405:277|405:277|427:325,1,155,4|2,1:0|0:1,0:0:0:0:
302,187,41609,1,0,1:0:0:0:
302,187,41776,2,0,B|230:157|230:157|158:186,1,155,10|2,1:0|0:1,0:0:0:0:
229,356,42609,1,0,1:0:0:0:
229,356,42776,6,0,L|229:252,1,103.333333333333,2|0,1:0|1:0,0:0:0:0:
302,187,43276,2,0,L|302:83,1,103.333333333333,2|0,1:0|1:0,0:0:0:0:
395,84,43776,2,0,L|395:187,1,103.333333333333,10|0,1:0|0:0,0:0:0:0:
461,252,44276,1,2,1:0:0:0:
300,345,44609,1,0,0:0:0:0:
300,345,44776,70,0,P|249:335|210:302,1,103.333333333333,2|0,1:2|0:0,0:0:0:0:
137,360,45276,2,0,P|120:311|128:261,1,103.333333333333,2|0,0:1|1:0,0:0:0:0:
69,188,45776,2,0,P|52:139|60:89,1,103.333333333333,10|0,1:0|0:0,0:0:0:0:
141,132,46276,1,2,0:2:0:0:
326,121,46609,1,0,1:0:0:0:
326,121,46776,6,0,P|280:97|230:104,1,103.333333333333,2|0,1:2|0:0,0:0:0:0:
141,132,47276,2,0,P|166:175|212:197,1,103.333333333333,0|0,1:0|1:0,0:0:0:0:
193,287,47776,2,0,P|168:287|143:294,2,51.6666666666667,8|0|0,1:0|0:0|0:0,0:0:0:0:
176,379,48276,1,0,1:0:0:0:
23,272,48609,1,0,0:0:0:0:
23,272,48776,70,0,B|12:204|12:204|24:171,1,103.333333333333,0|0,1:0|0:0,0:0:0:0:
105,217,49276,2,0,B|115:284|115:284|103:317,1,103.333333333333,2|0,0:1|1:0,0:0:0:0:
186,359,49776,2,0,B|202:310|202:310|222:359,1,103.333333333333,10|0,1:0|0:0,0:0:0:0:
305,317,50276,2,0,B|293:284|293:284|303:216,1,103.333333333333,2|0,0:1|1:0,0:0:0:0:
319,124,50776,6,0,B|299:10|299:10|283:45,1,155,2|2,1:0|1:0,0:0:0:0:
392,195,51609,1,0,1:0:0:0:
392,195,51776,2,0,B|412:81|412:81|427:116,1,155,10|2,1:0|1:0,0:0:0:0:
206,288,52776,70,0,P|194:238|212:190,1,103.333333333333,2|0,1:0|0:0,0:0:0:0:
288,245,53276,2,0,P|336:259|369:298,1,103.333333333333,2|0,0:1|1:0,0:0:0:0:
284,338,53776,2,0,P|247:373|196:381,1,103.333333333333,10|0,1:0|0:0,0:0:0:0:
120,328,54276,2,0,B|33:271,1,103.333333333333,2|0,0:1|1:0,0:0:0:0:
119,233,54776,6,0,B|117:129,1,103.333333333333,2|0,1:0|0:0,0:0:0:0:
196,178,55276,2,0,B|236:145,2,51.6666666666667,0|0|0,3:0|3:0|3:0,0:0:0:0:
119,233,55776,1,8,3:1:0:0:
175,65,56776,6,0,L|277:54,1,103.333333333333,6|0,0:1|0:0,0:0:0:0:
327,133,57276,2,0,P|376:118|425:132,1,103.333333333333,2|0,1:0|1:0,0:0:0:0:
376,212,57776,1,10,1:0:0:0:
184,233,58109,1,2,0:1:0:0:
184,233,58276,2,0,P|147:197|134:148,1,103.333333333333,2|0,1:0|1:0,0:0:0:0:
175,65,58776,6,0,P|211:100|224:149,1,103.333333333333,10|2,1:3|1:0,0:0:0:0:
184,232,59276,2,0,P|134:246|85:233,1,103.333333333333,2|2,1:0|0:1,0:0:0:0:
38,152,59776,2,0,P|51:102|87:66,1,103.333333333333,10|2,1:0|0:1,0:0:0:0:
134,148,60276,1,10,3:0:0:0:
400,66,60776,6,0,B|322:52|322:52|300:62,1,103.333333333333,6|0,1:3|0:0,0:0:0:0:
334,148,61276,2,0,L|435:166,1,103.333333333333,2|0,1:0|1:0,0:0:0:0:
467,252,61776,2,0,P|412:293|374:235,1,155,10|2,1:0|1:2,0:0:0:0:
300,62,62609,1,2,1:0:0:0:
300,62,62776,6,0,B|249:53|249:53|198:63,1,103.333333333333,10|2,1:3|1:0,0:0:0:0:
119,14,63276,2,0,B|68:24|68:24|17:15,1,103.333333333333,2|2,1:0|0:1,0:0:0:0:
0,107,63776,2,0,B|51:117|51:117|84:157|84:157|77:207,1,155,10|10,1:0|0:3,0:0:0:0:
306,364,64775,38,0,P|357:362|401:337,1,103.333333333333,6|2,1:3|0:1,0:0:0:0:
471,276,65275,2,0,P|426:250|375:249,1,103.333333333333,2|0,1:0|1:0,0:0:0:0:
285,276,65776,1,10,1:0:0:0:
185,119,66109,1,2,0:1:0:0:
185,119,66276,2,0,P|229:93|280:92,1,103.333333333333,2|0,1:0|1:0,0:0:0:0:
344,159,66776,6,0,P|368:114|368:63,1,103.333333333333,10|2,1:3|1:0,0:0:0:0:
280,92,67276,2,0,P|251:49|205:26,1,103.333333333333,2|2,1:0|0:1,0:0:0:0:
185,119,67776,1,10,1:0:0:0:
309,368,68276,2,0,L|323:265,1,103.333333333333,10|0,0:3|0:0,0:0:0:0:
236,232,68776,6,0,P|186:246|137:234,1,103.333333333333,6|2,1:3|0:1,0:0:0:0:
85,155,69276,2,0,P|134:140|184:153,1,103.333333333333,2|0,1:0|1:0,0:0:0:0:
237,231,69776,2,0,L|214:384,1,155,10|2,1:0|1:0,0:0:0:0:
36,329,70609,1,2,1:0:0:0:
36,329,70776,6,0,L|20:226,1,103.333333333333,10|2,1:3|1:0,0:0:0:0:
81,157,71276,2,0,L|101:55,1,103.333333333333,2|2,1:0|0:1,0:0:0:0:
183,100,71776,2,0,L|172:150,2,51.6666666666667,10|0|4,3:0|3:0|3:0,0:0:0:0:
265,56,72276,2,0,P|290:55|314:64,1,51.6666666666667,8|0,3:0|3:0,0:0:0:0:
376,134,72609,1,4,3:0:0:0:
335,217,72776,38,0,P|291:243|240:246,1,103.333333333333,6|0,1:0|0:0,0:0:0:0:
167,180,73276,2,0,P|212:204|240:246,1,103.333333333333,2|0,1:0|1:0,0:0:0:0:
215,342,73776,1,10,1:0:0:0:
35,292,74109,1,2,0:1:0:0:
35,292,74276,2,0,L|76:197,1,103.333333333333,2|0,1:0|1:0,0:0:0:0:
167,180,74776,6,0,P|143:134|100:107,1,103.333333333333,10|2,1:3|1:0,0:0:0:0:
11,134,75276,2,0,P|12:82|40:39,1,103.333333333333,2|2,1:0|0:1,0:0:0:0:
132,23,75776,2,0,L|230:53,1,103.333333333333,10|2,1:0|0:1,0:0:0:0:
318,84,76276,1,10,0:3:0:0:
381,355,76776,6,0,L|282:324,1,103.333333333333,6|0,1:3|0:0,0:0:0:0:
208,266,77276,2,0,P|250:236|301:232,1,103.333333333333,2|2,1:0|1:0,0:0:0:0:
386,269,77776,2,0,P|322:229|306:155,1,155,10|2,1:0|1:2,0:0:0:0:
492,154,78609,1,2,1:0:0:0:
492,154,78776,6,0,P|449:181|398:178,1,103.333333333333,10|2,1:3|1:0,0:0:0:0:
373,88,79276,2,0,P|415:60|466:63,1,103.333333333333,2|2,1:0|0:1,0:0:0:0:
492,154,79776,2,0,L|471:307,1,155,10|10,1:0|0:3,0:0:0:0:
228,160,80776,38,0,L|323:121,1,103.333333333333,6|2,1:3|0:1,0:0:0:0:
398,178,81276,2,0,L|383:280,1,103.333333333333,2|0,1:0|1:0,0:0:0:0:
296,314,81776,1,10,1:0:0:0:
145,205,82109,1,2,0:1:0:0:
145,205,82276,2,0,P|132:155|148:106,1,103.333333333333,2|0,1:0|1:0,0:0:0:0:
228,160,82776,6,0,P|246:207|288:237,1,103.333333333333,10|2,1:3|1:0,0:0:0:0:
326,152,83276,2,0,P|370:176|421:172,1,103.333333333333,2|2,1:0|0:1,0:0:0:0:
487,106,83776,2,0,P|442:81|391:85,1,103.333333333333,10|2,1:0|0:1,0:0:0:0:
326,152,84276,1,10,0:3:0:0:
154,372,84776,6,0,B|222:381|222:381|256:372,1,103.333333333333,6|0,1:3|0:0,0:0:0:0:
214,288,85276,2,0,P|204:238|215:188,1,103.333333333333,2|0,1:0|1:0,0:0:0:0:
272,114,85776,1,10,1:0:0:0:
214,288,86109,1,2,0:1:0:0:
214,288,86276,2,0,L|112:275,1,103.333333333333,2|2,1:0|1:0,0:0:0:0:
21,298,86776,6,0,P|57:262|67:212,1,103.333333333333,10|2,1:3|1:0,0:0:0:0:
93,122,87276,2,0,P|107:172|146:205,1,103.333333333333,2|0,1:0|0:0,0:0:0:0:
238,219,87776,2,0,L|290:224,2,51.6666666666667,10|0|0,3:1|3:0|3:0,0:0:0:0:
181,293,88276,1,8,3:1:0:0:
181,293,88776,37,4,0:1:0:0:
256,192,100776,12,0,104276,0:0:0:0:
299,320,104776,54,0,P|318:248|270:191,1,155,4|2,0:1|0:1,0:0:0:0:
101,269,105609,1,0,1:0:0:0:
101,269,105776,2,0,B|173:301|173:301|240:265,1,155,10|2,1:0|0:1,0:0:0:0:
223,80,106609,1,0,1:0:0:0:
223,80,106776,6,0,L|119:80,1,103.333333333333,2|0,1:0|1:0,0:0:0:0:
34,115,107276,2,0,P|16:163|22:214,1,103.333333333333,2|0,1:0|1:0,0:0:0:0:
101,269,107776,2,0,P|118:221|112:170,1,103.333333333333,10|0,1:0|0:0,0:0:0:0:
34,115,108276,1,2,1:0:0:0:
209,175,108609,1,0,0:0:0:0:
209,175,108776,70,0,L|309:150,1,103.333333333333,2|0,0:0|0:0,0:0:0:0:
367,223,109276,2,0,P|396:180|400:130,1,103.333333333333,2|0,0:1|1:0,0:0:0:0:
490,151,109776,2,0,P|486:100|457:57,1,103.333333333333,10|0,1:0|0:0,0:0:0:0:
365,44,110276,1,2,0:0:0:0:
187,97,110609,1,0,1:0:0:0:
187,97,110776,6,0,L|86:72,1,103.333333333333,2|0,1:2|0:0,0:0:0:0:
21,139,111276,2,0,P|14:189|33:236,1,103.333333333333,0|0,1:0|0:0,0:0:0:0:
117,276,111776,2,0,L|117:327,2,51.6666666666667,8|0|0,1:0|0:0|0:0,0:0:0:0:
201,237,112276,1,0,1:0:0:0:
378,291,112609,1,0,0:0:0:0:
378,291,112776,70,0,B|324:302|324:302|277:290,1,103.333333333333,2|0,0:1|0:0,0:0:0:0:
201,237,113276,2,0,B|192:134,1,103.333333333333,2|0,0:1|0:0,0:0:0:0:
265,76,113776,2,0,B|280:95|284:123|284:123|303:104|329:100,1,103.333333333333,10|0,0:1|0:0,0:0:0:0:
418,120,114276,2,0,P|394:165|350:190,1,103.333333333333,2|0,0:1|1:0,0:0:0:0:
328,100,114776,6,0,B|341:47|398:29|398:29|350:12,1,155,2|2,0:1|1:0,0:0:0:0:
355,197,115609,1,0,0:0:0:0:
355,197,115776,2,0,B|315:159|328:100|328:100|290:133,1,155,10|2,0:1|0:1,0:0:0:0:
409,384,116776,70,0,P|426:336|414:286,1,103.333333333333,2|0,1:0|0:0,0:0:0:0:
332,331,117276,2,0,P|314:283|272:252,1,103.333333333333,2|0,0:1|0:0,0:0:0:0:
197,307,117776,2,0,P|180:259|192:209,1,103.333333333333,10|0,0:1|0:0,0:0:0:0:
98,201,118276,2,0,P|115:153|157:122,1,103.333333333333,2|0,0:1|1:0,0:0:0:0:
247,138,118776,6,0,P|297:140|341:114,1,103.333333333333,2|0,1:0|1:0,0:0:0:0:
412,53,119276,2,0,B|461:69,2,51.6666666666667,2|0|0,3:0|3:0|3:0,0:0:0:0:
323,24,119776,69,10,3:1:0:0:
323,24,120276,1,8,1:0:0:0:
69,140,120776,22,0,L|171:129,1,103.333333333333,6|0,0:1|0:0,0:0:0:0:
250,178,121276,2,0,P|236:227|251:275,1,103.333333333333,2|0,1:0|1:0,0:0:0:0:
330,226,121776,1,10,1:0:0:0:
171,128,122109,1,2,0:1:0:0:
171,128,122276,2,0,L|69:117,1,103.333333333333,2|0,1:0|1:0,0:0:0:0:
20,196,122776,6,0,P|32:245|68:281,1,103.333333333333,10|2,1:3|1:0,0:0:0:0:
111,364,123276,2,0,P|147:328|159:278,1,103.333333333333,2|2,1:0|0:1,0:0:0:0:
251,275,123776,2,0,P|266:323|304:357,1,103.333333333333,10|2,1:0|0:1,0:0:0:0:
342,272,124276,1,10,3:0:0:0:
168,53,124776,6,0,B|90:39|90:39|68:49,1,103.333333333333,6|0,1:3|0:0,0:0:0:0:
103,134,125276,2,0,B|181:148|181:148|203:138,1,103.333333333333,2|0,1:0|1:0,0:0:0:0:
262,66,125776,2,0,P|325:93|293:155,1,155,10|2,1:0|1:2,0:0:0:0:
131,247,126609,1,2,1:0:0:0:
131,247,126776,6,0,B|182:238|182:238|233:248,1,103.333333333333,10|2,1:3|1:0,0:0:0:0:
296,315,127276,2,0,B|347:305|347:305|398:314,1,103.333333333333,2|2,1:0|0:1,0:0:0:0:
457,384,127776,2,0,P|485:341|487:290,1,103.333333333333,10|2,1:0|1:0,0:0:0:0:
397,313,128275,1,10,0:3:0:0:
323,43,128775,38,0,P|272:45|228:70,1,103.333333333333,6|2,1:3|0:1,0:0:0:0:
252,160,129275,2,0,P|200:158|156:132,1,103.333333333333,2|0,1:0|1:0,0:0:0:0:
92,64,129776,1,10,1:0:0:0:
252,160,130109,1,2,0:1:0:0:
252,160,130276,2,0,L|245:263,1,103.333333333333,2|0,1:0|1:0,0:0:0:0:
322,314,130775,6,0,P|372:317|418:294,1,103.333333333333,10|2,1:3|1:0,0:0:0:0:
496,241,131276,2,0,P|445:244|399:221,1,103.333333333333,2|2,1:0|0:1,0:0:0:0:
378,130,131776,1,10,1:0:0:0:
106,67,132276,2,0,P|151:44|202:47,1,103.333333333333,10|0,0:3|0:0,0:0:0:0:
279,99,132776,6,0,P|301:144|298:195,1,103.333333333333,6|2,1:3|0:1,0:0:0:0:
321,285,133276,2,0,P|270:281|227:253,1,103.333333333333,2|0,1:0|1:0,0:0:0:0:
203,163,133776,2,0,L|355:135,1,155,10|2,1:0|1:0,0:0:0:0:
413,312,134609,1,2,1:0:0:0:
413,312,134776,6,0,P|385:355|340:378,1,103.333333333333,10|2,1:3|1:0,0:0:0:0:
321,285,135276,2,0,P|269:282|226:255,1,103.333333333333,2|2,1:0|0:1,0:0:0:0:
297,195,135776,2,0,L|348:185,2,51.6666666666667,10|0|4,3:0|3:0|3:0,0:0:0:0:
226,255,136276,2,0,L|175:265,1,51.6666666666667,8|0,3:0|3:0,0:0:0:0:
99,319,136609,1,4,3:0:0:0:
45,242,136776,38,0,P|47:190|73:146,1,103.333333333333,6|0,1:0|0:0,0:0:0:0:
50,56,137276,2,0,P|101:58|145:84,1,103.333333333333,2|0,1:0|1:0,0:0:0:0:
164,176,137776,1,10,1:0:0:0:
326,86,138109,1,2,0:1:0:0:
326,86,138276,2,0,P|274:88|230:114,1,103.333333333333,2|0,1:0|1:0,0:0:0:0:
164,176,138776,6,0,P|208:202|259:204,1,103.333333333333,10|2,1:3|1:0,0:0:0:0:
329,266,139276,2,0,P|284:292|233:294,1,103.333333333333,2|2,1:0|0:1,0:0:0:0:
143,270,139776,2,0,P|97:245|68:203,1,103.333333333333,10|2,1:0|0:1,0:0:0:0:
44,113,140276,1,10,0:3:0:0:
319,163,140776,6,0,L|328:265,1,103.333333333333,6|0,1:3|0:0,0:0:0:0:
284,347,141276,2,0,P|334:357|382:340,1,103.333333333333,2|2,1:0|1:0,0:0:0:0:
421,256,141776,2,0,L|402:102,1,155,10|2,1:0|1:2,0:0:0:0:
220,138,142609,1,2,1:0:0:0:
220,138,142776,6,0,P|169:140|126:113,1,103.333333333333,10|2,1:3|1:0,0:0:0:0:
192,49,143276,2,0,P|242:46|285:73,1,103.333333333333,2|2,1:0|0:1,0:0:0:0:
309,163,143776,2,0,L|296:265,1,103.333333333333,10|2,1:0|1:0,0:0:0:0:
284,358,144276,1,10,0:3:0:0:
35,231,144776,38,0,P|82:209|133:212,1,103.333333333333,6|2,1:3|0:1,0:0:0:0:
190,286,145276,2,0,P|218:243|222:192,1,103.333333333333,2|0,1:0|1:0,0:0:0:0:
202,101,145776,1,10,1:0:0:0:
190,286,146109,1,2,0:1:0:0:
190,286,146276,2,0,L|291:268,1,103.333333333333,2|0,1:0|1:0,0:0:0:0:
383,249,146776,6,0,P|360:204|315:178,1,103.333333333333,10|2,1:3|1:0,0:0:0:0:
222,192,147276,2,0,P|178:168|127:172,1,103.333333333333,2|2,1:0|0:1,0:0:0:0:
103,262,147776,2,0,P|52:263|10:292,1,103.333333333333,10|2,1:0|0:1,0:0:0:0:
81,352,148276,1,10,0:3:0:0:
353,291,148776,6,0,B|362:223|362:223|353:189,1,103.333333333333,6|0,1:3|0:0,0:0:0:0:
303,110,149276,2,0,P|253:120|203:109,1,103.333333333333,2|0,1:0|1:0,0:0:0:0:
253,35,149776,1,10,1:0:0:0:
271,218,150109,1,2,0:1:0:0:
271,218,150276,2,0,L|258:320,1,103.333333333333,2|2,1:0|1:0,0:0:0:0:
170,353,150776,6,0,L|88:290,1,103.333333333333,10|2,1:3|1:0,0:0:0:0:
104,198,151276,2,0,L|198:158,1,103.333333333333,2|0,1:0|0:0,0:0:0:0:
271,218,151776,2,0,L|319:197,2,51.6666666666667,10|0|0,3:1|3:0|3:0,0:0:0:0:
185,255,152276,1,8,3:1:0:0:
185,255,152776,37,6,0:1:0:0:
155,211,160776,54,0,P|170:260|152:307,1,103.333333333333,6|2,1:0|0:1,0:0:0:0:
73,357,161276,2,0,P|58:313|87:252,1,103.333333333333,2|2,1:0|1:0,0:0:0:0:
155,211,161776,2,0,L|256:235,1,103.333333333333,10|2,1:0|1:0,0:0:0:0:
337,279,162276,2,0,P|346:255|347:229,1,51.6666666666667,2|2,1:0|0:1,0:0:0:0:
295,151,162609,1,2,1:0:0:0:
249,69,162776,6,0,L|204:43,2,51.6666666666667,2|2|2,1:0|0:1|1:0,0:0:0:0:
342,69,163276,2,0,L|386:43,2,51.6666666666667,2|2|2,1:0|1:0|1:0,0:0:0:0:
295,151,163776,2,0,L|295:202,2,51.6666666666667,10|2|2,1:0|0:1|1:0,0:0:0:0:
249,69,164276,1,2,1:0:0:0:
396,305,164776,70,0,B|312:284|312:284|295:286,1,103.333333333333,0|0,1:0|0:0,0:0:0:0:
204,305,165276,1,0,1:0:0:0:
32,233,165609,1,0,1:0:0:0:
32,233,165776,2,0,L|24:129,1,103.333333333333,8|0,1:0|1:0,0:0:0:0:
16,37,166276,1,0,1:0:0:0:
174,133,166609,1,0,1:0:0:0:
174,133,166776,6,0,L|181:29,1,103.333333333333,0|0,1:0|1:0,0:0:0:0:
274,38,167276,2,0,L|266:141,1,103.333333333333,0|0,1:0|0:0,0:0:0:0:
311,221,167776,2,0,P|335:227|357:240,2,51.6666666666667,8|0|0,3:1|3:0|3:0,0:0:0:0:
217,221,168276,2,0,P|196:236|172:245,2,51.6666666666667,0|0|0,3:0|3:0|3:0,0:0:0:0:
266,141,168776,5,4,0:1:0:0:
134,263,176776,86,0,P|208:253|266:302,1,155,6|2,1:0|0:1,0:0:0:0:
192,32,177776,2,0,P|162:101|91:127,1,155,10|2,1:0|0:1,0:0:0:0:
357,214,178776,6,0,P|321:177|309:128,1,103.333333333333,2|0,0:1|1:0,0:0:0:0:
402,134,179276,2,0,P|451:120|500:135,1,103.333333333333,2|2,1:0|1:0,0:0:0:0:
450,214,179776,2,0,P|436:263|399:298,1,103.333333333333,10|2,1:0|0:1,0:0:0:0:
216,264,180442,2,0,P|241:258|266:259,1,51.6666666666667,2|2,0:1|0:1,0:0:0:0:
247,352,180776,6,0,P|196:356|151:332,1,103.333333333333,6|2,1:0|0:1,0:0:0:0:
118,245,181276,2,0,L|147:145,1,103.333333333333,2|2,0:1|1:0,0:0:0:0:
199,68,181776,2,0,P|150:52|101:65,1,103.333333333333,14|2,1:0|0:1,0:0:0:0:
147,145,182276,2,0,P|195:160|244:147,1,103.333333333333,2|2,0:1|1:0,0:0:0:0:
293,68,182776,5,6,1:0:0:0:
469,125,183109,1,2,1:0:0:0:
471,218,183276,2,0,L|474:269,1,51.6666666666667,2|2,1:0|1:0,0:0:0:0:
410,337,183609,1,2,1:0:0:0:
347,267,183776,2,0,L|350:215,2,51.6666666666667,10|10|10,3:1|3:1|3:1,0:0:0:0:
410,337,184276,1,10,3:1:0:0:
132,369,184776,38,0,P|106:325|103:274,1,103.333333333333,6|0,1:0|0:0,0:0:0:0:
169,201,185276,2,0,P|145:246|103:274,1,103.333333333333,2|0,1:0|1:0,0:0:0:0:
7,249,185776,1,10,1:0:0:0:
138,117,186109,1,2,0:1:0:0:
138,117,186276,2,0,P|188:115|234:137,1,103.333333333333,2|0,1:0|1:0,0:0:0:0:
297,206,186776,6,0,P|348:207|393:184,1,103.333333333333,10|2,1:3|1:0,0:0:0:0:
488,162,187276,2,0,P|460:120|414:95,1,103.333333333333,2|2,1:0|0:1,0:0:0:0:
357,24,187776,2,0,P|330:67|327:119,1,103.333333333333,10|2,1:0|0:1,0:0:0:0:
393,184,188276,1,10,0:3:0:0:
164,343,188776,6,0,L|61:329,1,103.333333333333,6|0,1:3|0:0,0:0:0:0:
18,247,189276,2,0,L|120:233,1,103.333333333333,2|2,1:0|1:0,0:0:0:0:
210,256,189776,2,0,P|147:225|182:164,1,155,10|2,1:0|1:2,0:0:0:0:
368,166,190609,1,2,1:0:0:0:
368,166,190776,6,0,P|325:193|274:190,1,103.333333333333,10|2,1:3|1:0,0:0:0:0:
250,99,191276,2,0,P|292:71|343:74,1,103.333333333333,2|2,1:0|0:1,0:0:0:0:
368,166,191776,2,0,L|374:269,1,103.333333333333,10|2,1:0|1:0,0:0:0:0:
325,348,192276,1,10,0:3:0:0:
149,125,192776,38,0,L|249:98,1,103.333333333333,6|2,1:3|0:1,0:0:0:0:
339,72,193276,2,0,P|311:28|265:6,1,103.333333333333,2|0,1:0|1:0,0:0:0:0:
176,34,193776,1,10,1:0:0:0:
252,196,194109,1,2,0:1:0:0:
252,196,194276,2,0,P|265:146|249:97,1,103.333333333333,2|0,1:0|1:0,0:0:0:0:
171,149,194776,6,0,P|136:186|87:199,1,103.333333333333,10|2,1:3|1:0,0:0:0:0:
8,250,195276,2,0,P|-7:201|5:152,1,103.333333333333,2|2,1:0|0:1,0:0:0:0:
0,58,195776,2,0,P|49:69|86:105,1,103.333333333333,10|2,1:0|0:1,0:0:0:0:
86,199,196276,1,10,0:3:0:0:
326,340,196776,6,0,B|311:238,1,103.333333333333,6|0,1:3|0:0,0:0:0:0:
225,201,197276,2,0,P|235:251|217:298,1,103.333333333333,2|0,1:0|1:0,0:0:0:0:
141,243,197776,1,10,1:0:0:0:
308,161,198109,1,2,0:1:0:0:
308,161,198276,2,0,L|410:174,1,103.333333333333,2|2,1:0|1:0,0:0:0:0:
473,91,198776,6,0,L|410:172,1,103.333333333333,10|2,1:3|1:0,0:0:0:0:
450,269,199276,2,0,L|410:174,1,103.333333333333,2|0,1:0|0:0,0:0:0:0:
371,88,199776,2,0,L|351:40,2,51.6666666666667,10|0|4,3:0|3:0|3:0,0:0:0:0:
410,173,200276,1,8,1:0:0:0:
410,173,200776,37,4,0:1:0:0:
