osu file format v14

[General]
AudioFilename: audio.mp3
AudioLeadIn: 0
PreviewTime: 56776
Countdown: 0
SampleSet: Soft
StackLeniency: 0.7
Mode: 0
LetterboxInBreaks: 0
EpilepsyWarning: 1
WidescreenStoryboard: 1

[Editor]
Bookmarks: 24776,40776,88776,104776,120776,152776,160776,164776,168776,184776,200776
DistanceSpacing: 0.9
BeatDivisor: 6
GridSize: 16
TimelineZoom: 1

[Metadata]
Title:Jishou Mushoku
TitleUnicode:自傷無色
Artist:Hanatan
ArtistUnicode:花たん
Creator:Rizen
Version:Easy
Source:
Tags:moph fizz utaite yurica self inflicted achromatic
BeatmapID:1071585
BeatmapSetID:502184

[Difficulty]
HPDrainRate:3.5
CircleSize:3
OverallDifficulty:2.5
ApproachRate:3.5
SliderMultiplier:1
SliderTickRate:1

[Events]
//Background and Video events
0,0,"bg.jpg",0,0
//Break Periods
2,88976,103396
2,152976,159396
2,164976,167396
//Storyboard Layer 0 (Background)
//Storyboard Layer 1 (Fail)
//Storyboard Layer 2 (Pass)
//Storyboard Layer 3 (Foreground)
//Storyboard Sound Samples

[TimingPoints]
776,500,4,2,1,70,1,0
12776,-100,4,2,1,60,0,0
16776,-100,4,2,1,70,0,0
20776,-100,4,2,1,60,0,0
24776,-100,4,2,1,50,0,0
39776,-100,4,2,1,60,0,0
40276,-100,4,2,1,70,0,0
40776,-100,4,2,1,50,0,0
56776,-100,4,2,1,70,0,1
71776,-100,4,2,1,60,0,0
72276,-100,4,2,1,50,0,0
72776,-100,4,2,1,70,0,1
88776,-100,4,2,1,70,0,0
104776,-100,4,2,1,50,0,0
112776,-100,4,2,1,40,0,0
119776,-100,4,2,1,50,0,0
120776,-100,4,2,1,70,0,1
135776,-100,4,2,1,60,0,0
136276,-100,4,2,1,50,0,0
136776,-100,4,2,1,70,0,1
152776,-100,4,2,1,50,0,0
182776,-100,4,2,1,60,0,0
183776,-100,4,2,1,70,0,0
184776,-100,4,2,1,70,0,1
200776,-100,4,2,1,70,0,0

[Colours]
Combo1 : 143,143,143
Combo2 : 202,0,0
Combo3 : 255,140,47
Combo4 : 142,69,2
Combo5 : 255,193,138
Combo6 : 82,80,80

[HitObjects]
109,107,8776,6,0,L|207:89,1,100,6|2,1:0|1:0,0:0:0:0:
307,90,9776,2,0,L|405:107,1,100,10|2,1:0|1:0,0:0:0:0:
436,203,10776,2,0,P|431:252|451:297,2,100,2|2|10,1:0|1:0|1:0,0:0:0:0:
503,128,12276,1,2,1:0:0:0:
405,107,12776,6,0,B|307:91|307:91|207:106,1,200,2|8,1:0|1:0,0:0:0:0:
33,204,14776,2,0,B|131:220|131:220|230:204,1,200,2|8,1:2|1:0,0:0:0:0:
405,106,16776,6,0,P|387:153|396:201,1,100,2|2,1:0|1:0,0:0:0:0:
475,263,17776,2,0,P|484:311|466:357,1,100,10|2,1:0|1:0,0:0:0:0:
383,301,18776,2,0,L|283:290,2,100,2|2|10,1:0|1:0|1:0,0:0:0:0:
475,263,20276,1,2,0:1:0:0:
397,201,20776,6,0,B|384:173|382:138|405:107|405:107|357:18,1,200,0|8,1:0|1:0,0:0:0:0:
156,18,22776,2,0,B|108:107|108:107|131:138|129:173|116:201,1,200,2|8,1:2|1:0,0:0:0:0:
257,311,24776,6,0,P|294:220|278:123,1,200,6|10,1:0|1:0,0:0:0:0:
115,200,26776,2,0,P|68:213|20:199,2,100,2|2|10,0:1|1:0|1:0,0:0:0:0:
69,122,28276,1,0,0:0:0:0:
119,47,28776,6,0,B|186:43|186:43|251:58|251:58|316:52,1,200,2|10,1:2|1:0,0:0:0:0:
413,204,30776,2,0,L|512:195,2,100,2|2|10,0:2|1:0|1:0,0:0:0:0:
344,261,32275,1,0,0:0:0:0:
276,321,32776,70,0,P|181:346|84:324,1,200,2|10,1:0|1:0,0:0:0:0:
128,148,34776,2,0,P|175:135|223:146,2,100,2|2|10,0:1|1:0|1:0,0:0:0:0:
178,225,36276,1,2,0:1:0:0:
267,228,36776,6,0,L|228:31,1,200,2|10,1:0|1:0,0:0:0:0:
58,89,38776,2,0,L|39:187,1,100,2|2,0:1|1:0,0:0:0:0:
95,257,39776,2,0,L|113:355,1,100,10|8,3:1|3:0,0:0:0:0:
194,316,40776,70,0,B|292:334|292:334|390:316,1,200,4|10,1:0|1:0,0:0:0:0:
493,169,42776,2,0,P|516:124|513:75,1,100,2|2,1:0|1:0,0:0:0:0:
431,106,43776,1,10,1:0:0:0:
407,193,44276,1,2,1:0:0:0:
319,214,44776,6,0,B|220:196|220:196|122:214,1,200,2|10,1:2|1:0,0:0:0:0:
21,65,46776,2,0,P|68:49|115:62,1,100,2|0,1:2|1:0,0:0:0:0:
164,136,47776,2,0,P|117:152|70:139,1,100,8|0,1:0|1:0,0:0:0:0:
27,218,48776,70,0,B|9:316|9:316|65:323|92:365,1,200,0|10,1:0|1:0,0:0:0:0:
269,330,50776,2,0,P|299:291|346:276,2,100,2|2|10,1:0|1:0|1:0,0:0:0:0:
351,365,52276,1,2,1:0:0:0:
427,318,52776,6,0,P|436:269|420:222,1,100,2|2,1:0|0:1,0:0:0:0:
336,190,53776,2,0,P|327:141|343:94,1,100,10|2,1:0|0:1,0:0:0:0:
425,56,54776,2,0,B|329:73|329:73|227:55,1,200,2|8,1:0|3:1,0:0:0:0:
77,154,56776,6,0,B|173:137|173:137|274:154,1,200,6|10,0:1|1:0,0:0:0:0:
361,171,58276,1,2,1:0:0:0:
450,188,58776,2,0,P|475:230|476:280,1,100,10|2,1:3|1:0,0:0:0:0:
417,347,59776,2,0,P|391:304|390:254,1,100,10|10,1:0|3:0,0:0:0:0:
361,171,60776,6,0,P|281:120|201:170,1,200,6|10,1:3|1:0,0:0:0:0:
283,210,62276,1,2,1:2:0:0:
361,171,62776,2,0,B|377:72,1,100,10|2,1:3|1:0,0:0:0:0:
301,23,63776,1,10,1:0:0:0:
211,23,64275,1,10,0:3:0:0:
135,72,64775,6,0,B|113:204|113:204|136:266,1,200,6|10,1:3|1:0,0:0:0:0:
168,350,66276,1,2,1:0:0:0:
250,314,66776,2,0,P|297:302|345:313,1,100,10|2,1:3|1:0,0:0:0:0:
429,351,67776,1,10,1:0:0:0:
501,294,68276,1,10,0:3:0:0:
510,203,68776,6,0,P|444:132|346:126,1,200,6|10,1:3|1:0,0:0:0:0:
257,140,70276,1,2,1:0:0:0:
167,126,70776,2,0,P|69:132|3:203,1,200,10|10,1:3|3:0,0:0:0:0:
26,289,72276,1,8,3:0:0:0:
112,313,72776,38,0,B|208:330|208:330|309:313,1,200,6|10,1:0|1:0,0:0:0:0:
369,246,74276,1,2,1:0:0:0:
430,180,74776,2,0,P|455:222|456:272,1,100,10|2,1:3|1:0,0:0:0:0:
369,246,75776,2,0,P|343:203|342:153,1,100,10|10,1:0|0:3,0:0:0:0:
407,93,76776,6,0,B|306:110|306:110|210:93,1,200,6|10,1:3|1:0,0:0:0:0:
174,175,78276,1,2,1:2:0:0:
209,257,78776,2,0,L|310:239,1,100,10|2,1:3|1:0,0:0:0:0:
394,262,79776,1,10,1:0:0:0:
440,340,80275,1,10,0:3:0:0:
348,342,80776,6,0,B|341:332|323:328|301:331|301:331|221:345|221:345|196:349|170:343|156:330,1,200,6|10,1:3|1:0,0:0:0:0:
121,246,82276,1,2,1:0:0:0:
37,280,82776,2,0,P|30:232|51:187,1,100,10|2,1:3|1:0,0:0:0:0:
137,158,83776,1,10,1:0:0:0:
206,215,84276,1,10,0:3:0:0:
292,190,84776,6,0,B|391:183|391:183|447:206|488:180,1,200,6|10,1:3|1:0,0:0:0:0:
441,103,86276,1,2,1:0:0:0:
479,21,86776,2,0,B|434:0|382:30|382:30|282:35,1,200,10|10,1:3|3:1,0:0:0:0:
241,115,88276,1,8,3:1:0:0:
292,190,88776,37,4,0:1:0:0:
291,189,104776,54,0,P|203:149|115:190,1,200,4|10,0:1|1:0,0:0:0:0:
187,353,106776,2,0,P|207:309|205:259,2,100,2|2|10,1:0|1:0|1:0,0:0:0:0:
102,324,108276,1,2,1:0:0:0:
18,291,108776,6,0,B|39:92,1,200,2|10,0:0|1:0,0:0:0:0:
200,172,110776,2,0,L|210:271,2,100,2|0|8,1:2|1:0|1:0,0:0:0:0:
276,124,112276,1,0,1:0:0:0:
357,85,112776,70,0,P|277:34|195:83,1,200,2|10,0:1|0:1,0:0:0:0:
296,231,114776,2,0,P|344:241|378:277,1,100,2|2,0:1|1:0,0:0:0:0:
300,322,115776,2,0,P|252:311|217:276,1,100,10|2,0:1|0:1,0:0:0:0:
137,319,116776,6,0,P|128:270|144:223,1,100,2|2,1:0|0:1,0:0:0:0:
111,139,117776,2,0,P|120:90|104:43,1,100,10|2,0:1|0:1,0:0:0:0:
30,95,118776,2,0,L|229:85,1,200,2|10,1:0|3:1,0:0:0:0:
378,186,120776,6,0,L|178:176,1,200,6|10,0:1|1:0,0:0:0:0:
112,238,122276,1,2,1:0:0:0:
45,298,122776,2,0,P|87:323|137:323,1,100,10|2,1:3|1:0,0:0:0:0:
201,261,123776,2,0,P|243:235|293:235,1,100,10|10,1:0|3:0,0:0:0:0:
331,316,124776,6,0,L|315:116,1,200,6|10,1:3|1:0,0:0:0:0:
400,87,126276,1,2,1:2:0:0:
486,61,126776,2,0,L|477:160,1,100,10|2,1:3|1:0,0:0:0:0:
447,247,127776,1,10,1:0:0:0:
419,334,128275,1,10,0:3:0:0:
331,316,128775,6,0,B|266:302|266:302|133:315,1,200,6|10,1:3|1:0,0:0:0:0:
72,249,130276,1,2,1:0:0:0:
116,170,130776,2,0,P|128:123|117:75,1,100,10|2,1:3|1:0,0:0:0:0:
39,29,131776,1,10,1:0:0:0:
39,119,132276,1,10,0:3:0:0:
116,170,132776,6,0,B|215:188|215:188|312:169,1,200,6|10,1:3|1:0,0:0:0:0:
382,112,134276,1,2,1:0:0:0:
449,52,134776,2,0,B|431:151|431:151|449:248,1,200,10|10,1:3|3:0,0:0:0:0:
466,337,136276,1,8,3:0:0:0:
380,309,136776,38,0,P|286:277|193:307,1,200,6|10,1:0|1:0,0:0:0:0:
108,336,138276,1,2,1:0:0:0:
125,247,138776,2,0,L|142:148,1,100,10|2,1:3|1:0,0:0:0:0:
220,192,139776,2,0,L|237:93,1,100,10|10,1:0|0:3,0:0:0:0:
312,44,140776,6,0,P|218:73|125:42,1,200,6|10,1:3|1:0,0:0:0:0:
51,94,142276,1,2,1:2:0:0:
66,182,142776,2,0,L|82:280,1,100,10|2,1:3|1:0,0:0:0:0:
102,368,143776,1,10,1:0:0:0:
168,308,144275,1,10,0:3:0:0:
257,296,144776,6,0,B|306:272|353:296|353:296|402:319|449:294,1,200,6|10,1:3|1:0,0:0:0:0:
400,219,146276,1,2,1:0:0:0:
474,169,146776,2,0,P|480:120|462:74,1,100,10|2,1:3|1:0,0:0:0:0:
391,131,147776,1,10,1:0:0:0:
308,95,148276,1,10,0:3:0:0:
235,147,148776,6,0,B|181:172|136:154|136:154|80:131|42:154,1,200,6|10,1:3|1:0,0:0:0:0:
88,232,150276,1,2,1:0:0:0:
168,271,150776,2,0,L|176:72,1,200,10|10,1:3|3:1,0:0:0:0:
262,45,152276,1,8,3:1:0:0:
335,97,152776,37,6,0:1:0:0:
310,111,160776,54,0,P|262:96|214:105,1,100,6|2,1:0|1:0,0:0:0:0:
172,185,161776,2,0,P|124:199|76:190,1,100,10|2,1:0|1:0,0:0:0:0:
28,113,162776,2,0,L|47:312,1,200,2|10,1:0|1:0,0:0:0:0:
123,360,164276,1,2,1:0:0:0:
209,333,164776,5,0,1:0:0:0:
209,333,168776,6,0,B|308:315|308:315|405:332,1,200,4|2,0:1|0:1,0:0:0:0:
505,182,170776,2,0,B|406:200|406:200|308:182,1,200,2|2,0:1|0:1,0:0:0:0:
221,156,172276,1,2,0:1:0:0:
137,121,172776,6,0,P|152:214|243:242,1,200,2|2,0:2|0:1,0:0:0:0:
414,303,174776,2,0,P|398:209|307:181,1,200,2|2,0:2|0:1,0:0:0:0:
243,243,176276,1,2,0:1:0:0:
329,267,176776,6,0,L|371:71,1,200,6|10,1:0|1:0,0:0:0:0:
203,6,178776,2,0,B|224:103|224:103|198:200,1,200,2|10,0:1|1:0,0:0:0:0:
116,236,180276,1,0,0:0:0:0:
38,284,180776,6,0,P|39:188|124:145,1,200,6|14,1:0|1:0,0:0:0:0:
284,228,182776,2,0,P|329:248|378:244,1,100,6|2,1:0|1:0,0:0:0:0:
434,173,183776,1,10,3:1:0:0:
344,160,184276,1,10,3:1:0:0:
284,228,184776,38,0,B|183:245|183:245|87:228,1,200,6|10,1:0|1:0,0:0:0:0:
25,162,186276,1,2,1:0:0:0:
53,76,186776,2,0,P|95:51|145:50,1,100,10|2,1:3|1:0,0:0:0:0:
207,114,187776,2,0,P|249:139|299:140,1,100,10|10,1:0|0:3,0:0:0:0:
340,60,188776,6,0,L|363:258,1,200,6|10,1:3|1:0,0:0:0:0:
304,326,190276,1,2,1:2:0:0:
222,287,190776,2,0,P|179:261|130:263,1,100,10|2,1:3|1:0,0:0:0:0:
70,330,191776,1,10,1:0:0:0:
157,351,192275,1,10,0:3:0:0:
222,287,192776,6,0,B|257:244|242:193|242:193|226:144|262:99,1,200,6|10,1:3|1:0,0:0:0:0:
327,162,194276,1,2,1:0:0:0:
412,191,194776,2,0,P|459:205|507:193,1,100,10|2,1:3|1:0,0:0:0:0:
462,116,195776,1,10,1:0:0:0:
376,86,196276,1,10,0:3:0:0:
327,162,196776,6,0,B|314:217|351:254|351:254|387:292|375:346,1,200,6|10,1:3|1:0,0:0:0:0:
289,320,198276,1,2,1:0:0:0:
203,347,198776,2,0,B|106:372|106:372|8:349,1,200,10|10,1:3|3:0,0:0:0:0:
0,259,200276,1,8,1:0:0:0:
51,185,200776,37,4,0:1:0:0:
