osu file format v14

[General]
AudioFilename: audio.mp3
AudioLeadIn: 0
PreviewTime: 56776
Countdown: 0
SampleSet: Soft
StackLeniency: 0.7
Mode: 0
LetterboxInBreaks: 0
WidescreenStoryboard: 1

[Editor]
Bookmarks: 8776,56776
DistanceSpacing: 1.2
BeatDivisor: 1
GridSize: 4
TimelineZoom: 1.8

[Metadata]
Title:Jishou Mushoku
TitleUnicode:自傷無色
Artist:Hanatan
ArtistUnicode:花たん
Creator:Mohab500
Version:Insane
Source:
Tags:moph fizz utaite yurica self inflicted achromatic
BeatmapID:1665737
BeatmapSetID:793136

[Difficulty]
HPDrainRate:6
CircleSize:4
OverallDifficulty:8
ApproachRate:8
SliderMultiplier:2.35
SliderTickRate:1

[Events]
//Background and Video events
0,0,"81f6320c5682bd0da49db33e28d65da2.jpg",0,0
//Break Periods
//Storyboard Layer 0 (Background)
//Storyboard Layer 1 (Fail)
//Storyboard Layer 2 (Pass)
//Storyboard Layer 3 (Foreground)
//Storyboard Sound Samples

[TimingPoints]
824,500,4,2,1,39,1,0
24824,-111.111111111111,4,2,1,39,0,0

[HitObjects]
28,288,8823,6,0,B|59:251|59:251|194:251,1,156.666666666667
230,290,9323,2,0,B|199:327|199:327|64:327,1,156.666666666667
167,251,9823,2,0,B|197:258|197:258|248:311,1,78.3333333333333
90,327,10157,1,0,0:0:0:0:
167,251,10323,2,0,P|178:173|177:95,1,156.666666666667
104,160,10823,6,0,P|98:122|99:83,1,78.3333333333333
146,20,11157,1,0,0:0:0:0:
254,104,11323,2,0,P|195:94|168:96,1,78.3333333333333
322,45,11657,1,0,0:0:0:0:
392,102,11823,2,0,P|319:134|238:82,1,156.666666666667
396,25,12323,2,0,P|461:69|439:157,1,156.666666666667
381,245,12823,6,0,B|356:207|356:207|392:101,1,156.666666666667
322,45,13323,2,0,L|266:197,1,156.666666666667
252,312,13823,2,0,B|299:317|299:317|385:241,1,156.666666666667
476,270,14323,2,0,L|358:382,1,156.666666666667
252,312,14823,6,0,P|210:282|195:225,1,78.3333333333333
246,203,15157,1,0,0:0:0:0:
128,245,15323,2,0,P|185:184|247:204,1,156.666666666667
131,125,15823,2,0,P|213:109|283:137,1,156.666666666667
116,0,16323,2,0,P|87:37|133:126,1,156.666666666667
427,143,16823,6,0,P|345:159|275:131,1,156.666666666667
285,55,17323,2,0,P|367:39|437:67,1,156.666666666667
278,133,17823,2,0,P|281:80|288:51,1,78.3333333333333
433,64,18157,1,0,0:0:0:0:
278,133,18323,2,0,B|260:194|260:194|266:294,1,156.666666666667
337,213,18823,6,0,L|342:294,1,78.3333333333333
298,356,19157,1,0,0:0:0:0:
187,282,19323,2,0,L|268:287,1,78.3333333333333
117,244,19657,1,0,0:3:0:0:
185,129,19823,2,0,B|184:182|200:208|200:208|183:235|187:298,1,156.666666666667
262,115,20323,2,0,B|243:68|243:68|185:33|131:73,1,156.666666666667
58,178,20823,6,0,P|43:96|59:12,1,156.666666666667
185,129,21323,2,0,P|267:114|351:130,1,156.666666666667
409,15,21823,2,0,P|351:40|344:136,1,156.666666666667
406,92,22323,2,0,P|413:154|333:208,1,156.666666666667
366,280,22823,6,0,P|410:264|452:225,1,78.3333333333333
480,186,23157,1,0,0:0:0:0:
365,279,23323,2,0,P|350:352|280:379,1,156.666666666667,0|0,0:0|0:0,3:0:0:0:
146,295,23823,2,0,B|187:278|187:278|232:313|303:304,1,156.666666666667
119,222,24323,2,0,B|194:200|194:200|235:226|272:231,1,156.666666666667
127,360,24824,6,0,P|145:324|143:282,1,70.4999978485108
266,230,25157,1,0,0:0:0:0:
283,161,25324,1,0,0:0:0:0:
214,180,25490,1,0,0:0:0:0:
231,111,25657,1,0,0:0:0:0:
351,141,25824,6,0,L|435:164,1,70.4999978485108
487,140,26157,1,0,0:0:0:0:
365,74,26324,2,0,B|354:89|354:89|350:149,1,70.4999978485108
418,159,26657,5,0,0:0:0:0:
295,54,26824,2,0,P|249:41|209:48,1,70.4999978485108
157,61,27157,1,0,0:0:0:0:
276,123,27324,1,0,3:0:0:0:
364,35,27490,1,0,0:0:0:0:
226,42,27657,1,0,0:0:0:0:
257,192,27824,6,0,P|185:178|88:196,1,140.999995697022
79,254,28324,2,0,P|133:260|159:249,1,70.4999978485108
221,264,28657,1,0,0:0:0:0:
399,205,28824,2,0,P|360:216|323:205,1,70.4999978485108
361,140,29157,1,0,0:0:0:0:
399,205,29324,1,0,0:0:0:0:
483,200,29490,1,8,3:0:0:0:
445,135,29657,1,0,3:0:0:0:
477,270,29824,2,0,P|482:231|480:177,1,70.4999978485108
361,140,30157,1,0,0:0:0:0:
374,281,30324,2,0,P|369:320|371:374,1,70.4999978485108
