osu file format v14

[General]
AudioFilename: audio.mp3
AudioLeadIn: 0
PreviewTime: 56723
Countdown: 0
SampleSet: Soft
StackLeniency: 0.2
Mode: 0
LetterboxInBreaks: 0
WidescreenStoryboard: 1

[Editor]
Bookmarks: 8807,24807,40807,56807,71807,72307,72807,80807
DistanceSpacing: 0.7
BeatDivisor: 6
GridSize: 4
TimelineZoom: 2.1

[Metadata]
Title:Jishou Mushoku (Cut Ver.)
TitleUnicode:自傷無色 (Cut Ver.)
Artist:Hanatan
ArtistUnicode:花たん
Creator:rHO
Version:Special
Source:
Tags:smh saturnalize jace tatemae allihoppa sherrycherry loreley anishina kodoku emilia estellia- cut nekobolo ねこぼーろ utaite hatsune miku vocaloid self-inflicted achromatic japanese folk
BeatmapID:2639744
BeatmapSetID:1270237

[Difficulty]
HPDrainRate:4
CircleSize:4.2
OverallDifficulty:8
ApproachRate:7.8
SliderMultiplier:2.5
SliderTickRate:1

[Events]
//Background and Video events
0,0,"thumbahermitsdream.jpg",0,0
//Break Periods
//Storyboard Layer 0 (Background)
//Storyboard Layer 1 (Fail)
//Storyboard Layer 2 (Pass)
//Storyboard Layer 3 (Foreground)
//Storyboard Layer 4 (Overlay)
//Storyboard Sound Samples

[TimingPoints]
807,500,4,2,2,20,1,0
807,-200,4,2,2,20,0,0
3307,-142.857142857143,4,2,2,20,0,0
3807,-125,4,2,2,20,0,0
4307,-111.111111111111,4,2,2,20,0,0
4807,-200,4,2,2,20,0,0
8057,-200,4,2,2,15,0,0
8390,-200,4,2,2,20,0,0
8557,-200,4,2,2,30,0,0
8807,-100,4,2,53,60,0,0
9182,-100,4,2,53,60,0,0
9223,-100,4,2,53,5,0,0
9307,-58.8235294117647,4,2,53,60,0,0
10015,-58.8235294117647,4,2,53,60,0,0
10098,-58.8235294117647,4,2,53,60,0,0
10307,-83.3333333333333,4,2,53,60,0,0
10807,-153.846153846153,4,2,53,60,0,0
11807,-117.647058823529,4,2,53,60,0,0
12015,-117.647058823529,4,2,53,60,0,0
12098,-117.647058823529,4,2,53,60,0,0
12640,-117.647058823529,4,2,53,5,0,0
12682,-117.647058823529,4,2,53,60,0,0
12807,-100,4,2,53,60,0,0
15307,-90.9090909090909,4,2,53,60,0,0
16140,-133.333333333333,4,2,53,60,0,0
16807,-76.9230769230769,4,2,53,60,0,0
17182,-76.9230769230769,4,2,53,60,0,0
17223,-76.9230769230769,4,2,53,5,0,0
17307,-58.8235294117647,4,2,53,60,0,0
18015,-58.8235294117647,4,2,53,60,0,0
18098,-58.8235294117647,4,2,53,60,0,0
18307,-71.4285714285714,4,2,53,60,0,0
18807,-153.846153846153,4,2,53,60,0,0
19807,-117.647058823529,4,2,53,60,0,0
20640,-117.647058823529,4,2,53,5,0,0
20682,-117.647058823529,4,2,53,60,0,0
20807,-50,4,2,53,60,0,0
22807,-100,4,2,53,60,0,0
24140,-83.3333333333333,4,2,53,60,0,0
24807,-222.222222222221,4,2,53,60,0,0
24973,-222.222222222221,4,2,53,60,0,0
28307,-100,4,2,53,60,0,0
28473,-100,4,2,53,60,0,0
28640,-100,4,2,53,60,0,0
28807,-222.222222222222,4,2,53,60,0,0
32306,-100,4,2,53,60,0,0
32473,-100,4,2,53,60,0,0
32640,-100,4,2,53,60,0,0
32807,-153.846153846154,4,2,53,60,0,0
39807,-100,4,2,53,60,0,0
39973,-100,4,2,53,60,0,0
40140,-83.3333333333333,4,2,53,60,0,0
40390,-83.3333333333333,4,2,53,40,0,0
40557,-83.3333333333333,4,2,53,60,0,0
41223,-83.3333333333333,4,2,53,5,0,0
41307,-222.222222222221,4,2,53,60,0,0
42307,-125,4,2,53,60,0,0
42807,-71.4285714285714,4,2,53,60,0,0
43807,-90.9090909090909,4,2,53,60,0,0
44807,-125,4,2,53,60,0,0
45807,-142.857142857143,4,2,53,60,0,0
47807,-100,4,2,53,60,0,0
47973,-100,4,2,53,60,0,0
48140,-100,4,2,53,60,0,0
48473,-500,4,2,53,60,0,0
48807,-83.3333333333333,4,2,53,60,0,0
49223,-83.3333333333333,4,2,53,5,0,0
49307,-285.714285714284,4,2,53,60,0,0
50307,-117.647058823529,4,2,53,60,0,0
50807,-71.4285714285714,4,2,53,60,0,0
51807,-76.9230769230769,4,2,53,60,0,0
52807,-117.647058823529,4,2,53,60,0,0
55807,-100,4,2,53,60,0,0
56307,-100,4,2,2,60,0,0
56390,-100,4,2,53,5,0,0
56807,-83.3333333333333,4,2,53,70,0,0
57182,-83.3333333333333,4,2,53,70,0,0
57223,-83.3333333333333,4,2,53,5,0,0
57307,-285.714285714286,4,2,53,70,0,0
57682,-285.714285714286,4,2,53,70,0,0
57723,-285.714285714286,4,2,53,5,0,0
57807,-76.9230769230769,4,2,53,70,0,0
58015,-76.9230769230769,4,2,53,70,0,0
58098,-76.9230769230769,4,2,53,70,0,0
58182,-76.9230769230769,4,2,53,70,0,0
58223,-76.9230769230769,4,2,53,5,0,0
58307,-285.714285714286,4,2,53,70,0,0
58682,-285.714285714286,4,2,53,70,0,0
58723,-285.714285714286,4,2,53,5,0,0
58807,-50,4,2,53,70,0,0
59057,-50,4,2,53,5,0,0
59140,-66.6666666666667,4,2,53,70,0,0
59223,-66.6666666666667,4,2,53,5,0,0
59307,-66.6666666666667,4,2,53,70,0,0
59557,-66.6666666666667,4,2,53,5,0,0
59640,-66.6666666666667,4,2,53,70,0,0
59723,-66.6666666666667,4,2,53,5,0,0
59807,-100,4,2,53,70,0,0
60057,-100,4,2,53,5,0,0
60140,-76.9230769230769,4,2,53,70,0,0
60223,-76.9230769230769,4,2,53,5,0,0
60307,-83.3333333333333,4,2,53,70,0,0
60723,-83.3333333333333,4,2,53,5,0,0
60807,-181.818181818181,4,2,53,70,0,0
62307,-66.6666666666667,4,2,53,70,0,0
62807,-125,4,2,53,70,0,0
63307,-71.4285714285714,4,2,53,70,0,0
64306,-83.3333333333333,4,2,53,70,0,0
64806,-83.3333333333333,4,2,53,70,0,0
65015,-83.3333333333333,4,2,53,70,0,0
65098,-83.3333333333333,4,2,53,70,0,0
65181,-83.3333333333333,4,2,53,70,0,0
65222,-83.3333333333333,4,2,53,5,0,0
65306,-285.714285714286,4,2,53,70,0,0
65723,-285.714285714286,4,2,53,5,0,0
65807,-71.4285714285714,4,2,53,70,0,0
66015,-71.4285714285714,4,2,53,70,0,0
66098,-71.4285714285714,4,2,53,70,0,0
66223,-71.4285714285714,4,2,53,5,0,0
66307,-285.714285714286,4,2,53,70,0,0
66723,-285.714285714286,4,2,53,5,0,0
66807,-55.5555555555556,4,2,53,70,0,0
67057,-55.5555555555556,4,2,53,5,0,0
67140,-76.9230769230769,4,2,53,70,0,0
67223,-76.9230769230769,4,2,53,5,0,0
67307,-66.6666666666667,4,2,53,70,0,0
67557,-66.6666666666667,4,2,53,5,0,0
67640,-100,4,2,53,70,0,0
67723,-100,4,2,53,5,0,0
67807,-66.6666666666667,4,2,53,70,0,0
68223,-66.6666666666667,4,2,53,5,0,0
68307,-100,4,2,53,70,0,0
68807,-181.818181818182,4,2,53,70,0,0
69015,-181.818181818182,4,2,53,70,0,0
69098,-181.818181818182,4,2,53,70,0,0
70307,-58.8235294117647,4,2,53,70,0,0
72807,-76.9230769230769,4,2,53,70,0,0
73223,-76.9230769230769,4,2,53,5,0,0
73307,-83.3333333333333,4,2,53,70,0,0
73807,-76.9230769230769,4,2,53,70,0,0
74015,-76.9230769230769,4,2,53,70,0,0
74098,-76.9230769230769,4,2,53,70,0,0
74223,-76.9230769230769,4,2,53,5,0,0
74307,-90.9090909090909,4,2,53,70,0,0
74807,-58.8235294117647,4,2,53,70,0,0
75057,-58.8235294117647,4,2,53,5,0,0
75140,-58.8235294117647,4,2,53,70,0,0
75223,-58.8235294117647,4,2,53,5,0,0
75307,-47.6190476190476,4,2,53,70,0,0
75557,-47.6190476190476,4,2,53,5,0,0
75640,-47.6190476190476,4,2,53,70,0,0
75723,-47.6190476190476,4,2,53,5,0,0
75807,-47.6190476190476,4,2,53,70,0,0
76307,-66.6666666666667,4,2,53,70,0,0
76807,-133.333333333333,4,2,53,70,0,0
77515,-133.333333333333,4,2,53,70,0,0
77598,-133.333333333333,4,2,53,70,0,0
78307,-66.6666666666667,4,2,53,70,0,0
78557,-66.6666666666667,4,2,53,5,0,0
78640,-66.6666666666667,4,2,53,70,0,0
78723,-66.6666666666667,4,2,53,5,0,0
78807,-100,4,2,53,70,0,0
79307,-133.333333333333,4,2,53,70,0,0
80307,-83.3333333333333,4,2,53,70,0,0
80807,-66.6666666666667,4,2,53,70,0,0
81015,-66.6666666666667,4,2,53,70,0,0
81098,-66.6666666666667,4,2,53,70,0,0
81223,-66.6666666666667,4,2,53,5,0,0
81307,-66.6666666666667,4,2,53,70,0,0
82015,-66.6666666666667,4,2,53,70,0,0
82098,-66.6666666666667,4,2,53,70,0,0
82223,-66.6666666666667,4,2,53,5,0,0
82307,-100,4,2,53,70,0,0
82807,-54.054054054054,4,2,53,70,0,0
83057,-54.054054054054,4,2,53,5,0,0
83140,-54.054054054054,4,2,53,70,0,0
83223,-54.054054054054,4,2,53,5,0,0
83307,-41.6666666666667,4,2,53,70,0,0
83557,-41.6666666666667,4,2,53,5,0,0
83640,-41.6666666666667,4,2,53,70,0,0
83723,-41.6666666666667,4,2,53,5,0,0
83807,-41.6666666666667,4,2,53,70,0,0
84307,-66.6666666666667,4,2,53,70,0,0
84723,-66.6666666666667,4,2,53,5,0,0
84807,-55.5555555555556,4,2,53,70,0,0
85807,-55.5555555555556,4,2,53,70,0,0
86015,-55.5555555555556,4,2,53,70,0,0
86098,-55.5555555555556,4,2,53,70,0,0
86307,-37.7358490566038,4,2,53,70,0,0
86515,-40,4,2,53,70,0,0
86598,-40,4,2,53,70,0,0

[Colours]
Combo1 : 219,136,210
Combo2 : 102,151,62
Combo3 : 249,171,40
Combo4 : 218,82,99

[HitObjects]
405,289,807,6,0,P|409:264|417:239,3,41.6666666666667,2|0|0|0,0:2|0:2|0:2|0:2,0:2:0:0:
343,338,1473,2,0,P|327:312|329:294,1,41.6666666666667
477,194,1807,6,0,P|473:169|465:144,3,41.6666666666667,2|0|0|2,0:2|0:2|0:2|0:2,0:2:0:0:
392,129,2473,2,0,P|400:110|413:94,1,41.6666666666667,0|0,0:0|0:2,0:0:0:0:
188,238,2807,6,0,L|216:201,2,41.6666666666667,2|0|0,0:2|0:0|0:0,0:0:0:0:
291,210,3307,2,0,P|294:178|280:154,2,58.3333315531413,2|0|0,0:2|0:0|0:0,0:0:0:0:
320,84,3807,2,0,P|291:70|252:73,2,66.6666666666667,2|0|0,0:2|0:0|0:0,0:0:0:0:
195,15,4307,2,0,P|176:57|181:95,2,74.9999977111817,2|0|0,0:2|0:0|0:0,0:0:0:0:
100,305,4807,6,0,L|93:258,3,41.6666666666667,2|0|0|0,0:2|0:0|0:0|0:0,0:0:0:0:
162,357,5473,2,0,P|177:326|180:311,1,41.6666666666667
82,170,5807,2,0,L|91:128,3,41.6666666666667,2|0|0|0,0:2|0:0|0:0|0:0,0:0:0:0:
31,231,6473,2,0,P|14:218|3:200,1,41.6666666666667
324,34,6807,6,0,P|331:68|336:122,1,83.3333333333333,2|0,0:2|0:0,0:0:0:0:
258,158,7307,1,0,0:0:0:0:
332,280,7473,2,0,L|335:321,1,41.6666666666667
469,343,8140,5,2,0:3:0:0:
469,343,8223,1,2,0:3:0:0:
469,343,8306,1,2,0:3:0:0:
332,280,8473,1,2,0:3:0:0:
451,205,8640,1,2,0:3:0:0:
167,279,8807,6,0,B|144:180|144:180|84:277,1,208.333333333333,4|0,1:1|0:0,0:0:0:0:
61,346,9307,2,2,B|85:338|85:338|38:109|38:109|107:91,1,283.333338737488,0|0,0:0|1:0,0:1:0:0:
262,216,9807,1,8,0:2:0:0:
134,176,9973,1,0,0:0:0:0:
174,292,10140,1,0,0:0:0:0:
221,106,10307,2,2,B|161:88|161:88|142:24|142:24|64:5,1,199.999993896485,0|0,0:0|1:0,0:1:0:0:
326,279,10807,6,0,P|290:245|279:174,1,108.333328374227,0|0,1:0|1:0,0:0:0:0:
415,249,11307,2,0,P|435:200|424:148,1,108.333328374227,0|0,1:0|0:0,0:0:0:0:
324,364,11807,6,0,P|276:353|215:254,1,141.666669368744,8|0,0:2|0:0,0:0:0:0:
512,205,12307,2,2,P|507:274|461:325,1,141.666669368744,0|0,0:0|0:0,0:1:0:0:
406,112,12807,6,0,P|451:114|484:143,1,83.3333333333333,0|0,1:0|0:0,0:0:0:0:
475,43,13140,1,0,0:0:0:0:
315,219,13307,6,0,P|348:194|389:194,1,83.3333333333333,0|0,1:0|1:0,0:0:0:0:
284,132,13640,1,0,1:0:0:0:
233,62,13807,5,8,0:2:0:0:
233,62,13890,1,0,0:0:0:0:
233,62,13973,1,0,0:0:0:0:
152,88,14141,1,0,0:0:0:0:
151,173,14307,1,0,0:0:0:0:
233,200,14473,1,0,3:0:0:0:
53,126,14640,1,0,1:0:0:0:
49,281,14807,6,0,P|22:253|25:193,1,83.3333333333333,0|0,1:2|0:0,0:0:0:0:
62,115,15140,1,0,1:0:0:0:
102,343,15307,2,0,P|58:362|13:356,1,91.6666694641114,0|0,1:0|1:0,0:0:0:0:
75,108,15640,1,0,0:0:0:0:
176,294,15807,5,8,0:2:0:0:
163,278,15890,1,0,0:0:0:0:
155,259,15973,1,0,0:0:0:0:
242,357,16140,2,0,P|262:334|260:287,1,62.5000023841859,0|0,3:0|0:0,0:0:0:0:
256,148,16473,1,0,3:0:0:0:
256,148,16640,1,0,3:0:0:0:
345,279,16807,6,0,B|308:222|367:196|368:153|368:153|377:196|441:203|418:275,1,270.833320935568,0|0,1:0|0:0,0:0:0:0:
451,355,17307,2,2,B|406:291|491:197|464:246|535:175|473:93,1,283.333338737488,0|0,0:2|1:0,0:1:0:0:
208,107,17807,1,8,0:2:0:0:
369,158,17973,1,0,0:0:0:0:
268,192,18139,1,0,0:0:0:0:
296,70,18307,2,2,B|400:130|490:-25|358:-43|372:15,1,233.333326212565,0|0,0:2|0:0,0:1:0:0:
97,249,18807,6,0,P|76:199|88:147,1,108.333328374227,0|0,1:0|1:0,0:0:0:0:
235,189,19307,2,0,P|224:241|186:279,1,108.333328374227,0|0,1:0|3:0,0:0:0:0:
52,325,19807,6,0,P|5:274|0:204,1,141.666669368744,8|0,0:2|0:0,0:0:0:0:
187,364,20307,2,2,P|254:341|293:284,1,141.666669368744,0|0,0:2|0:0,0:1:0:0:
83,148,20807,6,0,B|66:127|66:127|129:114|173:157|173:157|137:171,1,166.666666666667,0|0,1:0|0:0,0:0:0:0:
153,52,21140,1,0,0:0:0:0:
314,215,21307,6,0,B|330:198|330:198|273:177|220:214|220:214|245:227,1,166.666666666667,0|0,1:0|1:0,0:0:0:0:
249,102,21640,1,0,1:0:0:0:
434,0,21806,1,8,0:2:0:0:
446,25,21890,1,0,0:0:0:0:
447,53,21973,1,0,0:0:0:0:
395,126,22140,1,0,0:0:0:0:
389,203,22307,1,0,0:0:0:0:
433,261,22474,1,0,3:0:0:0:
512,163,22640,1,0,3:0:0:0:
288,301,22807,6,0,P|311:334|350:345,1,83.3333333333333,0|0,1:2|0:0,0:0:0:0:
444,270,23140,1,0,1:0:0:0:
238,239,23307,2,0,P|207:295|211:321,1,83.3333333333333,0|0,1:0|1:0,0:0:0:0:
449,283,23640,1,0,0:0:0:0:
337,180,23807,5,8,0:2:0:0:
323,195,23890,1,0,0:0:0:0:
315,214,23973,1,0,0:3:0:0:
418,138,24140,2,0,P|462:158|488:206,1,99.9999969482423,4|8,0:3|0:3,0:0:0:0:
359,49,24473,1,0,0:0:0:0:
359,49,24640,1,0,0:0:0:0:
60,343,24807,6,0,P|73:302|68:259,1,74.9999977111817,4|0,1:2|0:0,0:0:0:0:
130,191,25307,1,0,0:0:0:0:
145,209,25390,1,0,0:0:0:0:
156,229,25473,1,0,1:0:0:0:
240,174,25640,1,0,0:0:0:0:
23,211,25807,2,0,P|17:181|17:127,1,74.9999977111817,8|0,0:2|0:0,0:0:0:0:
87,94,26307,1,0,0:0:0:0:
165,73,26473,1,0,0:0:0:0:
18,45,26640,1,0,1:0:0:0:
246,98,26807,6,0,P|279:92|296:80,1,37.4999988555909,0|0,0:2|0:0,0:0:0:0:
348,44,27140,1,0,1:0:0:0:
512,152,27307,2,0,P|479:146|462:134,1,37.4999988555909,0|0,1:2|1:0,0:0:0:0:
410,98,27640,1,0,1:0:0:0:
307,171,27807,1,8,0:2:0:0:
323,189,27973,1,0,0:0:0:0:
332,212,28140,1,0,0:0:0:0:
331,237,28307,1,0,0:0:0:0:
323,249,28640,6,0,P|307:287|308:297,1,41.6666666666667
448,344,28807,6,0,P|432:308|441:270,1,74.9999977111817,0|0,1:2|0:0,0:0:0:0:
496,209,29307,1,0,0:0:0:0:
503,191,29390,1,0,0:0:0:0:
506,173,29474,1,0,1:0:0:0:
399,169,29640,1,0,0:0:0:0:
413,58,29807,2,0,P|426:77|431:103,1,37.4999988555909,8|0,0:2|0:0,0:0:0:0:
503,57,30140,1,0,0:0:0:0:
336,32,30307,2,0,P|310:46|287:91,1,74.9999977111817,0|0,0:0|1:0,0:0:0:0:
187,176,30807,6,0,P|165:160|152:140,1,37.4999988555909,0|0,0:2|0:0,0:0:0:0:
195,75,31140,1,0,1:0:0:0:
73,113,31307,6,0,P|95:97|108:77,1,37.4999988555909,0|0,1:2|1:0,0:0:0:0:
65,12,31640,1,0,1:0:0:0:
23,205,31807,1,8,0:2:0:0:
27,217,31973,1,0,0:0:0:0:
38,225,32140,1,0,0:0:0:0:
51,229,32307,1,0,0:0:0:0:
51,229,32640,6,0,P|79:242|91:256,1,41.6666666666667
208,358,32807,6,0,P|175:321|183:262,1,108.333328374227,0|0,1:0|0:0,0:0:0:0:
284,191,33307,1,0,0:0:0:0:
271,214,33390,1,0,0:0:0:0:
249,230,33474,1,0,1:0:0:0:
139,156,33640,1,0,0:0:0:0:
227,88,33807,2,0,P|269:103|283:121,1,54.1666641871136,8|0,0:2|0:0,0:0:0:0:
294,26,34140,1,0,0:0:0:0:
125,150,34307,2,0,P|87:115|90:61,1,108.333328374227,0|0,0:2|1:0,0:0:0:0:
27,232,34807,6,0,P|60:217|87:217,1,54.1666641871136
141,257,35140,1,0,1:0:0:0:
343,161,35307,6,0,P|310:146|283:146,1,54.1666641871136,0|0,1:0|1:0,0:0:0:0:
226,191,35640,1,0,1:0:0:0:
398,225,35807,6,0,P|421:198|414:115,1,108.333328374227,8|0,0:2|0:0,0:0:0:0:
328,51,36307,1,0,0:0:0:0:
369,21,36473,1,0,0:0:0:0:
449,22,36640,1,0,0:0:0:0:
349,310,36807,6,0,P|312:278|308:213,1,108.333328374227,0|0,1:0|0:0,0:0:0:0:
512,167,37307,1,0,0:0:0:0:
490,183,37473,1,0,1:0:0:0:
464,188,37640,1,0,0:0:0:0:
232,189,37807,2,0,P|254:154|323:144,1,108.333328374227,8|0,0:2|0:0,0:0:0:0:
412,260,38307,1,0,0:2:0:0:
423,271,38474,1,0,0:0:0:0:
428,288,38640,1,0,1:0:0:0:
215,367,38807,6,0,P|176:346|139:288,1,108.333328374227,0|0,0:0|1:0,0:0:0:0:
295,337,39307,2,0,P|316:299|315:229,1,108.333328374227,0|0,1:0|1:0,0:0:0:0:
249,138,39807,5,8,0:2:0:0:
95,179,39973,1,2,0:3:0:0:
166,142,40140,5,2,0:3:0:0:
65,103,40306,1,4,0:3:0:0:
95,179,40473,5,2,0:3:0:0:
0,52,40640,1,2,0:3:0:0:
445,51,40807,6,0,B|469:20|364:-35|287:118|380:174,1,249.999992370606,4|0,1:2|0:0,0:0:0:0:
373,169,41307,2,0,P|406:176|429:145,1,74.9999977111817,0|0,0:0|1:0,0:0:0:0:
302,221,41807,2,0,P|269:227|246:196,1,74.9999977111817,8|0,0:2|0:0,0:0:0:0:
363,375,42307,2,0,P|358:323|405:234,1,133.333333333333,0|0,0:2|1:0,0:0:0:0:
145,225,42807,6,0,B|146:184|110:160|101:182|82:165|73:146|73:146|74:167|69:192|50:183|36:227|67:258,1,233.333326212565,0|0,0:0|1:0,0:0:0:0:
174,330,43307,2,0,B|168:290|208:266|216:285|237:269|249:251|249:251|245:272|248:297|270:286|283:326|256:358,1,233.333326212565,0|0,1:0|1:0,0:0:0:0:
145,225,43807,6,0,B|99:229|77:173|77:173|91:212|93:249|44:265,1,183.333338928223,8|0,0:2|0:0,0:0:0:0:
174,330,44307,2,0,B|219:334|241:278|241:278|227:317|225:354|274:370,1,183.333338928223,0|0,3:2|0:0,0:0:0:0:
216,30,44807,6,0,P|172:79|158:144,1,133.333333333333,0|0,1:0|0:0,0:0:0:0:
229,195,45307,2,0,P|274:183|296:148,1,66.6666666666667,0|0,0:0|1:0,0:0:0:0:
327,102,45640,1,0,1:0:0:0:
0,96,45807,6,0,P|59:110|83:164,1,116.666663106283,8|0,0:2|0:0,0:0:0:0:
67,232,46307,2,0,P|50:255|23:267,1,58.3333315531413,0|0,0:2|0:0,0:0:0:0:
0,188,46640,1,0,1:0:0:0:
211,341,46807,6,0,P|200:306|186:281,1,58.3333315531413
156,220,47140,1,0,1:0:0:0:
291,365,47307,2,0,P|313:336|335:317,1,58.3333315531413,0|0,1:0|1:0,0:0:0:0:
385,271,47640,1,0,1:0:0:0:
285,84,47807,5,8,0:2:0:0:
297,108,47973,1,0,0:2:0:0:
305,135,48140,1,0,0:2:0:0:
307,162,48306,1,0,0:0:0:0:
217,142,48473,1,0,3:0:0:0:
362,36,48640,1,0,3:0:0:0:
474,290,48807,6,0,B|462:332|439:339|439:339|512:314|512:230|444:176,1,249.999992370606,0|0,1:2|0:0,0:0:0:0:
458,190,49307,2,0,P|439:213|409:219,1,58.3333315531413,0|0,0:0|1:0,0:0:0:0:
254,59,49807,2,0,P|271:81|299:88,1,58.3333315531413,8|0,0:2|0:0,0:0:0:0:
439,9,50307,2,0,P|412:45|390:141,1,141.666669368744,0|0,0:2|1:0,0:0:0:0:
208,299,50807,6,0,B|286:244|213:151|213:151|168:167|173:227,1,233.333326212565,0|0,0:0|1:0,0:0:0:0:
104,336,51307,2,0,B|8:328|25:211|25:211|72:202|98:256,1,233.333326212565,0|0,1:0|1:0,0:0:0:0:
208,299,51807,6,0,B|180:244|270:254|275:153|190:121|153:165|179:215,1,216.666656748454,8|0,0:2|0:0,0:0:0:0:
104,336,52307,2,0,B|100:274|27:328|-27:243|30:173|84:193|86:249,1,216.666656748454,0|0,3:2|0:0,0:0:0:0:
272,372,52807,6,0,P|296:319|388:283,1,141.666669368744,0|0,1:0|0:0,0:0:0:0:
306,215,53307,2,0,P|284:188|253:172,1,70.833334684372,0|0,0:0|1:0,0:0:0:0:
351,111,53640,1,0,1:0:0:0:
190,99,53807,6,0,P|160:147|179:230,1,141.666669368744,8|0,0:2|0:0,0:0:0:0:
72,165,54307,2,0,P|31:152|14:129,1,70.833334684372,0|0,3:2|0:0,0:0:0:0:
97,77,54640,1,0,1:0:0:0:
256,0,54807,5,0,0:0:0:0:
247,34,54973,1,0,0:0:0:0:
245,70,55140,1,0,1:0:0:0:
255,178,55307,5,0,1:2:0:0:
264,212,55473,1,2,1:3:0:0:
266,248,55640,1,2,1:3:0:0:
256,384,55807,5,8,0:2:0:0:
256,384,56307,6,0,L|256:335,2,41.6666666666667,2|0|0,3:0|0:0|0:0,0:0:0:0:
408,357,56807,6,0,B|371:293|427:228|413:269|479:198|435:124,1,249.999992370606,4|0,1:1|0:0,0:0:0:0:
437,49,57307,2,0,P|485:60|499:89,1,72.9166644414267,0|0,3:0|0:0,0:0:0:0:
359,196,57807,6,0,B|343:147|288:141|292:200|160:78|261:12|343:37|335:96,1,270.833320935568,8|0,0:2|0:0,0:0:0:0:
316,294,58307,2,0,P|292:269|292:233,1,72.9166644414267,0|0,3:0|0:0,0:0:0:0:
1,290,58807,6,0,B|55:253|31:179|31:179|50:229|76:269|182:243,1,250,0|0,1:0|0:0,0:0:0:0:
111,325,59140,2,0,P|89:347|60:342,1,62.5000023841859,0|0,1:0|0:0,0:0:0:0:
117,166,59307,6,0,B|158:172|181:113|181:113|166:154|164:193|250:215,1,187.500007152558,0|0,1:0|0:0,0:0:0:0:
229,52,59640,2,0,P|207:28|179:37,1,62.5000023841859
456,162,59807,6,0,P|383:142|389:67,1,125.000004768372,8|0,0:2|0:0,0:0:0:0:
310,58,60140,2,0,P|318:39|350:31,1,54.1666641871136
512,47,60307,2,0,B|549:111|493:176|507:135|441:206|485:280,1,249.999992370606
392,338,60807,6,0,B|410:337|414:374|414:374|380:371|376:341,1,91.6666694641114,0|0,1:0|0:0,0:0:0:0:
357,243,61307,2,0,B|349:223|381:208|381:208|390:244|373:250,1,91.6666694641114,0|0,1:0|1:0,0:0:0:0:
295,324,61807,2,0,B|285:340|254:327|254:327|273:296|290:305,1,91.6666694641114,8|0,0:2|0:0,0:0:0:0:
89,234,62307,6,0,B|78:286|155:327|155:327|215:253|167:201,1,250.000009536744,0|0,3:0|1:0,0:0:0:0:
290,305,62807,5,0,0:0:0:0:
368,277,62973,1,0,0:0:0:0:
349,357,63140,1,0,1:0:0:0:
329,163,63307,5,0,1:0:0:0:
221,273,63473,1,0,1:0:0:0:
178,135,63640,1,0,0:0:0:0:
461,52,63807,5,8,0:2:0:0:
465,42,63973,1,0,0:0:0:0:
463,31,64140,1,0,3:0:0:0:
270,213,64306,5,0,0:0:0:0:
284,229,64472,1,0,3:0:0:0:
305,235,64639,1,0,0:0:0:0:
512,89,64806,6,0,B|448:51|396:105|425:95|371:188|307:159,1,224.999993133545,0|0,1:0|0:0,0:0:0:0:
278,46,65306,2,0,P|311:61|328:93,1,72.9166644414267,0|0,3:2|0:0,0:0:0:0:
167,181,65807,6,0,B|295:133|245:-52|98:13|150:98,1,291.666657765707,8|0,0:2|0:0,0:0:0:0:
92,187,66307,2,0,P|99:223|126:246,1,72.9166644414267,0|0,3:2|0:0,0:0:0:0:
512,291,66807,6,0,B|552:235|500:190|500:190|425:199|437:268,1,224.999993133545,0|0,1:2|0:0,0:0:0:0:
428,338,67140,2,0,B|445:358|445:358|473:352,1,54.1666641871136,0|0,1:0|0:0,0:0:0:0:
249,194,67307,6,0,B|221:148|267:112|267:112|329:123|322:177,1,187.500007152558,0|0,1:2|0:0,0:0:0:0:
322,249,67640,2,0,B|306:265|306:265|287:260,1,41.6666666666667
86,21,67807,6,0,P|78:141|3:46,1,312.500011920929,8|0,0:2|0:0,0:0:0:0:
30,244,68307,2,0,P|81:183|158:202,1,166.666666666667,0|0,3:0|0:0,0:0:0:0:
251,81,68807,6,0,B|218:68|216:44|216:44|242:50|248:74,1,91.6666694641114,0|0,1:0|0:0,0:0:0:0:
260,175,69307,2,0,B|261:210|240:221|240:221|235:195|255:180,1,91.6666694641114,0|0,1:0|1:0,0:0:0:0:
343,108,69807,2,0,B|366:81|390:88|390:88|375:110|350:107,1,91.6666694641114,8|0,0:2|0:0,0:0:0:0:
200,360,70307,6,0,B|215:323|179:279|163:304|140:275|129:249|129:249|129:277|120:311|96:298|75:361|118:388,1,283.333338737488,0|0,3:2|3:0,0:0:0:0:
76,195,70807,5,0,1:0:0:0:
72,183,70973,1,0,0:0:0:0:
164,167,71140,1,0,1:0:0:0:
436,195,71307,5,0,1:0:0:0:
440,183,71473,1,0,1:0:0:0:
348,167,71640,1,0,1:0:0:0:
463,311,71807,5,8,0:2:0:0:
136,238,71973,1,0,0:0:0:0:
374,239,72140,5,4,0:3:0:0:
47,311,72306,1,8,0:3:0:0:
256,321,72473,5,0,0:3:0:0:
256,60,72640,5,8,0:3:0:0:
426,374,72807,6,0,B|403:314|422:248|520:279|537:166|475:131|424:120,1,270.833320935568,4|0,1:1|0:0,0:0:0:0:
387,179,73307,2,0,P|404:232|447:254,2,99.9999969482423,0|0|0,3:0|0:0|0:0,0:0:0:0:
499,343,73807,2,0,B|515:358|532:332|510:273|479:254|343:230|296:294,1,270.833320935568,8|0,0:2|0:0,0:0:0:0:
299,364,74307,2,0,P|267:356|237:278,2,91.6666694641114,0|0|0,3:0|0:0|0:0,0:0:0:0:
112,278,74807,6,0,B|123:250|96:217|84:236|67:214|59:195|59:195|59:216|52:241|34:231|18:278|50:298,1,212.500004053116,0|0,1:2|0:0,0:0:0:0:
71,122,75140,2,0,P|45:145|12:138,1,70.833334684372,0|0,1:0|0:0,0:0:0:0:
211,89,75307,6,0,B|192:54|229:17|244:38|264:13|274:-10|274:-10|274:15|282:45|304:33|322:89|284:114,1,262.499991989136,0|0,1:0|0:0,0:0:0:0:
264,183,75640,2,0,P|221:190|189:161,1,87.499997329712
512,166,75807,5,8,0:2:0:0:
464,151,75973,1,0,0:0:0:0:
388,176,76140,1,0,0:0:0:0:
293,270,76307,1,0,0:2:0:0:
221,306,76473,1,0,0:0:0:0:
173,291,76640,1,0,0:0:0:0:
63,74,76807,6,0,B|87:57|68:17|68:17|81:37|95:52|138:34,1,125.000004768372,0|0,1:2|0:0,0:0:0:0:
83,218,77307,2,0,B|64:194|26:217|26:217|44:203|59:188|35:145,1,125.000004768372,0|0,1:2|1:0,0:0:0:0:
219,115,77807,2,0,B|208:141|246:163|246:163|225:153|204:149|179:190,1,125.000004768372,8|0,0:2|0:0,0:0:0:0:
397,281,78307,6,0,B|329:190|424:124|464:215|350:207,1,187.500007152558,0|0,3:2|0:0,0:0:0:0:
474,292,78640,2,0,P|466:321|443:342,1,62.5000023841859,0|0,1:0|0:0,0:0:0:0:
205,341,78807,5,0,0:0:0:0:
58,133,78974,1,0,0:0:0:0:
89,59,79140,1,0,1:0:0:0:
256,125,79307,5,0,1:0:0:0:
169,269,79473,1,0,1:0:0:0:
138,195,79639,1,0,0:0:0:0:
302,351,79807,5,8,0:2:0:0:
306,360,79973,1,0,0:0:0:0:
316,366,80140,1,0,3:0:0:0:
446,66,80307,5,0,0:0:0:0:
442,55,80473,1,0,3:0:0:0:
434,48,80640,1,0,0:0:0:0:
21,13,80807,6,0,B|130:-18|97:163|158:158|188:-4|299:78,1,312.500011920929
290,149,81307,2,0,B|264:158|249:194|249:194|256:152|226:124,2,125.000004768372,0|0|0,3:0|0:0|0:0,0:0:0:0:
82,293,81807,6,0,B|-37:177|158:41|208:198|144:232,1,312.500011920929,8|0,0:2|0:0,0:0:0:0:
197,286,82307,2,0,B|186:301|191:326|191:326|179:301|152:297,2,83.3333333333333,0|0|0,3:0|0:0|0:0,0:0:0:0:
468,113,82807,6,0,B|496:84|505:9|422:-16|422:-16|380:31|403:68,1,231.249999117851,0|0,1:0|0:0,0:0:0:0:
363,136,83140,2,0,B|380:136|397:154|397:154|384:131|396:108,1,77.0833330392838,0|0,1:0|0:0,0:0:0:0:
351,345,83307,6,0,B|303:342|234:282|288:193|288:193|363:201|372:253,1,299.999990844727,0|0,1:0|0:0,0:0:0:0:
470,346,83640,2,0,B|445:348|428:370|428:370|440:342|423:318,1,99.9999969482423
74,383,83807,5,8,0:2:0:0:
115,365,83973,1,0,0:0:0:0:
167,289,84140,1,0,0:0:0:0:
256,197,84307,2,0,B|164:158|127:275|164:251|76:370|-8:288,1,312.500011920929,0|0,3:0|0:0,0:0:0:0:
471,52,84807,6,0,B|444:105|444:105|182:61,1,299.999990844727,0|0,1:2|0:0,0:0:0:0:
37,52,85307,6,0,B|63:105|63:105|325:61,1,299.999990844727,0|0,1:2|0:0,0:0:0:0:
218,360,85807,6,0,B|198:327|198:327|254:316|256:244|256:244|254:316|314:325|314:325|294:363,1,299.999990844727,8|0,0:2|0:0,0:0:0:0:
294,106,86307,2,0,B|283:142|338:161|262:186|255:252|255:262|255:262|255:256|249:186|173:163|230:141|218:103,1,331.250013899804
256,25,86640,5,0,1:0:0:0:
79,338,86807,5,0,0:0:0:0:
132,275,86973,1,0,0:0:0:0:
32,53,87140,1,0,1:0:0:0:
433,338,87307,5,0,1:0:0:0:
380,275,87473,1,0,1:0:0:0:
480,53,87640,1,0,1:0:0:0:
256,384,87807,5,8,0:2:0:0:
255,375,87973,5,0,0:0:0:0:
256,368,88140,5,4,0:3:0:0:
256,359,88307,5,2,0:2:0:0:
256,10,88807,5,4,0:1:0:0:
