osu file format v14

[General]
AudioFilename: audio.mp3
AudioLeadIn: 0
PreviewTime: 56723
Countdown: 0
SampleSet: Soft
StackLeniency: 0.3
Mode: 0
LetterboxInBreaks: 0
WidescreenStoryboard: 1

[Editor]
Bookmarks: 8807,24807,35307,40807,56807,71807,72307,72807,73807,80807
DistanceSpacing: 1
BeatDivisor: 12
GridSize: 16
TimelineZoom: 1.5

[Metadata]
Title:Jishou Mushoku (Cut Ver.)
TitleUnicode:自傷無色 (Cut Ver.)
Artist:Hanatan
ArtistUnicode:花たん
Creator:rHO
Version:Saturnalize's Insane
Source:
Tags:smh saturnalize jace tatemae allihoppa sherrycherry loreley anishina kodoku emilia estellia- cut nekobolo ねこぼーろ utaite hatsune miku vocaloid self-inflicted achromatic japanese folk
BeatmapID:2843005
BeatmapSetID:1270237

[Difficulty]
HPDrainRate:5
CircleSize:4.7
OverallDifficulty:8
ApproachRate:8.7
SliderMultiplier:2
SliderTickRate:1

[Events]
//Background and Video events
0,0,"thumbahermitsdream.jpg",0,0
//Break Periods
//Storyboard Layer 0 (Background)
//Storyboard Layer 1 (Fail)
//Storyboard Layer 2 (Pass)
//Storyboard Layer 3 (Foreground)
//Storyboard Layer 4 (Overlay)
//Storyboard Sound Samples

[TimingPoints]
807,500,4,2,2,20,1,0
807,-200,4,2,2,20,0,0
8390,-200,4,2,2,20,0,0
8557,-200,4,2,2,30,0,0
8807,-100,4,2,53,60,0,0
9182,-100,4,2,53,5,0,0
9307,-50,4,2,53,60,0,0
9807,-100,4,2,53,60,0,0
10015,-100,4,2,53,5,0,0
10098,-100,4,2,53,60,0,0
10307,-50,4,2,53,60,0,0
10807,-76.9230769230769,4,2,53,60,0,0
12015,-76.9230769230769,4,2,53,5,0,0
12098,-76.9230769230769,4,2,53,60,0,0
12307,-111.111111111111,4,2,53,60,0,0
12682,-111.111111111111,4,2,53,5,0,0
12807,-100,4,2,53,60,0,0
17307,-50,4,2,53,60,0,0
17807,-100,4,2,53,60,0,0
18015,-100,4,2,53,5,0,0
18098,-100,4,2,53,60,0,0
18307,-50,4,2,53,60,0,0
18807,-76.9230769230769,4,2,53,60,0,0
20307,-111.111111111111,4,2,53,60,0,0
20682,-111.111111111111,4,2,53,5,0,0
20807,-100,4,2,53,60,0,0
24807,-166.666666666667,4,2,53,60,0,0
36307,-200,4,2,53,60,0,0
36640,-166.666666666667,4,2,53,60,0,0
40390,-166.666666666667,4,2,53,40,0,0
40557,-166.666666666667,4,2,53,60,0,0
55807,-500,4,2,53,60,0,0
56307,-100,4,3,2,60,0,0
56390,-100,4,2,53,5,0,0
56807,-100,4,2,53,70,0,0
57307,-50,4,2,53,70,0,0
57807,-100,4,2,53,70,0,0
58015,-100,4,2,53,5,0,0
58098,-100,4,2,53,70,0,0
58307,-50,4,2,53,70,0,0
58807,-76.9230769230769,4,2,53,70,0,0
60807,-100,4,2,53,70,0,0
61307,-76.9230769230769,4,2,53,70,0,0
61807,-62.5,4,2,53,70,0,0
62307,-76.9230769230769,4,2,53,70,0,0
64306,-133.333333333333,4,2,53,70,0,0
64806,-100,4,2,53,70,0,0
65015,-100,4,2,53,5,0,0
65098,-100,4,2,53,70,0,0
65306,-50,4,2,53,70,0,0
65807,-100,4,2,53,70,0,0
66015,-100,4,2,53,5,0,0
66098,-100,4,2,53,70,0,0
66307,-50,4,2,53,70,0,0
66807,-76.9230769230769,4,2,53,70,0,0
68307,-133.333333333333,4,2,53,70,0,0
68807,-100,4,2,53,70,0,0
69015,-100,4,2,53,5,0,0
69098,-100,4,2,53,70,0,0
69307,-76.9230769230769,4,2,53,70,0,0
69807,-62.5,4,2,53,70,0,0
70307,-76.9230769230769,4,2,53,70,0,0
72807,-100,4,2,53,70,0,0
73307,-50,4,2,53,70,0,0
73807,-100,4,2,53,70,0,0
74015,-100,4,2,53,5,0,0
74098,-100,4,2,53,70,0,0
74307,-50,4,2,53,70,0,0
74807,-76.9230769230769,4,2,53,70,0,0
76807,-100,4,2,53,70,0,0
77307,-76.9230769230769,4,2,53,70,0,0
77515,-76.9230769230769,4,2,53,5,0,0
77598,-76.9230769230769,4,2,53,70,0,0
77807,-62.5,4,2,53,70,0,0
78307,-76.9230769230769,4,2,53,70,0,0
80307,-133.333333333333,4,2,53,70,0,0
80807,-100,4,2,53,70,0,0
81015,-100,4,2,53,5,0,0
81098,-100,4,2,53,70,0,0
81307,-50,4,2,53,70,0,0
81807,-100,4,2,53,70,0,0
82015,-100,4,2,53,5,0,0
82098,-100,4,2,53,70,0,0
82307,-50,4,2,53,70,0,0
82807,-76.9230769230769,4,2,53,70,0,0
84307,-62.5,4,2,53,70,0,0
84807,-45.4545454545455,4,2,53,70,0,0
85307,-52.6315789473684,4,2,53,70,0,0
85807,-62.5,4,2,53,70,0,0
86015,-62.5,4,2,53,5,0,0
86098,-62.5,4,2,53,70,0,0
86307,-76.9230769230769,4,2,53,70,0,0
86515,-76.9230769230769,4,2,53,5,0,0
86598,-76.9230769230769,4,2,53,70,0,0
87307,-45.4545454545455,4,2,53,70,0,0
87807,-52.6315789473684,4,2,53,70,0,0
88807,-1000,4,2,53,70,0,0

[Colours]
Combo1 : 243,211,182
Combo2 : 188,186,109
Combo3 : 124,159,194
Combo4 : 203,129,138

[HitObjects]
131,208,807,6,0,L|121:154,3,33.3333333333333,2|0|0|0,0:2|0:0|0:0|0:0,0:0:0:0:
65,132,1473,1,0,0:0:0:0:
164,114,1640,1,0,0:0:0:0:
311,99,1807,6,0,L|301:153,3,33.3333333333333,0|0|0|0,0:2|0:0|0:0|0:0,0:0:0:0:
245,175,2473,1,0,0:0:0:0:
344,193,2640,1,0,0:0:0:0:
469,216,2807,6,0,L|478:262,2,33.3333333333333,2|0|0,0:2|0:0|0:0,0:0:0:0:
356,265,3307,6,0,L|365:311,2,33.3333333333333,2|0|0,0:2|0:0|0:0,0:0:0:0:
294,122,3807,6,0,L|303:76,2,33.3333333333333,2|0|0,0:2|0:0|0:0,0:0:0:0:
128,46,4307,5,2,0:2:0:0:
130,29,4473,1,0,0:0:0:0:
133,13,4640,1,0,0:0:0:0:
94,240,4807,6,0,L|40:250,3,33.3333333333333,2|0|0|0,0:2|0:0|0:0|0:0,0:0:0:0:
0,207,5473,1,0,0:0:0:0:
18,306,5640,1,0,0:0:0:0:
184,318,5807,6,0,L|238:328,3,33.3333333333333,2|0|0|0,0:2|0:0|0:0|0:0,0:0:0:0:
278,285,6473,1,0,0:0:0:0:
260,384,6640,1,0,0:0:0:0:
97,241,6807,6,0,L|93:191,3,33.3333333333333,2|0|0|0,0:2|0:0|0:0|0:0,0:0:0:0:
53,135,7473,1,0,0:0:0:0:
145,301,7640,1,0,0:0:0:0:
493,366,8140,5,2,0:3:0:0:
493,366,8223,1,2,0:3:0:0:
493,366,8307,1,2,0:3:0:0:
413,357,8473,1,2,0:3:0:0:
333,348,8640,1,2,0:3:0:0:
97,241,8807,6,0,L|253:221,1,133.333333333333,4|0,1:1|0:0,0:0:0:0:
431,277,9307,2,2,L|165:250,1,266.666666666667,0|0,3:0|1:0,0:1:0:0:
70,86,9807,6,0,L|187:101,1,100,8|0,0:2|0:0,0:0:0:0:
190,102,10140,1,0,0:0:0:0:
380,106,10307,2,2,L|114:132,1,266.666666666667,0|0,3:0|0:0,0:1:0:0:
39,384,10807,6,0,P|71:352|119:337,1,86.6666626993817,0|0,1:0|0:0,0:0:0:0:
197,369,11140,1,0,0:0:0:0:
114,227,11307,6,0,P|146:259|194:274,1,86.6666626993817,0|0,1:0|1:0,0:0:0:0:
272,242,11640,1,0,0:0:0:0:
457,340,11807,6,0,P|369:331|287:332,1,129.999994049073,8|0,0:2|0:0,0:0:0:0:
306,331,12140,1,0,0:0:0:0:
49,299,12307,2,2,P|77:260|176:262,1,149.999995422363,0|0,0:0|0:0,0:1:0:0:
184,272,12807,6,0,L|179:373,2,66.6666666666667,0|0|0,1:0|0:0|1:0,0:0:0:0:
261,169,13307,1,0,1:0:0:0:
187,172,13473,1,0,1:0:0:0:
114,176,13640,1,0,1:0:0:0:
278,47,13807,6,0,L|267:212,1,133.333333333333,8|0,0:2|0:0,0:0:0:0:
106,235,14307,1,0,3:0:0:0:
104,202,14473,1,0,1:0:0:0:
102,168,14640,1,0,1:0:0:0:
97,73,14807,6,0,P|69:87|11:84,1,66.6666666666667,0|0,1:0|0:0,0:0:0:0:
177,118,15140,1,0,1:0:0:0:
241,82,15307,1,0,1:0:0:0:
313,88,15473,1,0,1:0:0:0:
369,135,15640,1,0,1:0:0:0:
268,153,15807,2,0,L|281:20,2,133.333333333333,8|0|0,0:2|3:0|3:0,0:0:0:0:
275,169,16640,1,0,3:0:0:0:
276,347,16807,6,0,P|236:323|149:339,1,133.333333333333,0|0,1:0|0:0,0:0:0:0:
12,167,17307,2,2,P|107:201|136:352,1,266.666666666667,0|0,0:2|0:0,0:1:0:0:
242,249,17807,6,0,P|282:225|361:236,1,100,8|0,0:2|0:0,0:0:0:0:
354,233,18140,1,0,0:0:0:0:
500,68,18307,2,2,P|405:102|376:253,1,266.666666666667,0|0,0:2|0:0,0:1:0:0:
433,353,18807,6,0,L|337:335,1,86.6666626993817,0|0,1:0|0:0,0:0:0:0:
262,360,19140,1,0,1:0:0:0:
375,251,19307,6,0,L|279:269,1,86.6666626993817,0|0,1:0|1:0,0:0:0:0:
204,244,19640,1,0,0:0:0:0:
0,335,19807,6,0,P|72:320|172:331,1,173.333325398763,8|0,0:2|0:0,0:0:0:0:
375,251,20307,2,2,P|324:229|327:137,1,149.999995422363,0|0,3:0|0:0,0:1:0:0:
342,127,20807,6,0,L|424:139,2,66.6666666666667,0|0|0,1:0|0:0|0:0,0:0:0:0:
221,179,21307,5,0,1:0:0:0:
224,105,21473,1,0,1:0:0:0:
228,32,21640,1,0,1:0:0:0:
96,209,21807,6,0,L|260:185,1,133.333333333333,8|0,0:2|0:0,0:0:0:0:
299,33,22307,1,0,3:0:0:0:
266,28,22473,1,0,1:0:0:0:
234,24,22640,1,0,1:0:0:0:
142,73,22807,6,0,P|138:40|121:11,1,66.6666666666667,0|0,1:0|0:0,0:0:0:0:
202,127,23140,1,0,1:0:0:0:
138,89,23307,1,0,1:0:0:0:
65,98,23473,1,0,1:0:0:0:
12,149,23640,1,0,1:0:0:0:
117,224,23807,6,0,L|109:138,1,66.6666666666667,8|0,0:2|0:0,0:0:0:0:
125,234,24140,1,4,3:0:0:0:
257,299,24307,2,0,L|249:385,1,66.6666666666667,8|0,0:3|0:0,0:0:0:0:
265,289,24640,1,0,3:0:0:0:
237,151,24807,6,0,L|337:145,1,79.9999975585938,4|0,1:2|0:0,0:0:0:0:
427,105,25307,2,0,L|409:140,1,39.9999987792969,0|0,0:2|1:0,0:0:0:0:
403,151,25640,1,0,0:0:0:0:
308,7,25807,2,0,L|363:90,1,79.9999975585938,8|0,0:2|0:0,0:0:0:0:
512,180,26307,2,0,L|472:182,1,39.9999987792969,0|0,0:2|0:0,0:0:0:0:
461,182,26640,1,0,1:0:0:0:
477,12,26807,2,0,L|432:101,1,79.9999975585938,0|0,0:2|1:0,0:0:0:0:
349,235,27307,2,0,P|386:225|407:226,1,39.9999987792969,0|0,1:0|1:0,0:0:0:0:
406,228,27640,1,0,1:0:0:0:
280,288,27807,5,8,0:2:0:0:
267,289,27973,1,0,0:0:0:0:
247,291,28140,1,0,0:0:0:0:
219,294,28307,1,0,0:0:0:0:
280,363,28640,5,0,0:0:0:0:
288,212,28807,6,0,L|187:206,1,79.9999975585938,0|0,1:2|0:0,0:0:0:0:
98,165,29307,2,0,L|116:200,1,39.9999987792969,0|0,0:2|1:0,0:0:0:0:
121,211,29640,1,0,0:0:0:0:
216,67,29807,2,0,L|160:150,1,79.9999975585938,8|0,0:2|0:0,0:0:0:0:
13,240,30307,2,0,L|53:242,1,39.9999987792969,0|0,0:2|0:0,0:0:0:0:
63,242,30640,1,0,1:0:0:0:
48,72,30807,2,0,L|93:160,1,79.9999975585938,0|0,0:2|1:0,0:0:0:0:
176,295,31307,2,0,P|138:285|117:286,1,39.9999987792969,0|0,1:0|1:0,0:0:0:0:
125,286,31640,1,0,1:0:0:0:
256,350,31807,5,8,0:2:0:0:
269,349,31973,1,0,0:0:0:0:
289,347,32140,1,0,0:0:0:0:
317,344,32307,1,0,0:0:0:0:
490,255,32640,5,0,0:0:0:0:
361,212,32807,2,0,P|402:196|450:199,1,79.9999975585938,0|0,1:0|0:0,0:0:0:0:
391,77,33307,2,0,P|384:120|368:147,1,39.9999987792969,0|0,0:0|1:0,0:0:0:0:
381,127,33640,1,0,0:0:0:0:
490,255,33807,2,0,P|455:227|434:184,1,79.9999975585938,8|0,0:2|0:0,0:0:0:0:
463,122,34307,2,0,P|456:165|429:205,1,79.9999975585938,0|0,0:2|1:0,0:0:0:0:
282,212,34807,2,0,P|247:184|226:141,1,79.9999975585938,0|0,0:2|1:0,0:0:0:0:
287,85,35307,2,0,P|297:127|316:152,1,39.9999987792969,0|0,1:0|1:0,0:0:0:0:
301,134,35640,1,0,1:0:0:0:
419,250,35807,5,8,0:2:0:0:
406,249,35973,1,0,0:0:0:0:
386,247,36140,1,0,0:0:0:0:
358,244,36307,2,0,L|431:232,1,66.6666666666667
278,351,36807,6,0,P|254:320|219:302,1,79.9999975585938,0|0,1:0|0:0,0:0:0:0:
116,312,37307,2,0,L|122:362,1,39.9999987792969,0|0,0:0|1:0,0:0:0:0:
123,363,37640,1,0,0:0:0:0:
270,234,37807,2,0,P|233:219|193:221,1,79.9999975585938,8|0,0:2|0:0,0:0:0:0:
204,135,38307,2,0,P|164:140|131:162,1,79.9999975585938,0|0,0:2|1:0,0:0:0:0:
76,307,38807,6,0,L|126:313,1,39.9999987792969
127,314,39140,1,0,1:0:0:0:
270,234,39307,2,0,L|320:228,1,39.9999987792969,0|0,1:0|1:0,0:0:0:0:
321,227,39640,1,0,1:0:0:0:
461,321,39807,5,8,0:2:0:0:
481,165,39973,1,2,0:3:0:0:
481,165,40140,1,2,0:3:0:0:
384,278,40307,5,4,0:3:0:0:
395,200,40473,1,2,0:3:0:0:
404,120,40640,1,2,0:3:0:0:
231,213,40807,6,0,L|333:233,1,79.9999975585938,4|0,1:2|0:0,0:0:0:0:
500,313,41307,2,0,L|449:323,1,39.9999987792969,0|0,0:2|1:0,0:0:0:0:
449,323,41640,1,0,1:0:0:0:
291,343,41807,6,0,P|276:307|282:268,1,79.9999975585938,8|0,0:2|0:0,0:0:0:0:
323,141,42307,2,0,P|299:172|262:187,1,79.9999975585938,0|0,0:2|1:0,0:0:0:0:
131,215,42807,2,0,P|170:219|201:244,1,79.9999975585938,0|0,0:2|1:0,0:0:0:0:
177,373,43307,6,0,L|126:363,1,39.9999987792969,0|0,1:2|1:0,0:0:0:0:
125,363,43640,1,0,1:0:0:0:
43,259,43807,2,0,P|27:222|33:183,1,79.9999975585938,8|0,0:2|0:0,0:0:0:0:
130,309,44307,2,0,P|106:340|69:355,1,79.9999975585938,0|0,0:2|0:0,0:0:0:0:
42,172,44807,6,0,L|35:129,2,39.9999987792969,0|0|0,1:0|0:0|0:0,0:0:0:0:
165,74,45307,2,0,L|158:117,1,39.9999987792969,0|0,0:0|1:0,0:0:0:0:
155,125,45640,1,0,1:0:0:0:
130,309,45807,2,0,P|142:346|173:371,1,79.9999975585938,8|0,0:2|0:0,0:0:0:0:
69,355,46307,2,0,P|106:340|130:309,1,79.9999975585938,0|0,0:2|1:0,0:0:0:0:
164,163,46807,6,0,L|154:123,2,39.9999987792969,0|0|0,0:0|0:0|1:0,0:0:0:0:
107,33,47307,1,0,1:0:0:0:
126,35,47473,1,0,1:0:0:0:
145,37,47640,1,0,1:0:0:0:
221,11,47807,5,8,0:2:0:0:
234,89,47973,1,0,0:0:0:0:
247,167,48140,1,0,3:0:0:0:
320,134,48307,5,0,3:0:0:0:
339,132,48473,1,0,0:3:0:0:
358,130,48640,1,0,0:2:0:0:
439,262,48807,6,0,L|359:257,1,79.9999975585938,0|0,1:0|0:0,0:0:0:0:
252,339,49307,2,0,P|272:353|290:359,1,39.9999987792969,0|0,0:0|1:0,0:0:0:0:
298,360,49640,1,0,1:0:0:0:
322,150,49807,6,0,P|282:150|246:166,1,79.9999975585938,8|0,0:2|0:0,0:0:0:0:
143,256,50307,2,0,P|162:221|166:182,1,79.9999975585938,0|0,0:2|1:0,0:0:0:0:
139,47,50807,2,0,P|158:81|191:103,1,79.9999975585938,0|0,0:2|1:0,0:0:0:0:
308,206,51307,2,0,P|293:186|284:164,1,39.9999987792969,0|0,1:0|1:0,0:0:0:0:
285,160,51640,1,0,1:0:0:0:
301,10,51807,2,0,P|261:10|225:26,1,79.9999975585938,8|0,0:2|0:0,0:0:0:0:
252,168,52307,2,0,P|271:133|275:94,1,79.9999975585938,0|0,0:2|0:0,0:0:0:0:
89,115,52807,6,0,L|94:168,2,39.9999987792969,0|0|0,1:0|0:0|0:0,0:0:0:0:
42,268,53307,2,0,L|81:271,1,39.9999987792969,0|0,0:0|1:0,0:0:0:0:
93,272,53640,1,0,1:0:0:0:
252,168,53807,6,0,L|172:175,1,79.9999975585938,8|0,0:2|0:0,0:0:0:0:
165,366,54307,2,0,P|214:363|247:334,1,79.9999975585938,0|0,0:0|1:0,0:0:0:0:
252,168,54807,5,0,0:0:0:0:
234,167,54973,1,0,0:0:0:0:
214,166,55140,1,0,1:0:0:0:
148,122,55307,5,0,1:2:0:0:
132,200,55473,1,2,1:3:0:0:
115,279,55640,1,2,1:3:0:0:
43,242,55807,6,0,L|3:245,1,40,8|0,0:2|0:0,0:0:0:0:
508,244,56807,6,0,P|447:224|375:240,1,133.333333333333,4|0,1:1|0:2,0:0:0:0:
365,12,57307,2,0,B|498:22|498:22|505:156,1,266.666666666667,0|0,3:0|0:0,0:0:0:0:
377,321,57807,6,0,P|327:340|273:336,1,100,8|0,0:2|0:2,0:0:0:0:
265,332,58140,1,0,0:0:0:0:
241,94,58307,2,0,B|373:103|373:103|380:237,1,266.666666666667,0|0,3:0|0:0,0:0:0:0:
187,380,58807,6,0,P|162:350|160:303,1,86.6666626993817,0|0,1:0|0:0,0:0:0:0:
201,227,59140,1,0,1:0:0:0:
402,246,59307,6,0,P|388:282|348:307,1,86.6666626993817,0|0,1:0|1:0,0:0:0:0:
262,310,59640,1,0,0:0:0:0:
177,126,59807,6,0,P|215:119|257:141,1,86.6666626993817,8|0,0:2|0:0,0:0:0:0:
303,215,60140,1,0,0:0:0:0:
187,380,60307,2,0,L|14:362,1,173.333325398763,0|0,3:0|0:0,0:0:0:0:
25,161,60807,6,0,P|81:192|106:259,1,133.333333333333,0|0,1:2|0:0,0:0:0:0:
259,181,61307,2,0,P|204:213|102:170,1,173.333325398763,0|0,1:0|1:0,0:0:0:0:
89,373,61807,2,0,P|87:309|206:236,1,213.333333333333,8|0,0:2|0:0,0:0:0:0:
178,47,62307,6,0,B|143:76|148:125|148:125|128:80|84:71,1,173.333325398763,0|0,3:0|1:0,0:0:0:0:
242,112,62807,6,0,P|299:105|331:105,1,86.6666626993817
414,109,63140,1,0,1:0:0:0:
201,235,63307,6,0,P|145:219|114:214,1,86.6666626993817,0|0,1:0|1:0,0:0:0:0:
31,205,63640,1,0,0:0:0:0:
328,211,63807,6,0,P|317:296|330:381,1,173.333325398763,8|0,0:2|3:0,0:0:0:0:
472,312,64306,2,0,P|431:301|393:300,1,50.0000019073487,0|0,0:2|3:0,0:0:0:0:
19,329,64806,6,0,P|62:303|112:301,1,100,0|0,1:2|0:0,0:0:0:0:
128,307,65140,1,0,0:0:0:0:
151,74,65306,2,0,B|83:57|16:97|4:171|4:171|8:208|44:244,1,266.666666666667,0|0,3:2|0:0,0:0:0:0:
206,337,65807,6,0,P|248:362|298:364,1,100,8|0,0:2|0:0,0:0:0:0:
314,360,66141,1,0,0:0:0:0:
347,106,66307,2,0,B|279:89|212:129|200:203|200:203|204:240|240:276,1,266.666666666667,0|0,3:2|0:0,0:0:0:0:
442,371,66807,6,0,P|469:326|474:290,1,86.6666626993817,0|0,1:0|0:0,0:0:0:0:
481,204,67140,1,0,1:0:0:0:
288,231,67307,6,0,P|260:186|255:150,1,86.6666626993817,0|0,1:0|1:0,0:0:0:0:
249,64,67640,1,0,0:0:0:0:
481,204,67807,6,0,P|376:185|289:232,1,173.333325398763,8|0,0:2|0:0,0:0:0:0:
258,342,68307,2,0,B|283:352|298:369|298:369|315:355|344:350,1,100.000003814697,0|0,3:0|0:0,0:0:0:0:
316,208,68807,6,0,P|309:166|329:113,1,100,0|0,1:0|0:0,0:0:0:0:
342,104,69140,1,0,0:0:0:0:
217,164,69307,2,0,P|257:178|304:296,1,173.333325398763,0|0,1:0|1:0,0:0:0:0:
341,103,69807,2,0,P|307:130|159:88,1,213.333333333333,8|0,0:2|0:0,0:0:0:0:
38,160,70307,6,0,B|2:193|23:239|23:239|73:246|95:203,1,173.333325398763,0|0,3:0|3:0,0:0:0:0:
159,88,70807,6,0,P|196:66|238:58,1,86.6666626993817,0|0,1:0|0:0,0:0:0:0:
326,78,71140,1,0,1:0:0:0:
512,192,71307,6,0,P|474:170|432:162,1,86.6666626993817,0|0,1:0|1:0,0:0:0:0:
347,178,71640,1,0,1:0:0:0:
206,328,71807,6,0,P|283:289|369:285,1,173.333325398763,8|4,0:2|3:0,0:0:0:0:
512,192,72307,5,8,0:3:0:0:
494,195,72473,1,0,0:0:0:0:
476,198,72640,1,8,0:3:0:0:
317,65,72807,6,0,P|377:50|443:86,1,133.333333333333,4|0,1:1|0:0,0:0:0:0:
443,289,73307,2,0,B|368:302|335:360|335:360|320:296|252:262,1,266.666666666667,0|0,3:0|0:0,0:0:0:0:
95,74,73807,6,0,P|144:99|218:89,1,100,8|0,0:2|0:0,0:0:0:0:
204,94,74140,1,0,0:0:0:0:
208,313,74307,2,0,B|133:326|100:384|100:384|85:320|17:286,1,266.666666666667,0|0,3:0|0:0,0:0:0:0:
212,243,74807,6,0,P|253:232|303:239,1,86.6666626993817,0|0,1:0|0:0,0:0:0:0:
374,274,75140,1,0,1:0:0:0:
475,63,75307,6,0,P|463:104|431:144,1,86.6666626993817,0|0,1:0|1:0,0:0:0:0:
366,188,75640,1,0,1:0:0:0:
498,381,75807,6,0,P|468:349|449:303,1,86.6666626993817,8|0,0:2|0:0,0:0:0:0:
444,224,76140,1,0,3:0:0:0:
475,63,76307,2,0,B|389:46|396:121|314:105,1,173.333325398763
144,220,76807,6,0,P|118:178|34:151,1,133.333333333333,0|0,1:0|0:0,0:0:0:0:
198,155,77307,2,0,P|173:213|187:275,1,129.999994049073,0|0,1:0|0:0,0:0:0:0:
203,290,77640,1,0,1:0:0:0:
115,143,77807,2,0,P|164:141|241:11,1,213.333333333333,8|0,0:2|0:0,0:0:0:0:
38,233,78307,6,0,B|73:262|68:311|68:311|88:266|132:257,1,173.333325398763,0|0,3:0|1:0,0:0:0:0:
277,327,78807,6,0,P|246:300|185:291,1,86.6666626993817
209,372,79140,1,0,1:0:0:0:
438,273,79307,6,0,P|469:246|530:237,1,86.6666626993817,0|0,1:0|1:0,0:0:0:0:
506,318,79640,1,0,0:0:0:0:
321,177,79807,6,0,P|326:112|291:5,1,173.333325398763,8|0,0:2|3:0,0:0:0:0:
392,83,80307,2,0,P|435:96|485:91,1,50.0000019073487,0|0,0:0|3:0,0:0:0:0:
120,83,80807,6,0,P|77:96|21:90,1,100,0|0,1:0|0:0,0:0:0:0:
7,82,81140,1,0,0:0:0:0:
34,283,81307,2,0,B|20:327|82:368|145:342|150:261|108:195|59:143,1,266.666666666667,0|0,3:0|0:0,0:0:0:0:
320,43,81807,6,0,P|277:30|221:36,1,100,8|0,0:2|0:0,0:0:0:0:
207,44,82140,1,0,0:0:0:0:
226,246,82307,2,0,B|212:290|274:331|337:305|342:224|300:158|251:106,1,266.666666666667,0|0,3:0|0:0,0:0:0:0:
343,245,82807,6,0,P|386:233|437:248,1,86.6666626993817,0|0,1:0|0:0,0:0:0:0:
501,285,83140,1,0,1:0:0:0:
378,83,83307,6,0,P|366:126|328:162,1,86.6666626993817,0|0,1:0|1:0,0:0:0:0:
264,200,83640,1,0,1:0:0:0:
500,195,83807,6,0,P|468:163|455:112,1,86.6666626993817,8|0,0:2|0:0,0:0:0:0:
456,38,84140,1,0,0:0:0:0:
203,10,84307,2,0,P|274:85|378:82,1,213.333333333333,0|0,3:0|0:0,0:0:0:0:
500,195,84807,6,0,B|429:163|352:221|375:228|324:302|236:283,1,293.333342285157,0|0,1:0|0:0,0:0:0:0:
62,129,85307,2,0,B|136:109|180:173|160:179|227:229|288:200,1,253.333326568604,0|0,1:0|1:0,0:0:0:0:
395,63,85807,6,0,P|344:43|257:106,1,160,8|0,0:2|0:0,0:0:0:0:
254,109,86140,1,0,0:0:0:0:
137,245,86307,6,0,P|76:264|19:237,1,129.999994049073,0|0,3:2|0:0,0:0:0:0:
7,225,86640,1,0,1:0:0:0:
54,93,86807,6,0,P|79:129|83:176,1,86.6666626993817
50,352,87140,1,0,1:0:0:0:
208,253,87307,6,0,B|287:215|353:276|332:288|420:327|482:280,1,293.333342285157,0|0,1:0|1:0,0:0:0:0:
407,205,87807,5,8,0:2:0:0:
269,339,87973,1,0,0:2:0:0:
264,360,88140,1,4,0:3:0:0:
111,8,88306,1,2,0:2:0:0:
119,31,88807,5,4,0:1:0:0:
