osu file format v14

[General]
AudioFilename: audio.mp3
AudioLeadIn: 0
PreviewTime: 56723
Countdown: 0
SampleSet: Soft
StackLeniency: 0.2
Mode: 0
LetterboxInBreaks: 0
WidescreenStoryboard: 1

[Editor]
Bookmarks: 8807,24807,40307,40807,56807,68807,71807,72307,72807,80807,88807
DistanceSpacing: 1
BeatDivisor: 3
GridSize: 4
TimelineZoom: 0.6999997

[Metadata]
Title:Jishou Mushoku (Cut Ver.)
TitleUnicode:自傷無色 (Cut Ver.)
Artist:Hanatan
ArtistUnicode:花たん
Creator:rHO
Version:Light Insane
Source:
Tags:smh saturnalize jace tatemae allihoppa sherrycherry loreley anishina kodoku emilia estellia- cut nekobolo ねこぼーろ utaite hatsune miku vocaloid self-inflicted achromatic japanese folk
BeatmapID:2861704
BeatmapSetID:1270237

[Difficulty]
HPDrainRate:4
CircleSize:3.8
OverallDifficulty:5.8
ApproachRate:7
SliderMultiplier:1.5
SliderTickRate:1

[Events]
//Background and Video events
0,0,"thumbahermitsdream.jpg",0,0
//Break Periods
//Storyboard Layer 0 (Background)
//Storyboard Layer 1 (Fail)
//Storyboard Layer 2 (Pass)
//Storyboard Layer 3 (Foreground)
//Storyboard Layer 4 (Overlay)
//Storyboard Sound Samples

[TimingPoints]
807,500,4,2,2,20,1,0
1640,-100,4,2,2,20,0,0
1807,-100,4,2,2,20,0,0
5640,-100,4,2,2,20,0,0
5807,-100,4,2,2,20,0,0
6640,-100,4,2,2,20,0,0
6807,-100,4,2,2,20,0,0
8057,-100,4,2,2,20,0,0
8390,-100,4,2,2,20,0,0
8557,-100,4,2,2,20,0,0
8807,-83.3333333333333,4,2,53,60,0,0
9140,-83.3333333333333,4,2,53,60,0,0
9182,-83.3333333333333,4,2,53,60,0,0
9307,-83.3333333333333,4,2,53,60,0,0
10015,-83.3333333333333,4,2,53,60,0,0
10098,-83.3333333333333,4,2,53,60,0,0
12015,-83.3333333333333,4,2,53,60,0,0
12098,-83.3333333333333,4,2,53,60,0,0
12640,-83.3333333333333,4,2,53,5,0,0
12682,-83.3333333333333,4,2,53,60,0,0
12807,-83.3333333333333,4,2,53,60,0,0
16807,-83.3333333333333,4,2,53,60,0,0
17140,-83.3333333333333,4,2,53,60,0,0
17182,-83.3333333333333,4,2,53,60,0,0
17223,-83.3333333333333,4,2,53,60,0,0
17307,-83.3333333333333,4,2,53,60,0,0
18015,-83.3333333333333,4,2,53,60,0,0
18098,-83.3333333333333,4,2,53,60,0,0
20640,-83.3333333333333,4,2,53,5,0,0
20682,-83.3333333333333,4,2,53,60,0,0
20807,-83.3333333333333,4,2,53,60,0,0
24807,-107.52688172043,4,2,53,60,0,0
24973,-107.52688172043,4,2,53,60,0,0
28307,-107.52688172043,4,2,53,60,0,0
28473,-107.52688172043,4,2,53,60,0,0
28640,-107.52688172043,4,2,53,60,0,0
28807,-107.52688172043,4,2,53,60,0,0
32306,-107.52688172043,4,2,53,60,0,0
32473,-107.52688172043,4,2,53,60,0,0
32640,-107.52688172043,4,2,53,60,0,0
32807,-107.52688172043,4,2,53,60,0,0
39807,-107.52688172043,4,2,53,60,0,0
39973,-107.52688172043,4,2,53,60,0,0
40140,-107.52688172043,4,2,53,60,0,0
40390,-107.52688172043,4,2,53,40,0,0
40473,-94.3396226415094,4,2,53,40,0,0
40557,-94.3396226415094,4,2,53,60,0,0
41223,-94.3396226415094,4,2,53,60,0,0
41307,-94.3396226415094,4,2,53,60,0,0
47807,-94.3396226415094,4,2,53,60,0,0
47973,-94.3396226415094,4,2,53,60,0,0
48140,-94.3396226415094,4,2,53,60,0,0
48473,-94.3396226415094,4,2,53,60,0,0
48807,-94.3396226415094,4,2,53,60,0,0
49223,-94.3396226415094,4,2,53,60,0,0
49307,-94.3396226415094,4,2,53,60,0,0
54807,-83.3333333333333,4,2,53,60,0,0
55807,-83.3333333333333,4,2,53,60,0,0
56307,-83.3333333333333,4,3,2,60,0,0
56390,-83.3333333333333,4,2,53,5,0,0
56807,-76.9230769230769,4,2,53,70,0,0
57140,-76.9230769230769,4,2,53,70,0,0
57182,-76.9230769230769,4,2,53,70,0,0
57223,-76.9230769230769,4,2,53,70,0,0
57307,-76.9230769230769,4,2,53,70,0,0
57682,-76.9230769230769,4,2,53,70,0,0
57723,-76.9230769230769,4,2,53,70,0,0
57807,-76.9230769230769,4,2,53,70,0,0
58015,-76.9230769230769,4,2,53,70,0,0
58098,-76.9230769230769,4,2,53,70,0,0
58140,-76.9230769230769,4,2,53,70,0,0
58182,-76.9230769230769,4,2,53,70,0,0
58223,-76.9230769230769,4,2,53,70,0,0
58307,-76.9230769230769,4,2,53,70,0,0
58682,-76.9230769230769,4,2,53,70,0,0
58723,-76.9230769230769,4,2,53,70,0,0
58807,-76.9230769230769,4,2,53,70,0,0
59057,-76.9230769230769,4,2,53,70,0,0
59140,-76.9230769230769,4,2,53,70,0,0
59223,-76.9230769230769,4,2,53,70,0,0
59307,-76.9230769230769,4,2,53,70,0,0
59557,-76.9230769230769,4,2,53,70,0,0
59640,-76.9230769230769,4,2,53,70,0,0
59723,-76.9230769230769,4,2,53,70,0,0
59807,-76.9230769230769,4,2,53,70,0,0
60057,-76.9230769230769,4,2,53,70,0,0
60140,-76.9230769230769,4,2,53,70,0,0
60223,-76.9230769230769,4,2,53,70,0,0
60307,-76.9230769230769,4,2,53,70,0,0
60640,-76.9230769230769,4,2,53,70,0,0
60723,-76.9230769230769,4,2,53,70,0,0
60807,-76.9230769230769,4,2,53,70,0,0
65015,-76.9230769230769,4,2,53,70,0,0
65098,-76.9230769230769,4,2,53,70,0,0
65139,-76.9230769230769,4,2,53,70,0,0
65181,-76.9230769230769,4,2,53,70,0,0
65222,-76.9230769230769,4,2,53,70,0,0
65306,-76.9230769230769,4,2,53,70,0,0
65723,-76.9230769230769,4,2,53,70,0,0
65807,-76.9230769230769,4,2,53,70,0,0
66015,-76.9230769230769,4,2,53,70,0,0
66098,-76.9230769230769,4,2,53,70,0,0
66140,-76.9230769230769,4,2,53,70,0,0
66223,-76.9230769230769,4,2,53,70,0,0
66307,-76.9230769230769,4,2,53,70,0,0
66723,-76.9230769230769,4,2,53,70,0,0
66807,-76.9230769230769,4,2,53,70,0,0
67057,-76.9230769230769,4,2,53,70,0,0
67140,-76.9230769230769,4,2,53,70,0,0
67223,-76.9230769230769,4,2,53,70,0,0
67307,-76.9230769230769,4,2,53,70,0,0
67557,-76.9230769230769,4,2,53,70,0,0
67640,-76.9230769230769,4,2,53,70,0,0
67723,-76.9230769230769,4,2,53,70,0,0
67807,-76.9230769230769,4,2,53,70,0,0
68223,-76.9230769230769,4,2,53,70,0,0
68307,-76.9230769230769,4,2,53,70,0,0
69015,-76.9230769230769,4,2,53,70,0,0
69098,-76.9230769230769,4,2,53,70,0,0
73140,-76.9230769230769,4,2,53,70,0,0
73223,-76.9230769230769,4,2,53,70,0,0
73307,-76.9230769230769,4,2,53,70,0,0
74015,-76.9230769230769,4,2,53,70,0,0
74098,-76.9230769230769,4,2,53,70,0,0
74140,-76.9230769230769,4,2,53,70,0,0
74223,-76.9230769230769,4,2,53,70,0,0
74307,-76.9230769230769,4,2,53,70,0,0
75057,-76.9230769230769,4,2,53,70,0,0
75140,-76.9230769230769,4,2,53,70,0,0
75223,-76.9230769230769,4,2,53,70,0,0
75307,-76.9230769230769,4,2,53,70,0,0
75557,-76.9230769230769,4,2,53,70,0,0
75640,-76.9230769230769,4,2,53,70,0,0
75723,-76.9230769230769,4,2,53,70,0,0
75807,-76.9230769230769,4,2,53,70,0,0
77515,-76.9230769230769,4,2,53,70,0,0
77598,-76.9230769230769,4,2,53,70,0,0
78557,-76.9230769230769,4,2,53,70,0,0
78640,-76.9230769230769,4,2,53,70,0,0
78723,-76.9230769230769,4,2,53,70,0,0
78807,-76.9230769230769,4,2,53,70,0,0
81015,-76.9230769230769,4,2,53,70,0,0
81098,-76.9230769230769,4,2,53,70,0,0
81140,-76.9230769230769,4,2,53,70,0,0
81223,-76.9230769230769,4,2,53,70,0,0
81307,-76.9230769230769,4,2,53,70,0,0
82015,-76.9230769230769,4,2,53,70,0,0
82098,-76.9230769230769,4,2,53,70,0,0
82140,-76.9230769230769,4,2,53,70,0,0
82223,-76.9230769230769,4,2,53,70,0,0
82307,-76.9230769230769,4,2,53,70,0,0
83057,-76.9230769230769,4,2,53,70,0,0
83140,-76.9230769230769,4,2,53,70,0,0
83223,-76.9230769230769,4,2,53,70,0,0
83307,-76.9230769230769,4,2,53,70,0,0
83557,-76.9230769230769,4,2,53,70,0,0
83640,-76.9230769230769,4,2,53,70,0,0
83723,-76.9230769230769,4,2,53,70,0,0
83807,-76.9230769230769,4,2,53,70,0,0
84723,-76.9230769230769,4,2,53,70,0,0
84807,-76.9230769230769,4,2,53,70,0,0
86015,-76.9230769230769,4,2,53,70,0,0
86098,-76.9230769230769,4,2,53,70,0,0
86515,-76.9230769230769,4,2,53,70,0,0
86598,-76.9230769230769,4,2,53,70,0,0

[Colours]
Combo1 : 219,136,210
Combo2 : 102,151,62
Combo3 : 249,171,40
Combo4 : 218,82,99

[HitObjects]
55,368,807,6,0,P|23:381|-9:374,2,50,2|0|0,0:2|0:2|0:2,0:2:0:0:
112,305,1307,2,0,L|124:204,1,100,0|0,0:2|0:0,0:0:0:0:
89,127,1807,2,0,P|71:100|70:75,2,50,2|0|0,0:2|0:2|0:2,0:2:0:0:
150,67,2307,2,0,L|268:44,1,100,2|0,0:2|0:2,0:2:0:0:
320,2,2807,6,0,P|366:50|462:42,1,150,2|2,0:2|0:2,0:0:0:0:
447,135,3473,2,0,P|442:173|453:200,1,50
451,269,3807,2,0,P|377:267|325:318,1,150,2|2,0:2|0:2,0:0:0:0:
325,318,4807,6,0,L|334:368,2,50,2|0|0,0:2|0:0|0:0,0:0:0:0:
263,258,5307,2,0,L|277:141,1,100
286,74,5807,2,0,P|268:73|229:86,2,50,2|0|0,0:2|0:0|0:0,0:0:0:0:
365,42,6307,2,0,P|428:80|442:119,1,100
458,184,6807,6,0,L|432:346,1,150,2|0,0:2|0:0,0:0:0:0:
350,318,7473,1,0,0:0:0:0:
350,318,7640,1,0,0:0:0:0:
133,376,8807,2,0,P|128:312|81:277,1,119.999996337891,4|0,1:1|0:0,0:0:0:0:
12,208,9307,2,2,L|91:197,2,59.9999981689454,0|0|0,0:0|0:0|1:0,0:1:0:0:
53,114,9807,2,0,P|108:122|164:86,1,119.999996337891,8|0,0:2|0:0,0:0:0:0:
249,37,10307,2,2,L|239:105,2,59.9999981689454,0|0|0,0:0|0:0|1:0,0:1:0:0:
380,0,10807,6,0,P|420:30|428:96,1,119.999996337891,0|0,1:0|1:0,0:0:0:0:
491,175,11307,2,0,P|420:185|383:231,1,119.999996337891,0|0,1:0|0:0,0:0:0:0:
292,140,11807,2,0,P|262:139|224:117,1,59.9999981689454,8|0,0:2|0:0,0:0:0:0:
188,35,12140,1,0,0:0:0:0:
91,67,12307,2,2,L|116:205,1,119.999996337891,0|0,0:0|0:0,0:1:0:0:
151,279,12807,6,0,P|192:293|216:322,2,59.9999981689454,0|0|0,1:0|0:0|0:0,0:0:0:0:
60,325,13307,2,0,L|42:406,2,59.9999981689454,0|0|0,1:0|1:0|1:0,0:0:0:0:
9,236,13807,1,8,0:2:0:0:
41,139,13973,1,0,0:0:0:0:
139,112,14140,1,0,0:0:0:0:
230,158,14307,2,0,L|242:224,2,59.9999981689454,0|0|0,0:0|3:0|1:0,0:0:0:0:
285,72,14807,6,0,P|331:77|396:32,1,119.999996337891,0|0,1:2|1:0,0:0:0:0:
490,13,15307,2,0,L|471:135,1,119.999996337891,0|0,1:0|0:0,0:0:0:0:
422,221,15807,1,8,0:2:0:0:
494,292,15973,1,0,0:0:0:0:
447,382,16140,1,0,3:0:0:0:
371,313,16307,2,0,P|322:320|299:336,2,59.9999981689454,0|0|0,0:0|3:0|3:0,0:0:0:0:
241,376,16807,6,0,P|187:383|126:335,1,119.999996337891,0|0,1:0|0:0,0:0:0:0:
125,246,17307,2,2,L|143:167,2,59.9999981689454,0|0|0,0:2|0:0|1:0,0:1:0:0:
36,194,17807,2,0,L|11:56,1,119.999996337891,8|0,0:2|0:0,0:0:0:0:
87,4,18307,2,2,P|133:12|154:27,2,59.9999981689454,0|0|0,0:2|0:0|0:0,0:1:0:0:
201,87,18807,6,0,P|250:96|314:52,1,119.999996337891,0|0,1:0|1:0,0:0:0:0:
397,11,19307,2,0,P|479:30|507:77,1,119.999996337891,0|0,1:0|3:0,0:0:0:0:
389,157,19807,2,0,P|396:194|421:225,1,59.9999981689454,8|0,0:2|0:0,0:0:0:0:
504,246,20140,1,0,0:0:0:0:
454,335,20307,2,2,P|399:337|344:377,1,119.999996337891,0|0,0:2|0:0,0:1:0:0:
271,304,20807,6,0,L|284:221,2,59.9999981689454,0|0|0,1:0|0:0|0:0,0:0:0:0:
183,251,21307,2,0,L|196:168,2,59.9999981689454,0|0|0,1:0|1:0|1:0,0:0:0:0:
110,322,21807,1,8,0:2:0:0:
32,256,21973,1,0,0:0:0:0:
53,156,22140,1,0,0:0:0:0:
6,65,22307,2,0,P|20:24|42:4,2,59.9999981689454,0|0|0,0:0|3:0|3:0,0:0:0:0:
156,24,22807,6,0,P|172:86|136:149,1,119.999996337891,0|0,1:2|1:0,0:0:0:0:
58,180,23307,2,0,L|-6:189,2,59.9999981689454,0|0|0,1:0|1:0|0:0,0:0:0:0:
162,234,23807,2,0,L|226:243,2,59.9999981689454,8|0|4,0:2|0:3|0:3,0:0:0:0:
60,356,24307,2,0,L|-4:365,2,59.9999981689454,8|0|0,0:3|0:0|0:0,0:0:0:0:
191,384,24807,6,0,P|253:347|292:354,1,93.0000029090882,4|0,1:2|0:0,0:0:0:0:
338,306,25307,2,0,L|322:206,1,93.0000029090882
400,196,25807,2,0,P|446:156|446:74,1,139.500004363632,8|0,0:2|0:0,0:0:0:0:
191,5,26807,6,0,L|208:118,1,93.0000029090882,0|0,3:2|1:0,0:0:0:0:
252,160,27307,2,0,P|216:203|211:252,1,93.0000029090882,0|0,1:2|1:0,0:0:0:0:
236,312,27807,2,0,P|224:346|209:366,2,46.5000014545441,8|0|0,0:2|0:0|0:0,0:0:0:0:
313,294,28307,1,0,0:0:0:0:
490,64,28807,6,0,P|443:30|393:36,1,93.0000029090882,0|0,1:2|0:0,0:0:0:0:
342,71,29307,2,0,P|285:77|247:44,1,93.0000029090882
188,19,29807,2,0,L|49:34,1,139.500004363632,8|0,0:2|0:0,0:0:0:0:
135,342,30807,6,0,P|164:290|154:242,1,93.0000029090882,0|0,3:2|1:0,0:0:0:0:
123,188,31307,2,0,L|224:166,1,93.0000029090882,0|0,1:2|1:0,0:0:0:0:
292,157,31807,2,0,L|276:104,2,46.5000014545441,8|0|0,0:2|0:0|0:0,0:0:0:0:
366,182,32306,1,0,0:0:0:0:
151,9,32807,6,0,P|196:49|244:45,1,93.0000029090882,0|0,1:0|0:0,0:0:0:0:
304,34,33307,2,0,L|413:17,1,93.0000029090882
473,37,33807,2,0,P|492:100|446:171,1,139.500004363632,8|0,0:2|0:2,0:0:0:0:
278,373,34807,6,0,L|261:267,1,93.0000029090882,0|0,3:0|1:0,0:0:0:0:
223,212,35307,2,0,P|237:165|274:135,1,93.0000029090882,0|0,1:0|1:0,0:0:0:0:
233,66,35807,1,8,0:2:0:0:
233,66,36307,2,0,P|191:65|144:30,1,93.0000029090882
309,38,36807,6,0,L|407:20,1,93.0000029090882,0|0,1:0|0:0,0:0:0:0:
474,49,37307,2,0,P|492:97|473:151,1,93.0000029090882
439,202,37807,2,0,P|361:157|300:169,1,139.500004363632,8|0,0:2|0:2,0:0:0:0:
76,346,38807,6,0,P|104:298|96:242,1,93.0000029090882,0|0,3:0|1:0,0:0:0:0:
44,208,39307,2,0,L|24:104,1,93.0000029090882,0|0,1:0|1:0,0:0:0:0:
47,40,39807,2,0,P|85:24|111:24,2,46.5000014545441,8|2|2,0:2|0:3|0:3,0:0:0:0:
152,103,40307,2,0,P|184:109|207:129,1,46.5000014545441,4|2,0:3|0:3,0:0:0:0:
236,196,40640,1,2,0:3:0:0:
283,85,40807,6,0,L|269:25,2,53.0000000808716,4|0|0,1:2|0:0|0:0,0:0:0:0:
372,104,41307,2,0,P|442:120|468:148,1,106.000000161743,0|0,0:0|1:0,0:0:0:0:
459,233,41807,2,0,P|438:278|437:302,1,53.0000000808716,8|0,0:2|0:0,0:0:0:0:
480,360,42140,1,0,0:0:0:0:
393,384,42307,2,0,L|268:366,1,106.000000161743,0|0,0:2|1:0,0:0:0:0:
198,381,42807,6,0,P|171:338|182:270,1,106.000000161743,0|0,0:0|1:0,0:0:0:0:
93,245,43307,2,0,P|116:200|181:175,1,106.000000161743,0|0,1:0|1:0,0:0:0:0:
158,86,43807,2,0,P|208:84|262:127,1,106.000000161743,8|0,0:2|0:0,0:0:0:0:
329,63,44307,2,0,P|355:105|344:173,1,106.000000161743,0|0,3:2|0:0,0:0:0:0:
293,227,44807,6,0,L|277:341,1,106.000000161743,0|0,1:0|0:0,0:0:0:0:
352,382,45307,2,0,P|391:375|415:360,1,53.0000000808716,0|0,0:0|1:0,0:0:0:0:
439,286,45640,1,0,1:0:0:0:
509,229,45807,2,0,P|496:165|451:127,1,106.000000161743,8|0,0:2|0:0,0:0:0:0:
379,127,46307,2,0,L|270:145,1,106.000000161743,0|0,0:2|1:0,0:0:0:0:
208,205,46807,6,0,P|152:210|104:172,1,106.000000161743,0|0,0:0|1:0,0:0:0:0:
45,122,47307,2,0,P|52:90|73:65,2,53.0000000808716,0|0|0,1:0|1:0|1:0,0:0:0:0:
4,245,47807,2,0,P|36:268|51:302,1,53.0000000808716,8|0,0:2|0:2,0:0:0:0:
74,368,48140,1,0,0:2:0:0:
74,368,48307,1,0,0:0:0:0:
327,273,48807,6,0,L|319:325,2,53.0000000808716,0|0|0,1:2|0:0|0:0,0:0:0:0:
289,190,49307,2,0,P|318:155|380:134,1,106.000000161743,0|0,0:0|1:0,0:0:0:0:
450,86,49807,2,0,P|482:94|512:93,2,53.0000000808716,8|0|0,0:2|0:0|0:0,0:0:0:0:
390,18,50307,2,0,L|270:-4,1,106.000000161743,0|0,0:2|1:0,0:0:0:0:
198,23,50807,6,0,P|227:87|219:131,1,106.000000161743,0|0,0:0|1:0,0:0:0:0:
301,163,51307,2,0,P|260:220|217:235,1,106.000000161743,0|0,1:0|1:0,0:0:0:0:
232,322,51807,2,0,P|162:315|127:286,1,106.000000161743,8|0,0:2|0:0,0:0:0:0:
60,341,52307,2,0,P|30:277|38:233,1,106.000000161743,0|0,3:2|0:0,0:0:0:0:
2,159,52807,6,0,L|125:143,1,106.000000161743,0|0,1:0|0:0,0:0:0:0:
191,176,53307,2,0,P|221:144|231:121,2,53.0000000808716,0|0|0,0:0|1:0|1:0,0:0:0:0:
210,5,53807,2,0,P|273:38|327:29,1,106.000000161743,8|0,0:2|0:0,0:0:0:0:
391,8,54307,2,0,P|428:20|445:34,1,53.0000000808716,0|0,3:2|0:0,0:0:0:0:
489,103,54640,1,0,1:0:0:0:
438,191,54807,6,0,P|365:202|322:236,1,119.999996337891,0|0,0:0|1:0,0:0:0:0:
239,278,55307,2,0,L|223:148,1,119.999996337891,0|2,1:2|1:3,0:0:0:0:
211,57,55807,1,8,0:2:0:0:
211,57,56807,6,0,P|185:17|89:17,1,129.999994049073,4|0,1:1|0:0,0:0:0:0:
57,104,57307,2,0,P|26:124|-8:127,2,64.9999970245363,0|0|0,3:0|0:0|0:0,0:0:0:0:
132,185,57807,2,0,L|154:342,1,129.999994049073,8|0,0:2|0:0,0:0:0:0:
250,266,58307,2,0,P|267:225|260:178,2,64.9999970245363,0|0|0,3:0|0:0|0:0,0:0:0:0:
281,372,58807,6,0,P|317:352|348:350,1,64.9999970245363,0|0,1:0|0:0,0:0:0:0:
449,366,59140,1,0,1:0:0:0:
504,269,59307,2,0,P|453:256|429:234,1,64.9999970245363,0|0,1:0|1:0,0:0:0:0:
375,161,59640,1,0,0:0:0:0:
434,67,59807,5,8,0:2:0:0:
434,67,59973,1,0,0:0:0:0:
339,9,60140,1,0,0:0:0:0:
268,94,60307,2,0,P|276:168|233:223,1,129.999994049073
185,304,60807,6,0,L|48:285,1,129.999994049073,0|0,1:0|0:0,0:0:0:0:
0,190,61307,2,0,L|12:117,2,64.9999970245363,0|0|0,1:0|0:0|1:0,0:0:0:0:
106,160,61807,2,0,P|109:110|48:40,1,129.999994049073,8|0,0:2|0:0,0:0:0:0:
170,19,62307,2,0,P|206:16|235:-6,2,64.9999970245363,0|0|0,3:0|0:0|1:0,0:0:0:0:
206,123,62807,6,0,P|251:143|277:141,1,64.9999970245363
371,109,63140,1,0,1:0:0:0:
459,175,63307,2,0,L|444:249,1,64.9999970245363,0|0,1:0|1:0,0:0:0:0:
427,347,63640,1,0,0:0:0:0:
318,324,63807,5,8,0:2:0:0:
318,324,63973,1,0,0:0:0:0:
229,383,64140,1,0,3:0:0:0:
170,289,64306,5,0,0:0:0:0:
170,289,64473,1,0,3:0:0:0:
62,262,64640,1,0,0:0:0:0:
118,167,64806,6,0,P|76:175|0:121,1,129.999994049073,0|0,1:0|0:0,0:0:0:0:
36,25,65306,2,0,P|85:8|118:10,2,64.9999970245363,0|0|0,3:2|0:0|0:0,0:0:0:0:
131,82,65807,2,0,L|265:105,1,129.999994049073,8|0,0:2|0:0,0:0:0:0:
362,65,66307,2,0,L|349:-9,2,64.9999970245363,0|0|0,3:2|0:0|0:0,0:0:0:0:
461,112,66807,5,0,1:2:0:0:
461,112,66973,1,0,0:0:0:0:
414,212,67140,1,0,1:0:0:0:
473,305,67307,5,0,1:2:0:0:
473,305,67473,1,0,1:0:0:0:
384,371,67640,1,0,0:0:0:0:
317,282,67807,6,0,P|272:286|240:311,1,64.9999970245363,8|0,0:2|0:0,0:0:0:0:
255,295,68307,2,0,P|274:253|268:225,2,64.9999970245363,0|0|0,3:0|0:0|0:0,0:0:0:0:
210,193,68807,6,0,L|184:46,1,129.999994049073,0|0,1:0|0:0,0:0:0:0:
91,9,69307,2,0,P|31:34|4:106,1,129.999994049073,0|0,1:0|1:0,0:0:0:0:
21,199,69807,2,0,P|62:226|74:265,2,64.9999970245363,8|0|0,0:2|0:0|0:0,0:0:0:0:
0,308,70307,2,0,P|57:318|107:384,1,129.999994049073,0|0,3:2|3:0,0:0:0:0:
206,331,70807,6,0,P|214:285|234:260,1,64.9999970245363,0|0,1:0|0:0,0:0:0:0:
319,214,71140,1,0,1:0:0:0:
327,103,71307,2,0,P|290:68|268:61,1,64.9999970245363,0|0,1:0|1:0,0:0:0:0:
172,98,71640,1,0,1:0:0:0:
87,26,71807,5,8,0:2:0:0:
87,26,71973,1,0,0:0:0:0:
28,120,72140,1,4,0:3:0:0:
114,189,72307,2,0,P|108:244|90:266,1,64.9999970245363,8|0,0:3|0:3,0:0:0:0:
24,328,72640,1,8,0:3:0:0:
221,374,72807,6,0,P|204:322|253:250,1,129.999994049073,4|0,1:1|0:0,0:0:0:0:
244,148,73307,2,0,L|171:131,2,64.9999970245363,0|0|0,3:0|0:0|0:0,0:0:0:0:
351,123,73807,2,0,P|383:186|365:261,1,129.999994049073,8|0,0:2|0:0,0:0:0:0:
472,294,74307,2,0,P|496:250|519:236,2,64.9999970245363,0|0|0,3:0|0:0|0:0,0:0:0:0:
394,372,74807,6,0,L|325:382,1,64.9999970245363,0|0,1:2|0:0,0:0:0:0:
232,328,75140,1,0,1:0:0:0:
130,373,75307,2,0,P|72:365|46:340,1,64.9999970245363,0|0,1:0|1:0,0:0:0:0:
3,272,75640,1,0,0:0:0:0:
69,183,75807,5,8,0:2:0:0:
69,183,75973,1,0,0:0:0:0:
25,81,76140,1,0,0:0:0:0:
111,12,76307,2,0,L|263:35,1,129.999994049073,0|0,0:2|0:0,0:0:0:0:
346,1,76807,6,0,P|383:60|359:130,1,129.999994049073,0|0,1:2|0:0,0:0:0:0:
276,173,77307,2,0,P|242:160|218:132,2,64.9999970245363,0|0|0,1:2|0:0|1:0,0:0:0:0:
255,281,77807,2,0,P|212:249|121:257,1,129.999994049073,8|0,0:2|0:0,0:0:0:0:
53,319,78307,2,0,L|41:384,2,64.9999970245363,0|0|0,3:2|0:0|1:0,0:0:0:0:
4,219,78807,6,0,P|11:168|26:145,1,64.9999970245363
117,108,79140,1,0,1:0:0:0:
220,146,79307,2,0,P|270:135|292:112,1,64.9999970245363,0|0,1:0|1:0,0:0:0:0:
344,37,79640,1,0,0:0:0:0:
451,64,79807,5,8,0:2:0:0:
451,64,79973,1,0,0:0:0:0:
471,172,80140,1,0,3:0:0:0:
372,221,80307,5,0,0:0:0:0:
372,221,80473,1,0,3:0:0:0:
339,326,80640,1,0,0:0:0:0:
438,374,80807,6,0,P|492:336|496:263,1,129.999994049073,0|0,1:0|0:0,0:0:0:0:
456,174,81307,2,0,L|475:99,2,64.9999970245363,0|0|0,3:0|0:0|0:0,0:0:0:0:
379,93,81807,2,0,L|235:70,1,129.999994049073,8|0,0:2|0:0,0:0:0:0:
151,23,82307,2,0,P|104:28|73:48,2,64.9999970245363,0|0|0,3:0|0:0|0:0,0:0:0:0:
149,133,82807,6,0,L|160:212,1,64.9999970245363,0|0,1:0|0:0,0:0:0:0:
121,301,83140,1,0,1:0:0:0:
198,379,83307,2,0,P|223:364|265:361,1,64.9999970245363,0|0,1:0|1:0,0:0:0:0:
368,372,83640,1,0,0:0:0:0:
429,280,83807,5,8,0:2:0:0:
429,280,83973,1,0,0:0:0:0:
383,179,84140,1,0,0:0:0:0:
486,140,84307,2,0,P|511:93|505:59,1,64.9999970245363,0|0,3:0|0:0,0:0:0:0:
435,1,84640,1,0,0:0:0:0:
330,37,84807,6,0,P|322:77|330:115,2,64.9999970245363,0|0|0,1:2|0:0|0:0,0:0:0:0:
182,37,85307,2,0,P|190:77|182:115,2,64.9999970245363,0|0|0,1:2|0:0|0:0,0:0:0:0:
224,176,85807,2,0,P|255:170|295:180,1,64.9999970245363,8|0,0:2|0:0,0:0:0:0:
255,282,86140,1,0,0:0:0:0:
199,377,86307,2,0,P|151:361|107:367,2,64.9999970245363,0|0|0,3:0|0:0|1:0,0:0:0:0:
313,377,86807,6,0,P|361:361|405:367,2,64.9999970245363,0|0|0,0:0|0:0|1:0,0:0:0:0:
334,268,87307,2,0,L|348:193,2,64.9999970245363,0|0|0,1:0|1:0|1:0,0:0:0:0:
178,268,87807,2,0,L|164:193,2,64.9999970245363,8|0|4,0:2|0:0|0:3,0:0:0:0:
256,136,88307,1,2,0:2:0:0:
256,136,88807,5,4,0:1:0:0:
