osu file format v14

[General]
AudioFilename: audio.mp3
AudioLeadIn: 0
PreviewTime: 56723
Countdown: 0
SampleSet: Soft
StackLeniency: 0.7
Mode: 0
LetterboxInBreaks: 0
WidescreenStoryboard: 1

[Editor]
Bookmarks: 8807,24807,40807,56807,72807,88807
DistanceSpacing: 1
BeatDivisor: 12
GridSize: 32
TimelineZoom: 2

[Metadata]
Title:Jishou Mushoku (Cut Ver.)
TitleUnicode:自傷無色 (Cut Ver.)
Artist:Hanatan
ArtistUnicode:花たん
Creator:rHO
Version:Jace's Normal
Source:
Tags:smh saturnalize jace tatemae allihoppa sherrycherry loreley anishina kodoku emilia estellia- cut nekobolo ねこぼーろ utaite hatsune miku vocaloid self-inflicted achromatic japanese folk
BeatmapID:2842977
BeatmapSetID:1270237

[Difficulty]
HPDrainRate:4
CircleSize:3.5
OverallDifficulty:4
ApproachRate:5.5
SliderMultiplier:1.3
SliderTickRate:1

[Events]
//Background and Video events
0,0,"thumbahermitsdream.jpg",0,0
//Break Periods
//Storyboard Layer 0 (Background)
//Storyboard Layer 1 (Fail)
//Storyboard Layer 2 (Pass)
//Storyboard Layer 3 (Foreground)
//Storyboard Layer 4 (Overlay)
//Storyboard Sound Samples

[TimingPoints]
807,500,4,2,2,20,1,0
8807,-100,4,2,53,60,0,0
56807,-100,4,2,53,70,0,0

[Colours]
Combo1 : 219,136,210
Combo2 : 102,151,62
Combo3 : 249,171,40
Combo4 : 218,82,99

[HitObjects]
452,353,8807,6,0,L|466:212,1,130,4|0,1:1|3:0,0:0:0:0:
349,163,9807,2,0,L|337:254,1,86.6666666666666,8|0,0:2|0:0,0:0:0:0:
331,291,10307,2,2,B|287:300|287:300|241:286,1,86.6666666666667,0|0,3:0|0:0,0:1:0:0:
205,275,10807,1,0,1:0:0:0:
123,295,11140,1,0,0:0:0:0:
123,295,11307,1,0,1:0:0:0:
41,315,11640,1,0,0:0:0:0:
41,314,11807,2,0,B|22:254|22:254|39:190,1,130,8|0,0:2|0:0,0:0:0:0:
5,63,12807,6,0,B|101:52|101:52|126:61|126:61|221:51,1,216.666666666667,0|0,1:0|1:0,0:0:0:0:
249,81,13807,2,0,L|377:67,1,130,8|0,0:2|3:0,0:0:0:0:
507,50,14807,2,0,L|493:178,1,130,0|0,1:0|1:0,0:0:0:0:
476,308,15807,2,0,B|413:321|413:321|351:298,1,130,8|0,0:2|0:0,0:0:0:0:
237,363,16807,6,0,L|225:232,1,130,0|0,1:0|0:2,0:0:0:0:
118,310,17807,2,0,B|76:318|76:318|34:303,1,86.6666666666667,8|0,0:2|0:0,0:0:0:0:
3,272,18307,2,2,L|14:181,1,86.6666666666667,0|0,0:2|0:0,0:1:0:0:
20,143,18807,1,0,1:0:0:0:
89,90,19140,1,0,1:0:0:0:
89,90,19307,1,0,1:0:0:0:
178,108,19640,1,0,0:0:0:0:
178,108,19807,2,0,B|311:85,1,130,8|0,0:2|3:0,0:0:0:0:
422,25,20807,6,0,L|409:167,1,130,0|0,1:0|1:0,0:0:0:0:
476,266,21807,2,0,B|419:293|419:293|348:273,1,130,8|0,0:2|3:0,0:0:0:0:
253,359,22807,2,0,B|238:264|238:264|262:205|262:205|245:102,1,260,0|8,1:0|0:2,0:0:0:0:
117,82,24307,1,8,0:3:0:0:
42,188,24807,6,0,P|119:215|178:193,1,130,4|0,1:2|0:2,0:0:0:0:
249,300,25807,2,0,L|262:170,1,130,8|0,0:2|0:2,0:0:0:0:
319,106,26640,1,0,1:0:0:0:
319,106,26807,2,0,B|383:87|383:87|443:103,2,130,0|0|8,0:2|1:0|0:2,0:0:0:0:
193,71,28307,1,0,0:0:0:0:
70,113,28807,6,0,L|57:276,1,130,0|0,1:2|0:2,0:0:0:0:
141,343,29807,2,0,L|151:213,1,130,8|0,0:2|0:2,0:0:0:0:
236,186,30640,1,0,1:0:0:0:
236,186,30807,2,0,B|301:164|301:164|360:177,2,130,0|0|8,0:2|1:0|0:2,0:0:0:0:
286,305,32306,1,0,0:0:0:0:
405,252,32807,6,0,L|423:117,1,130,0|0,1:0|0:0,0:0:0:0:
349,14,33807,2,0,L|336:106,1,86.6666666666667,8|0,0:2|0:0,0:0:0:0:
331,143,34307,1,0,0:2:0:0:
253,116,34640,1,0,1:0:0:0:
253,116,34807,2,0,L|123:126,2,130,0|0|8,0:2|1:0|0:2,0:0:0:0:
315,229,36307,1,0,0:0:0:0:
280,354,36807,6,0,L|150:344,1,130,0|0,1:0|0:0,0:0:0:0:
20,349,37807,2,0,L|12:252,1,86.6666666666667,8|0,0:2|0:0,0:0:0:0:
11,219,38307,1,0,0:2:0:0:
100,236,38640,1,0,1:0:0:0:
100,236,38807,2,0,B|152:218|152:218|227:232,2,130,0|0|8,0:0|1:0|0:2,0:0:0:0:
8,144,40307,2,0,L|16:47,1,86.6666666666667,4|2,0:3|0:3,0:0:0:0:
21,14,40807,5,4,1:2:0:0:
112,105,41307,2,0,P|152:111|194:94,1,86.6666666666667,0|0,0:2|1:0,0:0:0:0:
225,64,41807,2,0,L|364:52,1,130,8|0,0:2|0:2,0:0:0:0:
456,133,42807,2,0,L|467:3,2,130,0|0|8,0:2|1:2|0:2,0:0:0:0:
352,211,44307,2,0,L|361:324,1,86.6666666666667,0|0,0:2|0:0,0:0:0:0:
364,340,44807,5,0,1:0:0:0:
239,377,45307,2,0,B|224:337|224:337|237:294,1,86.6666666666667,0|0,0:0|1:0,0:0:0:0:
250,253,45807,2,0,B|198:239|198:239|111:260,1,130,8|0,0:2|0:2,0:0:0:0:
9,195,46807,2,0,L|18:135,1,43.3333333333333
51,127,47140,1,0,1:0:0:0:
51,127,47307,2,0,L|176:108,1,86.6666666666667,0|0,1:0|1:0,0:0:0:0:
179,107,47807,1,8,0:2:0:0:
258,68,48140,1,0,3:0:0:0:
258,68,48307,2,0,L|383:87,1,86.6666666666667,0|2,3:0|0:2,0:0:0:0:
386,90,48807,5,0,1:0:0:0:
506,144,49307,2,0,L|499:231,1,86.6666666666667,0|0,0:0|1:0,0:0:0:0:
494,273,49807,2,0,B|432:290|432:290|369:271,1,130,8|0,0:2|0:2,0:0:0:0:
265,349,50807,2,0,L|275:219,2,130,0|0|8,0:2|1:0|0:2,0:0:0:0:
174,255,52307,2,0,B|135:241|135:241|91:253,1,86.6666666666667,0|0,0:2|0:0,0:0:0:0:
50,266,52807,6,0,P|32:204|56:142,1,130,0|0,1:0|0:0,0:0:0:0:
67,16,53807,2,0,P|129:31|170:83,1,130,8|0,0:2|0:0,0:0:0:0:
276,155,54807,2,0,P|231:201|166:210,2,130,0|0|8,0:0|1:2|0:2,0:0:0:0:
479,317,56807,6,0,B|416:301|416:301|355:322,1,130,4|0,1:1|3:0,0:0:0:0:
235,375,57807,1,8,0:2:0:0:
169,326,58140,1,0,0:0:0:0:
169,326,58307,2,0,L|53:318,1,86.6666666666667,0|0,3:0|0:0,0:0:0:0:
39,319,58807,1,0,1:0:0:0:
26,237,59140,1,0,1:0:0:0:
26,237,59307,1,0,1:0:0:0:
15,155,59640,1,0,0:0:0:0:
15,155,59807,2,0,P|71:135|139:153,1,130,8|0,0:2|3:0,0:0:0:0:
254,96,60807,6,0,L|242:243,2,130,0|0|8,1:0|1:0|0:2,0:0:0:0:
367,31,62307,1,0,3:0:0:0:
455,54,62640,1,0,1:0:0:0:
455,54,62807,2,0,L|464:174,1,86.6666666666667,0|0,0:0|1:0,0:0:0:0:
441,178,63307,2,0,L|450:298,1,86.6666666666667,0|0,1:0|0:0,0:0:0:0:
450,307,63807,2,0,L|284:294,1,130,8|0,0:2|0:2,0:0:0:0:
202,350,64806,6,0,B|142:373|142:373|79:354,1,130,0|0,1:2|3:2,0:0:0:0:
0,250,65807,2,0,B|42:233|42:233|86:246,1,86.6666666666667,8|0,0:2|0:0,0:0:0:0:
123,257,66307,2,0,L|110:163,1,86.6666666666667,0|0,3:2|0:0,0:0:0:0:
106,127,66807,1,0,1:0:0:0:
195,145,67140,1,0,1:0:0:0:
195,145,67307,1,0,1:0:0:0:
284,163,67640,1,0,0:0:0:0:
284,163,67807,1,8,0:2:0:0:
412,183,68307,2,0,L|418:288,1,86.6666666666667,0|0,3:0|0:0,0:0:0:0:
419,312,68807,5,0,1:0:0:0:
339,292,69140,1,0,0:0:0:0:
339,292,69307,2,0,B|297:281|297:281|256:297,1,86.6666666666667,0|0,1:0|1:0,0:0:0:0:
222,323,69807,2,0,L|93:305,1,130,8|0,0:2|3:0,0:0:0:0:
20,349,70640,1,0,3:0:0:0:
20,349,70807,2,0,B|8:305|8:305|22:266,1,86.6666666666667,0|0,1:0|1:0,0:0:0:0:
18,223,71307,2,0,B|62:211|62:211|101:225,1,86.6666666666667,0|0,1:0|1:0,0:0:0:0:
143,215,71807,1,8,0:2:0:0:
135,133,72140,1,4,3:0:0:0:
135,133,72307,1,8,0:3:0:0:
124,51,72640,1,8,0:3:0:0:
124,51,72807,6,0,B|183:27|183:27|252:42,1,130,4|0,1:1|3:0,0:0:0:0:
373,66,73807,1,8,0:2:0:0:
459,42,74140,1,0,0:0:0:0:
459,42,74307,2,0,L|467:132,1,86.6666666666667,0|0,3:0|0:0,0:0:0:0:
470,171,74807,1,0,1:0:0:0:
443,255,75140,1,0,1:0:0:0:
443,255,75307,1,0,1:0:0:0:
410,337,75640,1,0,0:0:0:0:
410,337,75807,2,0,L|253:318,1,130,8|0,0:2|3:0,0:0:0:0:
177,241,76807,6,0,L|20:222,1,130,0|0,1:0|1:0,0:0:0:0:
39,143,77640,1,0,1:0:0:0:
39,143,77807,2,0,L|149:156,1,86.6666666666667,8|0,0:2|0:0,0:0:0:0:
155,137,78307,1,0,3:0:0:0:
142,55,78640,1,0,1:0:0:0:
142,55,78807,2,0,B|183:41|183:41|224:53,1,86.6666666666667,0|0,0:0|1:0,0:0:0:0:
258,81,79307,2,0,B|298:93|298:93|340:79,1,86.6666666666667,0|0,1:0|0:0,0:0:0:0:
382,66,79807,2,0,L|536:84,1,130,8|0,0:2|0:0,0:0:0:0:
481,207,80807,6,0,L|464:340,1,130,0|0,1:0|3:0,0:0:0:0:
344,384,81807,2,0,L|333:295,1,86.6666666666667,8|0,0:2|0:0,0:0:0:0:
326,255,82307,2,0,B|285:245|285:245|243:262,1,86.6666666666667,0|0,3:0|0:0,0:0:0:0:
206,285,82807,1,0,1:0:0:0:
135,333,83140,1,0,1:0:0:0:
135,333,83307,1,0,1:0:0:0:
61,297,83640,1,0,1:0:0:0:
61,297,83807,2,0,L|41:136,1,130,8|0,0:2|3:0,0:0:0:0:
130,69,84807,6,8,B|76:64|76:64|56:69|56:69|2:64,2,130,8|8|8,3:0|3:0|3:2,3:0:0:0:
214,42,86140,1,0,0:0:0:0:
214,42,86307,2,0,B|224:82|224:82|206:123,1,86.6666666666667,0|0,3:2|1:0,0:0:0:0:
193,165,86807,2,0,L|215:300,2,130,0|0|8,0:0|1:0|0:2,0:0:0:0:
193,165,88807,1,4,0:1:0:0:
