osu file format v14

[General]
AudioFilename: audio.mp3
AudioLeadIn: 0
PreviewTime: 56723
Countdown: 0
SampleSet: Soft
StackLeniency: 0.7
Mode: 0
LetterboxInBreaks: 0
WidescreenStoryboard: 1

[Editor]
Bookmarks: 56807,64806
DistanceSpacing: 1
BeatDivisor: 12
GridSize: 32
TimelineZoom: 1.2

[Metadata]
Title:Jishou Mushoku (Cut Ver.)
TitleUnicode:自傷無色 (Cut Ver.)
Artist:Hanatan
ArtistUnicode:花たん
Creator:rHO
Version:Hard
Source:
Tags:smh saturnalize jace tatemae allihoppa sherrycherry loreley anishina kodoku emilia estellia- cut nekobolo ねこぼーろ utaite hatsune miku vocaloid self-inflicted achromatic japanese folk
BeatmapID:2668287
BeatmapSetID:1270237

[Difficulty]
HPDrainRate:4
CircleSize:3.8
OverallDifficulty:4
ApproachRate:5.5
SliderMultiplier:1.4
SliderTickRate:1

[Events]
//Background and Video events
0,0,"thumbahermitsdream.jpg",0,0
//Break Periods
//Storyboard Layer 0 (Background)
//Storyboard Layer 1 (Fail)
//Storyboard Layer 2 (Pass)
//Storyboard Layer 3 (Foreground)
//Storyboard Layer 4 (Overlay)
//Storyboard Sound Samples

[TimingPoints]
807,500,4,2,2,20,1,0
8057,-100,4,2,2,15,0,0
8390,-100,4,2,2,20,0,0
8557,-100,4,2,2,30,0,0
8807,-100,4,2,53,60,0,0
9182,-100,4,2,53,60,0,0
9307,-100,4,2,53,60,0,0
10015,-100,4,2,53,60,0,0
10098,-100,4,2,53,60,0,0
12015,-100,4,2,53,60,0,0
12098,-100,4,2,53,60,0,0
12682,-100,4,2,53,60,0,0
12807,-100,4,2,53,60,0,0
13140,-100,4,2,53,60,0,0
13307,-100,4,2,53,60,0,0
15140,-100,4,2,53,60,0,0
15307,-100,4,2,53,60,0,0
15640,-100,4,2,53,60,0,0
15807,-100,4,2,53,60,0,0
16807,-100,4,2,53,60,0,0
17140,-100,4,2,53,60,0,0
17182,-100,4,2,53,60,0,0
17307,-100,4,2,53,60,0,0
18015,-100,4,2,53,60,0,0
18098,-100,4,2,53,60,0,0
20682,-100,4,2,53,60,0,0
20807,-100,4,2,53,60,0,0
21140,-100,4,2,53,60,0,0
21307,-100,4,2,53,60,0,0
23140,-100,4,2,53,60,0,0
23307,-100,4,2,53,60,0,0
23640,-100,4,2,53,60,0,0
23807,-100,4,2,53,60,0,0
24807,-100,4,2,53,60,0,0
24973,-100,4,2,53,60,0,0
26140,-100,4,2,53,60,0,0
26307,-100,4,2,53,60,0,0
26640,-100,4,2,53,60,0,0
26807,-100,4,2,53,60,0,0
28307,-100,4,2,53,60,0,0
28473,-100,4,2,53,60,0,0
28640,-100,4,2,53,60,0,0
28807,-100,4,2,53,60,0,0
30140,-100,4,2,53,60,0,0
30307,-100,4,2,53,60,0,0
30640,-100,4,2,53,60,0,0
30807,-100,4,2,53,60,0,0
32306,-100,4,2,53,60,0,0
32473,-100,4,2,53,60,0,0
32640,-100,4,2,53,60,0,0
32807,-100,4,2,53,60,0,0
36640,-100,4,2,53,60,0,0
36807,-100,4,2,53,60,0,0
38140,-100,4,2,53,60,0,0
38307,-100,4,2,53,60,0,0
38640,-100,4,2,53,60,0,0
38807,-100,4,2,53,60,0,0
39807,-100,4,2,53,60,0,0
39973,-100,4,2,53,60,0,0
40140,-100,4,2,53,60,0,0
40390,-100,4,2,53,40,0,0
40557,-100,4,2,53,60,0,0
41140,-100,4,2,53,60,0,0
41307,-100,4,2,53,60,0,0
41807,-100,4,2,53,60,0,0
42807,-100,4,2,53,60,0,0
44307,-100,4,2,53,60,0,0
46307,-100,4,2,53,60,0,0
46807,-100,4,2,53,60,0,0
47807,-100,4,2,53,60,0,0
47973,-100,4,2,53,60,0,0
48140,-100,4,2,53,60,0,0
48473,-100,4,2,53,60,0,0
48807,-100,4,2,53,60,0,0
49140,-100,4,2,53,60,0,0
49307,-100,4,2,53,60,0,0
49640,-100,4,2,53,60,0,0
49807,-100,4,2,53,60,0,0
50640,-100,4,2,53,60,0,0
50807,-100,4,2,53,60,0,0
52140,-100,4,2,53,60,0,0
52307,-100,4,2,53,60,0,0
54140,-100,4,2,53,60,0,0
54307,-100,4,2,53,60,0,0
54640,-100,4,2,53,60,0,0
54807,-100,4,2,53,60,0,0
55807,-100,4,2,53,60,0,0
56307,-100,4,3,2,60,0,0
56390,-100,4,2,53,5,0,0
56807,-100,4,2,53,70,0,0
57140,-100,4,2,53,70,0,0
57182,-100,4,2,53,70,0,0
57307,-100,4,2,53,70,0,0
57682,-100,4,2,53,70,0,0
57807,-100,4,2,53,70,0,0
58015,-100,4,2,53,70,0,0
58098,-100,4,2,53,70,0,0
58140,-100,4,2,53,70,0,0
58182,-100,4,2,53,70,0,0
58307,-100,4,2,53,70,0,0
58640,-100,4,2,53,70,0,0
58682,-100,4,2,53,70,0,0
58807,-100,4,2,53,70,0,0
59057,-100,4,2,53,70,0,0
59140,-100,4,2,53,70,0,0
59223,-100,4,2,53,70,0,0
59307,-100,4,2,53,70,0,0
59557,-100,4,2,53,70,0,0
59640,-100,4,2,53,70,0,0
59723,-100,4,2,53,70,0,0
59807,-100,4,2,53,70,0,0
60057,-100,4,2,53,70,0,0
60140,-100,4,2,53,70,0,0
60223,-100,4,2,53,70,0,0
60307,-100,4,2,53,70,0,0
60723,-100,4,2,53,70,0,0
60807,-100,4,2,53,70,0,0
65015,-100,4,2,53,70,0,0
65098,-100,4,2,53,70,0,0
65139,-100,4,2,53,70,0,0
65181,-100,4,2,53,70,0,0
65306,-100,4,2,53,70,0,0
65723,-100,4,2,53,70,0,0
65807,-100,4,2,53,70,0,0
66015,-100,4,2,53,70,0,0
66098,-100,4,2,53,70,0,0
66140,-100,4,2,53,70,0,0
66223,-100,4,2,53,70,0,0
66307,-100,4,2,53,70,0,0
66640,-100,4,2,53,70,0,0
66723,-100,4,2,53,70,0,0
66807,-100,4,2,53,70,0,0
67057,-100,4,2,53,70,0,0
67140,-100,4,2,53,70,0,0
67223,-100,4,2,53,70,0,0
67307,-100,4,2,53,70,0,0
67557,-100,4,2,53,70,0,0
67640,-100,4,2,53,70,0,0
67723,-100,4,2,53,70,0,0
67807,-100,4,2,53,70,0,0
68140,-100,4,2,53,70,0,0
68223,-100,4,2,53,70,0,0
68307,-100,4,2,53,70,0,0
69015,-100,4,2,53,70,0,0
69098,-100,4,2,53,70,0,0
69140,-100,4,2,53,70,0,0
69307,-100,4,2,53,70,0,0
71140,-100,4,2,53,70,0,0
71307,-100,4,2,53,70,0,0
73140,-100,4,2,53,70,0,0
73223,-100,4,2,53,70,0,0
73307,-100,4,2,53,70,0,0
74015,-100,4,2,53,70,0,0
74098,-100,4,2,53,70,0,0
74140,-100,4,2,53,70,0,0
74223,-100,4,2,53,70,0,0
74307,-100,4,2,53,70,0,0
75057,-100,4,2,53,70,0,0
75140,-100,4,2,53,70,0,0
75223,-100,4,2,53,70,0,0
75307,-100,4,2,53,70,0,0
75557,-100,4,2,53,70,0,0
75640,-100,4,2,53,70,0,0
75723,-100,4,2,53,70,0,0
75807,-100,4,2,53,70,0,0
76140,-100,4,2,53,70,0,0
76307,-100,4,2,53,70,0,0
77140,-100,4,2,53,70,0,0
77307,-100,4,2,53,70,0,0
77515,-100,4,2,53,70,0,0
77598,-100,4,2,53,70,0,0
78140,-100,4,2,53,70,0,0
78307,-100,4,2,53,70,0,0
78557,-100,4,2,53,70,0,0
78640,-100,4,2,53,70,0,0
78723,-100,4,2,53,70,0,0
78807,-100,4,2,53,70,0,0
80140,-100,4,2,53,70,0,0
80307,-100,4,2,53,70,0,0
81015,-100,4,2,53,70,0,0
81098,-100,4,2,53,70,0,0
81140,-100,4,2,53,70,0,0
81223,-100,4,2,53,70,0,0
81307,-100,4,2,53,70,0,0
82015,-100,4,2,53,70,0,0
82098,-100,4,2,53,70,0,0
82140,-100,4,2,53,70,0,0
82307,-100,4,2,53,70,0,0
83057,-100,4,2,53,70,0,0
83140,-100,4,2,53,70,0,0
83223,-100,4,2,53,70,0,0
83307,-100,4,2,53,70,0,0
83557,-100,4,2,53,70,0,0
83640,-100,4,2,53,70,0,0
83723,-100,4,2,53,70,0,0
83807,-100,4,2,53,70,0,0
84640,-100,4,2,53,70,0,0
84723,-100,4,2,53,70,0,0
84807,-100,4,2,53,70,0,0
85140,-100,4,2,53,70,0,0
85307,-100,4,2,53,70,0,0
85640,-100,4,2,53,70,0,0
85807,-100,4,2,53,70,0,0
86015,-100,4,2,53,70,0,0
86098,-100,4,2,53,70,0,0
86515,-100,4,2,53,70,0,0
86598,-100,4,2,53,70,0,0
86640,-100,4,2,53,70,0,0
86807,-100,4,2,53,70,0,0
87140,-100,4,2,53,70,0,0
87307,-100,4,2,53,70,0,0

[Colours]
Combo1 : 219,136,210
Combo2 : 102,151,62
Combo3 : 249,171,40
Combo4 : 218,82,99

[HitObjects]
0,338,807,6,0,B|81:321|54:382|147:360,1,140,2|0,0:2|0:2,0:2:0:0:
233,265,1807,2,0,P|298:259|350:328,1,140,2|2,0:2|0:2,0:2:0:0:
474,251,2807,5,2,0:2:0:0:
510,115,3307,1,2,0:2:0:0:
374,80,3807,1,2,0:2:0:0:
338,216,4307,1,2,0:2:0:0:
238,117,4807,6,0,B|155:128|191:67|95:87,1,140,2|0,0:2|0:0,0:0:0:0:
4,179,5807,2,0,P|1:248|68:296,1,140,2|0,0:2|0:0,0:0:0:0:
164,373,6807,5,2,0:2:0:0:
183,234,7307,1,0,0:0:0:0:
184,234,8807,6,0,P|178:171|209:134,1,93.3333333333333,4|0,1:1|0:0,0:0:0:0:
217,72,9307,2,2,L|370:50,1,140,0|8,0:0|0:2,0:1:0:0:
505,117,10140,1,0,0:0:0:0:
505,117,10307,2,2,L|513:58,2,46.6666666666667,0|0|0,0:0|0:0|1:0,0:1:0:0:
458,181,10807,2,0,P|381:175|323:238,2,140,0|0|8,1:0|1:0|0:2,0:0:0:0:
458,181,12307,1,0,0:0:0:0:
307,365,12807,6,0,P|258:331|211:336,1,93.3333333333333,0|0,1:0|0:0,0:0:0:0:
180,265,13307,2,0,L|35:277,1,140,0|8,1:0|0:2,0:0:0:0:
8,121,14140,1,0,0:0:0:0:
8,121,14307,2,0,L|14:59,2,46.6666666666667,0|0|0,0:0|3:0|1:0,0:0:0:0:
66,174,14807,2,0,P|125:167|155:134,1,93.3333333333333,0|0,1:2|1:0,0:0:0:0:
219,180,15307,2,0,P|238:145|219:92,1,93.3333333333333,0|0,1:0|0:0,0:0:0:0:
277,37,15807,2,0,L|430:25,1,140,8|0,0:2|0:0,0:0:0:0:
477,177,16640,1,0,3:0:0:0:
477,177,16807,6,0,P|426:150|371:164,1,93.3333333333333,0|0,1:0|0:0,0:0:0:0:
343,216,17307,2,2,P|317:285|256:322,1,140,0|8,0:2|0:2,0:1:0:0:
108,323,18140,1,0,0:0:0:0:
108,323,18307,2,2,L|103:380,2,46.6666666666667,0|0|0,0:2|0:0|0:0,0:1:0:0:
52,265,18807,2,0,P|84:201|67:122,2,140,0|0|8,1:0|1:0|0:2,0:0:0:0:
52,265,20307,1,0,0:2:0:0:
167,57,20807,6,0,P|218:84|273:70,1,93.3333333333333,0|0,1:0|0:0,0:0:0:0:
281,154,21307,2,0,P|223:200|237:297,1,140,0|8,1:0|0:2,0:0:0:0:
358,351,22140,1,0,0:0:0:0:
358,351,22307,2,0,L|371:291,2,46.6666666666667,0|0|0,0:0|3:0|3:0,0:0:0:0:
279,341,22807,2,0,P|242:358|175:343,1,93.3333333333333,0|0,1:2|1:0,0:0:0:0:
111,351,23307,2,0,P|90:322|99:250,1,93.3333333333333,0|0,1:0|0:0,0:0:0:0:
162,234,23807,2,0,P|167:146|126:95,1,140,8|8,0:2|0:3,0:0:0:0:
3,34,24640,1,0,0:0:0:0:
3,34,24807,6,0,L|157:14,1,140,4|0,1:2|0:0,0:0:0:0:
295,71,25640,1,0,0:0:0:0:
295,71,25807,2,0,P|293:120|257:153,1,93.3333333333333,8|0,0:2|0:0,0:0:0:0:
207,206,26307,2,0,P|204:250|248:299,1,93.3333333333333,0|0,0:0|1:0,0:0:0:0:
302,323,26807,2,0,L|448:343,2,140,0|0|8,0:2|1:2|0:2,0:0:0:0:
236,360,27973,1,0,0:0:0:0:
236,360,28140,1,0,0:0:0:0:
236,360,28307,1,0,0:0:0:0:
82,341,28640,1,0,0:0:0:0:
82,341,28807,6,0,P|33:286|62:217,1,140,0|0,1:2|0:0,0:0:0:0:
205,160,29640,1,0,0:0:0:0:
205,160,29807,2,0,L|212:61,1,93.3333333333333,8|0,0:2|0:0,0:0:0:0:
275,18,30307,2,0,P|320:20|357:63,1,93.3333333333333,0|0,0:0|1:0,0:0:0:0:
328,127,30807,2,0,L|481:147,2,140,0|0|8,0:2|1:2|0:2,0:0:0:0:
295,202,31973,1,0,0:0:0:0:
295,202,32140,1,0,0:0:0:0:
295,202,32306,1,0,0:0:0:0:
199,81,32640,1,0,0:0:0:0:
199,81,32807,6,0,P|148:40|59:41,1,140,0|0,1:0|0:0,0:0:0:0:
5,179,33640,1,0,0:0:0:0:
5,179,33807,2,0,P|71:157|141:159,1,140,8|0,0:2|0:2,0:0:0:0:
270,258,34640,1,0,1:0:0:0:
270,258,34807,2,0,L|410:247,2,140,0|0|8,0:0|1:0|0:2,0:0:0:0:
243,336,35973,1,0,0:0:0:0:
243,336,36140,1,0,0:0:0:0:
243,336,36307,2,0,L|351:328,1,93.3333333333333
413,311,36807,6,0,P|449:252|431:175,1,140,0|0,1:0|0:0,0:0:0:0:
339,66,37640,1,0,0:0:0:0:
339,66,37807,2,0,P|289:44|235:62,1,93.3333333333333,8|0,0:2|0:0,0:0:0:0:
195,106,38307,2,0,L|210:214,1,93.3333333333333,0|0,0:2|1:0,0:0:0:0:
156,258,38807,1,0,0:0:0:0:
316,282,39140,1,0,0:0:0:0:
316,282,39307,1,0,1:0:0:0:
464,220,39640,1,0,1:0:0:0:
464,220,39807,2,0,L|471:282,2,46.6666666666667,8|2|2,0:2|0:3|0:3,0:0:0:0:
496,147,40307,2,0,L|489:85,2,46.6666666666667,4|2|2,0:3|0:3|0:3,0:0:0:0:
418,129,40807,6,0,L|315:143,1,93.3333333333333,4|0,1:2|0:0,0:0:0:0:
260,190,41307,2,0,P|236:242|250:298,1,93.3333333333333,0|0,0:0|1:0,0:0:0:0:
302,325,41807,1,8,0:2:0:0:
67,363,42307,2,0,P|92:310|73:255,1,93.3333333333333,0|0,0:2|1:0,0:0:0:0:
111,201,42807,2,0,P|129:120|81:57,1,140,0|0,0:0|1:0,0:0:0:0:
162,20,43473,1,0,1:0:0:0:
162,20,43640,1,0,1:0:0:0:
237,44,43807,2,0,L|334:23,1,93.3333333333333,8|0,0:2|0:0,0:0:0:0:
392,70,44307,6,0,P|374:145|289:177,2,140,0|0|0,3:2|1:0|0:0,0:0:0:0:
464,216,45640,1,0,1:0:0:0:
464,216,45807,2,0,P|462:280|501:314,1,93.3333333333333,8|0,0:2|0:0,0:0:0:0:
415,350,46307,2,0,L|322:362,1,93.3333333333333,0|0,0:2|1:0,0:0:0:0:
258,314,46807,1,0,0:0:0:0:
144,211,47140,1,0,1:0:0:0:
144,211,47307,2,0,L|133:146,2,46.6666666666667,0|0|0,1:0|1:0|1:0,0:0:0:0:
212,253,47807,1,8,0:2:0:0:
212,253,47973,1,0,0:2:0:0:
175,325,48140,1,0,0:2:0:0:
175,325,48307,1,0,0:0:0:0:
24,293,48640,1,0,3:0:0:0:
24,293,48807,6,0,P|38:237|8:184,1,93.3333333333333,0|0,1:2|0:0,0:0:0:0:
69,138,49307,2,0,L|180:119,1,93.3333333333333,0|0,0:0|1:0,0:0:0:0:
191,48,49807,1,8,0:2:0:0:
414,69,50307,2,0,P|392:106|402:167,1,93.3333333333333,0|0,0:2|1:0,0:0:0:0:
413,232,50807,2,0,L|266:203,1,140,0|0,0:0|1:0,0:0:0:0:
239,276,51473,1,0,1:0:0:0:
239,276,51640,1,0,1:0:0:0:
138,244,51807,2,0,L|121:149,1,93.3333333333333,8|0,0:2|0:0,0:0:0:0:
184,103,52307,6,0,P|255:77|283:6,2,140,0|0|0,3:2|1:0|0:0,0:0:0:0:
32,140,53640,1,0,1:0:0:0:
32,140,53807,2,0,P|38:197|5:239,1,93.3333333333333,8|0,0:2|0:0,0:0:0:0:
85,273,54307,2,0,L|176:256,1,93.3333333333333,0|0,3:2|1:0,0:0:0:0:
242,210,54807,5,0,0:0:0:0:
478,233,55307,1,0,1:2:0:0:
242,210,55807,1,8,0:2:0:0:
341,342,56807,6,0,L|322:230,1,93.3333333333333,4|0,1:1|0:0,0:0:0:0:
254,287,57307,1,0,3:0:0:0:
198,143,57640,1,0,0:0:0:0:
198,143,57807,2,0,P|220:87|202:37,1,93.3333333333333,8|0,0:2|0:0,0:0:0:0:
137,33,58307,1,0,3:0:0:0:
137,33,58473,1,0,0:0:0:0:
137,33,58640,1,0,0:0:0:0:
72,79,58807,6,0,L|91:182,1,93.3333333333333,0|0,1:0|1:0,0:0:0:0:
41,234,59307,2,0,P|71:281|79:334,1,93.3333333333333,0|0,1:0|0:0,0:0:0:0:
128,378,59807,2,0,P|180:353|204:317,1,93.3333333333333,8|0,0:2|0:0,0:0:0:0:
215,245,60307,1,0,0:0:0:0:
215,245,60473,1,0,0:0:0:0:
219,249,60640,1,0,0:0:0:0:
278,306,60807,6,0,L|423:317,2,140,0|0|8,1:0|1:0|0:2,0:0:0:0:
219,164,62140,1,0,0:0:0:0:
219,164,62307,2,0,P|210:134|216:101,1,46.6666666666667,0|0,3:0|0:0,0:0:0:0:
271,67,62640,1,0,0:0:0:0:
271,67,62807,5,0,0:0:0:0:
117,48,63140,1,0,1:0:0:0:
117,48,63307,1,0,1:0:0:0:
98,208,63640,1,0,0:0:0:0:
98,208,63807,1,8,0:2:0:0:
257,241,64140,1,0,0:0:0:0:
257,241,64306,1,0,0:0:0:0:
484,309,64806,6,0,P|438:336|360:321,1,93.3333333333333,0|0,1:0|0:0,0:0:0:0:
332,303,65306,1,0,3:2:0:0:
191,350,65640,1,0,0:0:0:0:
191,350,65807,2,0,P|166:296|190:234,1,93.3333333333333,8|0,0:2|0:0,0:0:0:0:
224,206,66307,1,0,3:2:0:0:
224,206,66473,1,0,0:0:0:0:
224,206,66640,1,0,0:0:0:0:
302,192,66807,6,0,L|315:80,1,93.3333333333333,0|0,1:2|1:0,0:0:0:0:
264,36,67307,2,0,P|223:56|199:95,1,93.3333333333333,0|0,1:2|0:0,0:0:0:0:
140,149,67807,2,0,P|94:118|90:69,1,93.3333333333333,8|0,0:2|0:0,0:0:0:0:
8,72,68307,1,0,3:0:0:0:
8,72,68473,1,0,0:0:0:0:
8,72,68640,1,0,0:0:0:0:
4,151,68807,6,0,L|34:248,1,93.3333333333333,0|0,1:0|0:0,0:0:0:0:
44,318,69307,2,0,P|61:258|147:221,2,140,0|8|0,1:0|0:2|3:2,0:0:0:0:
232,356,70640,1,0,3:0:0:0:
232,356,70807,6,0,L|327:340,1,93.3333333333333,0|0,1:0|1:0,0:0:0:0:
401,358,71307,2,0,P|427:311|417:288,1,46.6666666666667,0|0,1:0|1:0,0:0:0:0:
392,255,71640,1,0,1:0:0:0:
392,255,71807,1,8,0:2:0:0:
266,176,72140,1,4,0:3:0:0:
266,176,72307,1,8,0:3:0:0:
266,176,72473,2,0,P|276:153|275:126,1,46.6666666666667,0|8,0:3|0:3,0:0:0:0:
330,73,72807,6,0,P|282:46|226:51,1,93.3333333333333,4|0,1:1|0:0,0:0:0:0:
167,64,73307,1,0,3:0:0:0:
16,31,73640,1,0,0:0:0:0:
16,31,73807,2,0,L|33:147,1,93.3333333333333,8|0,0:2|0:0,0:0:0:0:
46,205,74307,1,0,3:0:0:0:
46,205,74473,1,0,0:0:0:0:
46,205,74640,1,0,0:0:0:0:
98,262,74807,6,0,P|137:262|174:204,1,93.3333333333333,0|0,1:2|1:0,0:0:0:0:
237,174,75307,2,0,L|260:277,1,93.3333333333333,0|0,1:0|0:0,0:0:0:0:
308,324,75807,2,0,P|356:298|403:303,1,93.3333333333333,8|0,0:2|0:0,0:0:0:0:
477,327,76307,1,0,0:2:0:0:
477,327,76474,1,0,0:0:0:0:
477,327,76640,1,0,0:0:0:0:
491,248,76807,6,0,P|473:206|487:151,1,93.3333333333333,0|0,1:2|0:0,0:0:0:0:
491,88,77307,1,0,1:2:0:0:
491,88,77473,1,0,0:0:0:0:
491,88,77640,1,0,1:0:0:0:
411,92,77807,2,0,P|371:66|301:66,1,93.3333333333333,8|0,0:2|0:0,0:0:0:0:
256,97,78307,2,0,P|230:135|232:185,1,93.3333333333333,0|0,3:2|1:0,0:0:0:0:
276,245,78807,5,0,0:0:0:0:
129,298,79140,1,0,1:0:0:0:
129,298,79307,1,0,1:0:0:0:
99,146,79640,1,0,0:0:0:0:
99,146,79807,2,0,P|133:108|116:38,1,93.3333333333333,8|0,0:2|3:0,0:0:0:0:
79,9,80307,2,0,P|14:26|-2:41,1,46.6666666666667,0|0,0:0|3:0,0:0:0:0:
7,92,80640,1,0,0:0:0:0:
7,92,80807,6,0,L|18:206,1,93.3333333333333,0|0,1:0|0:0,0:0:0:0:
84,224,81307,1,0,3:0:0:0:
55,330,81640,1,0,0:0:0:0:
55,330,81807,2,0,P|107:366|165:352,1,93.3333333333333,8|0,0:2|0:0,0:0:0:0:
200,320,82307,1,0,3:0:0:0:
200,320,82473,1,0,0:0:0:0:
200,320,82640,1,0,0:0:0:0:
266,274,82807,6,0,P|316:267|356:234,1,93.3333333333333,0|0,1:0|1:0,0:0:0:0:
421,276,83307,2,0,P|431:231|417:186,1,93.3333333333333,0|0,1:0|0:0,0:0:0:0:
369,126,83807,1,8,0:2:0:0:
369,126,83973,1,0,0:0:0:0:
369,126,84140,1,0,0:0:0:0:
309,178,84307,2,0,P|263:176|234:142,1,93.3333333333333,0|0,3:0|0:0,0:0:0:0:
156,122,84807,6,0,L|176:222,1,93.3333333333333,0|0,1:2|0:0,0:0:0:0:
172,292,85307,2,0,P|127:276|101:236,1,93.3333333333333,0|0,1:2|0:0,0:0:0:0:
66,171,85807,1,8,0:2:0:0:
66,171,85973,1,0,0:0:0:0:
66,171,86140,1,0,0:0:0:0:
15,230,86307,2,0,L|38:329,1,93.3333333333333,0|0,3:0|1:0,0:0:0:0:
106,357,86807,6,0,P|153:339|213:334,1,93.3333333333333,0|0,0:0|1:0,0:0:0:0:
274,329,87307,2,0,L|416:346,2,140,0|8|2,1:0|0:2|0:2,0:0:0:0:
238,55,88807,5,4,0:1:0:0:
