osu file format v14

[General]
AudioFilename: full.mp3
AudioLeadIn: 0
PreviewTime: 56776
Countdown: 0
SampleSet: Soft
StackLeniency: 0.2
Mode: 3
LetterboxInBreaks: 0
SpecialStyle: 0
WidescreenStoryboard: 1

[Editor]
Bookmarks: 8776,24776,40776,56776,72776,88776,104776,112776,120776,136776,152776,160776,168776,176776,184776,200776
DistanceSpacing: 3.3
BeatDivisor: 12
GridSize: 32
TimelineZoom: 2

[Metadata]
Title:Jishou Mushoku
TitleUnicode:自傷無色
Artist:Hanatan
ArtistUnicode:花たん
Creator:Abraxos
Version:Man, Ascendant
Source:
Tags:ねこぼーろ utaite hatsune miku vocaloid self-inflicted achromatic japanese folk nekobolo colorless self-injury self-harm exit tunes presents vocalospace feat evergreen songs 2013 cv01 初音ミク
BeatmapID:2856843
BeatmapSetID:1278216

[Difficulty]
HPDrainRate:8.1
CircleSize:4
OverallDifficulty:8
ApproachRate:8.9
SliderMultiplier:2.5
SliderTickRate:1

[Events]
//Background and Video events
0,0,"53831532_p0.jpg",0,0
//Break Periods
//Storyboard Layer 0 (Background)
//Storyboard Layer 1 (Fail)
//Storyboard Layer 2 (Pass)
//Storyboard Layer 3 (Foreground)
//Storyboard Layer 4 (Overlay)
//Storyboard Sound Samples

[TimingPoints]
776,500,2,2,53,20,1,0
8776,-100,4,2,53,40,0,0
24776,-100,4,2,53,30,0,0
56776,-100,4,2,53,40,0,0
104776,-100,4,2,53,30,0,0
112776,-100,4,2,53,20,0,0
120276,-100,4,2,53,30,0,0
120776,-100,4,2,53,40,0,0
152776,-100,4,2,53,20,0,0
160776,-100,4,2,53,30,0,0
164776,-100,4,2,53,20,0,0
167776,-100,4,2,53,30,0,0
168776,-100,4,2,53,40,0,0
168859,-100,4,2,53,20,0,0
176776,-100,4,2,53,30,0,0
183776,-100,4,2,53,40,0,0
200776,-100,4,2,53,30,0,0

[HitObjects]
64,192,776,5,0,0:0:0:0:
448,192,776,1,0,0:0:0:0:
192,192,1442,128,0,1609:0:0:0:0:
320,192,1609,128,0,1776:0:0:0:0:
192,192,1776,1,0,0:0:0:0:
448,192,2276,1,0,0:0:0:0:
320,192,2442,128,0,2609:0:0:0:0:
192,192,2609,128,0,2776:0:0:0:0:
64,192,2776,1,0,0:0:0:0:
192,192,3276,1,0,0:0:0:0:
320,192,3442,128,0,3526:0:0:0:0:
192,192,3609,128,0,3692:0:0:0:0:
320,192,3776,1,0,0:0:0:0:
448,192,4276,1,0,0:0:0:0:
192,192,4442,128,0,4567:0:0:0:0:
320,192,4609,128,0,4734:0:0:0:0:
64,192,4776,1,0,0:0:0:0:
192,192,4776,1,0,0:0:0:0:
320,192,5442,128,0,5609:0:0:0:0:
192,192,5609,128,0,5734:0:0:0:0:
320,192,5776,1,0,0:0:0:0:
192,192,6442,128,0,6526:0:0:0:0:
320,192,6609,128,0,6692:0:0:0:0:
64,192,6776,1,0,0:0:0:0:
448,192,6776,1,0,0:0:0:0:
64,192,7442,128,0,7609:0:0:0:0:
448,192,7609,128,0,7776:0:0:0:0:
448,192,8109,1,0,0:0:0:0:
64,192,8192,1,0,0:0:0:0:
448,192,8276,1,0,0:0:0:0:
64,192,8442,1,0,0:0:0:0:
448,192,8609,1,0,0:0:0:0:
64,192,8776,128,4,8942:1:0:0:0:
192,192,8776,128,0,9109:0:0:0:0:
320,192,8776,128,0,9276:0:0:0:0:
448,192,8776,128,0,9276:0:0:0:0:
64,192,9276,128,0,9609:0:0:0:0:
192,192,9276,128,0,9442:0:0:0:0:
448,192,9442,1,0,0:0:0:0:
320,192,9609,1,0,0:0:0:0:
64,192,9776,1,8,0:0:0:0:
448,192,9776,128,0,10276:0:0:0:0:
192,192,9942,1,0,0:0:0:0:
320,192,10109,128,0,10442:0:0:0:0:
64,192,10276,128,0,10609:0:0:0:0:
192,192,10276,128,0,10609:0:0:0:0:
448,192,10442,1,0,0:0:0:0:
320,192,10609,1,0,0:0:0:0:
64,192,10776,1,0,0:0:0:0:
192,192,10776,128,0,11109:0:0:0:0:
448,192,10942,1,0,0:0:0:0:
320,192,11109,128,2,11276:1:0:0:0:
448,192,11109,1,0,0:0:0:0:
64,192,11276,1,2,1:0:0:0:
192,192,11276,128,0,11609:0:0:0:0:
64,192,11442,1,0,0:0:0:0:
320,192,11609,128,0,11734:0:0:0:0:
64,192,11776,128,8,11942:0:0:0:0:
448,192,11776,128,0,11942:0:0:0:0:
320,192,11942,1,0,0:0:0:0:
192,192,12109,1,0,0:0:0:0:
448,192,12192,1,0,0:0:0:0:
64,192,12276,128,0,12526:0:0:0:0:
320,192,12276,128,0,12692:0:0:0:0:
192,192,12442,128,0,12609:0:0:0:0:
448,192,12609,128,0,12776:0:0:0:0:
64,192,12776,1,2,1:0:0:0:
192,192,12776,1,0,0:0:0:0:
320,192,12942,1,0,0:0:0:0:
192,192,13109,1,0,0:0:0:0:
64,192,13276,1,0,0:0:0:0:
448,192,13442,1,0,0:0:0:0:
320,192,13609,1,0,0:0:0:0:
64,192,13776,1,8,0:0:0:0:
448,192,13776,1,0,0:0:0:0:
192,192,13942,1,0,0:0:0:0:
64,192,14109,1,0,0:0:0:0:
320,192,14276,128,0,14338:0:0:0:0:
448,192,14276,1,0,0:0:0:0:
192,192,14442,1,0,0:0:0:0:
448,192,14609,1,0,0:0:0:0:
192,192,14776,128,0,14838:0:0:0:0:
320,192,14942,1,0,0:0:0:0:
64,192,15109,1,2,1:0:0:0:
192,192,15109,1,0,0:0:0:0:
320,192,15276,1,2,1:0:0:0:
448,192,15276,1,0,0:0:0:0:
64,192,15442,1,2,1:0:0:0:
192,192,15609,1,0,0:0:0:0:
64,192,15776,1,8,0:0:0:0:
448,192,15776,1,0,0:0:0:0:
320,192,15942,1,0,0:0:0:0:
448,192,16109,1,0,0:0:0:0:
192,192,16276,1,0,0:0:0:0:
320,192,16442,1,0,0:0:0:0:
64,192,16609,1,0,0:0:0:0:
64,192,16776,128,2,16942:1:0:0:0:
192,192,16776,128,0,17109:0:0:0:0:
320,192,16942,128,0,17276:0:0:0:0:
448,192,17109,128,0,17276:0:0:0:0:
64,192,17276,128,0,17609:0:0:0:0:
192,192,17276,128,0,17442:0:0:0:0:
448,192,17442,1,0,0:0:0:0:
320,192,17609,1,0,0:0:0:0:
64,192,17776,1,8,0:0:0:0:
448,192,17776,128,0,18276:0:0:0:0:
192,192,17942,1,0,0:0:0:0:
320,192,18109,128,0,18442:0:0:0:0:
64,192,18276,128,0,18609:0:0:0:0:
192,192,18276,128,0,18609:0:0:0:0:
448,192,18442,1,0,0:0:0:0:
320,192,18609,1,2,1:0:0:0:
64,192,18776,1,2,1:0:0:0:
192,192,18776,128,0,19109:0:0:0:0:
448,192,18942,1,0,0:0:0:0:
320,192,19109,128,2,19276:1:0:0:0:
448,192,19109,1,0,0:0:0:0:
64,192,19276,1,2,1:0:0:0:
192,192,19276,128,0,19609:0:0:0:0:
64,192,19442,1,0,0:0:0:0:
320,192,19609,128,0,19776:0:0:0:0:
64,192,19776,128,8,19901:0:0:0:0:
448,192,19776,128,0,19901:0:0:0:0:
320,192,19942,1,0,0:0:0:0:
192,192,20109,1,0,0:0:0:0:
64,192,20276,128,0,20526:0:0:0:0:
320,192,20276,128,0,20692:0:0:0:0:
192,192,20442,128,0,20609:0:0:0:0:
448,192,20609,128,0,20776:0:0:0:0:
64,192,20776,1,2,1:0:0:0:
192,192,20776,1,0,0:0:0:0:
320,192,20942,1,0,0:0:0:0:
192,192,21109,1,0,0:0:0:0:
64,192,21276,1,0,0:0:0:0:
448,192,21442,1,0,0:0:0:0:
320,192,21609,1,0,0:0:0:0:
64,192,21776,1,8,0:0:0:0:
448,192,21776,1,0,0:0:0:0:
192,192,21942,1,0,0:0:0:0:
64,192,22109,1,0,0:0:0:0:
320,192,22276,128,0,22338:0:0:0:0:
448,192,22276,1,0,0:0:0:0:
192,192,22442,1,0,0:0:0:0:
448,192,22609,1,0,0:0:0:0:
192,192,22776,128,0,22838:0:0:0:0:
320,192,22942,1,0,0:0:0:0:
64,192,23109,1,2,1:0:0:0:
192,192,23109,1,0,0:0:0:0:
320,192,23276,1,2,1:0:0:0:
448,192,23276,1,0,0:0:0:0:
64,192,23442,1,2,1:0:0:0:
192,192,23609,1,0,0:0:0:0:
64,192,23776,1,8,0:0:0:0:
448,192,23776,1,0,0:0:0:0:
320,192,23942,1,0,0:0:0:0:
448,192,24109,1,2,1:0:0:0:
192,192,24276,1,2,1:0:0:0:
320,192,24442,1,2,1:0:0:0:
64,192,24609,128,2,24692:1:0:0:0:
64,192,24776,1,4,0:0:0:0:
192,192,24776,128,0,25026:0:0:0:0:
448,192,24942,128,0,25109:0:0:0:0:
64,192,25109,128,0,25276:0:0:0:0:
320,192,25276,128,0,25526:0:0:0:0:
192,192,25442,1,2,1:0:0:0:
320,192,25609,128,0,25692:0:0:0:0:
64,192,25776,128,8,25942:0:0:0:0:
448,192,25776,128,0,26109:0:0:0:0:
192,192,25942,1,0,0:0:0:0:
320,192,26109,128,0,26276:0:0:0:0:
192,192,26276,128,0,26526:0:0:0:0:
64,192,26442,1,0,0:0:0:0:
448,192,26609,128,2,26942:1:0:0:0:
64,192,26776,128,0,27192:0:0:0:0:
192,192,26942,1,0,0:0:0:0:
320,192,27109,128,2,27192:1:0:0:0:
64,192,27276,128,2,27609:1:0:0:0:
320,192,27442,1,2,1:0:0:0:
192,192,27609,128,2,27776:1:0:0:0:
64,192,27776,1,8,0:0:0:0:
448,192,27776,128,0,28276:0:0:0:0:
320,192,27942,128,0,28276:0:0:0:0:
192,192,28109,128,0,28276:0:0:0:0:
64,192,28276,128,0,28359:0:0:0:0:
448,192,28442,1,0,0:0:0:0:
192,192,28609,128,0,28692:0:0:0:0:
64,192,28776,1,2,1:0:0:0:
192,192,28776,128,0,29026:0:0:0:0:
448,192,28942,1,0,0:0:0:0:
64,192,29109,128,0,29276:0:0:0:0:
320,192,29276,128,0,29526:0:0:0:0:
192,192,29442,1,2,1:0:0:0:
320,192,29609,128,0,29692:0:0:0:0:
64,192,29776,128,8,29942:0:0:0:0:
448,192,29776,128,0,30109:0:0:0:0:
192,192,29942,1,0,0:0:0:0:
320,192,30109,128,0,30276:0:0:0:0:
192,192,30276,128,0,30526:0:0:0:0:
64,192,30442,1,0,0:0:0:0:
448,192,30609,128,2,30942:1:0:0:0:
64,192,30776,128,0,31192:0:0:0:0:
192,192,30942,1,0,0:0:0:0:
320,192,31109,128,2,31192:1:0:0:0:
64,192,31276,128,2,31609:1:0:0:0:
320,192,31442,1,2,1:0:0:0:
192,192,31609,128,2,31776:1:0:0:0:
64,192,31776,1,8,0:0:0:0:
448,192,31776,128,0,32276:0:0:0:0:
320,192,31942,128,0,32276:0:0:0:0:
192,192,32109,128,0,32276:0:0:0:0:
64,192,32276,128,0,32359:0:0:0:0:
448,192,32442,1,0,0:0:0:0:
320,192,32609,128,0,32692:0:0:0:0:
64,192,32776,1,2,1:0:0:0:
192,192,32776,128,0,33026:0:0:0:0:
448,192,32942,1,0,0:0:0:0:
64,192,33109,128,0,33276:0:0:0:0:
320,192,33276,128,0,33526:0:0:0:0:
192,192,33442,1,2,1:0:0:0:
320,192,33609,128,0,33692:0:0:0:0:
64,192,33776,128,8,33942:0:0:0:0:
448,192,33776,128,0,34276:0:0:0:0:
192,192,33942,1,0,0:0:0:0:
320,192,34109,1,0,0:0:0:0:
192,192,34276,128,0,34526:0:0:0:0:
64,192,34442,1,0,0:0:0:0:
448,192,34609,128,2,34942:1:0:0:0:
64,192,34776,128,0,35192:0:0:0:0:
192,192,34942,1,0,0:0:0:0:
320,192,35109,1,2,1:0:0:0:
64,192,35276,128,2,35609:1:0:0:0:
320,192,35442,1,2,1:0:0:0:
192,192,35609,128,2,35776:1:0:0:0:
64,192,35776,1,8,0:0:0:0:
448,192,35776,128,0,36276:0:0:0:0:
320,192,35942,128,0,36026:0:0:0:0:
192,192,36109,1,0,0:0:0:0:
64,192,36276,128,0,36692:0:0:0:0:
320,192,36442,1,0,0:0:0:0:
448,192,36609,128,0,36692:0:0:0:0:
64,192,36776,1,2,1:0:0:0:
192,192,36776,128,0,37276:0:0:0:0:
320,192,36942,1,0,0:0:0:0:
448,192,37109,128,0,37276:0:0:0:0:
64,192,37276,1,0,0:0:0:0:
192,192,37442,1,2,1:0:0:0:
320,192,37609,128,0,38192:0:0:0:0:
64,192,37776,128,8,38192:0:0:0:0:
448,192,37776,1,0,0:0:0:0:
192,192,37942,1,0,0:0:0:0:
448,192,38109,1,0,0:0:0:0:
192,192,38276,128,0,38609:0:0:0:0:
64,192,38442,1,0,0:0:0:0:
448,192,38609,128,2,38942:1:0:0:0:
320,192,38776,128,0,38942:0:0:0:0:
64,192,38942,1,0,0:0:0:0:
320,192,39109,128,2,39276:1:0:0:0:
448,192,39276,128,2,39442:1:0:0:0:
192,192,39442,128,2,39526:1:0:0:0:
320,192,39609,128,2,39776:1:0:0:0:
64,192,39776,128,8,39942:0:0:0:0:
448,192,39776,1,0,0:0:0:0:
192,192,39942,128,0,40109:0:0:0:0:
320,192,40109,128,0,40442:0:0:0:0:
448,192,40276,128,2,40609:1:0:0:0:
64,192,40442,128,2,40692:1:0:0:0:
192,192,40609,128,2,40692:1:0:0:0:
320,192,40776,1,4,0:0:0:0:
448,192,40776,1,0,0:0:0:0:
320,192,40942,1,0,0:0:0:0:
192,192,41109,1,0,0:0:0:0:
320,192,41276,128,0,41526:0:0:0:0:
448,192,41276,128,0,41609:0:0:0:0:
64,192,41442,1,2,1:0:0:0:
320,192,41609,1,2,1:0:0:0:
64,192,41776,128,8,42276:0:0:0:0:
448,192,41776,1,0,0:0:0:0:
320,192,41942,128,0,42442:0:0:0:0:
448,192,42109,1,0,0:0:0:0:
192,192,42276,128,0,42609:0:0:0:0:
448,192,42442,128,0,42776:0:0:0:0:
64,192,42609,1,2,1:0:0:0:
320,192,42776,128,2,43109:1:0:0:0:
448,192,42942,128,0,43276:0:0:0:0:
64,192,43109,1,2,1:0:0:0:
192,192,43276,128,2,43609:1:0:0:0:
320,192,43442,128,2,43776:1:0:0:0:
64,192,43609,1,2,1:0:0:0:
64,192,43776,128,8,44109:0:0:0:0:
448,192,43776,1,0,0:0:0:0:
192,192,43942,128,0,44276:0:0:0:0:
448,192,44109,1,0,0:0:0:0:
64,192,44276,128,0,44609:0:0:0:0:
448,192,44442,128,0,44776:0:0:0:0:
320,192,44609,1,0,0:0:0:0:
64,192,44776,128,2,45109:1:0:0:0:
192,192,44942,1,0,0:0:0:0:
320,192,45109,1,0,0:0:0:0:
192,192,45276,128,0,45776:0:0:0:0:
448,192,45442,1,2,1:0:0:0:
320,192,45609,128,2,45776:1:0:0:0:
64,192,45776,128,8,46442:0:0:0:0:
448,192,45776,128,0,45942:0:0:0:0:
320,192,45942,128,0,46109:0:0:0:0:
192,192,46109,128,0,46276:0:0:0:0:
448,192,46276,128,0,46609:0:0:0:0:
192,192,46442,1,0,0:0:0:0:
320,192,46609,1,2,1:0:0:0:
64,192,46776,128,2,47276:1:0:0:0:
320,192,46942,1,0,0:0:0:0:
448,192,47109,1,2,1:0:0:0:
192,192,47276,1,2,1:0:0:0:
320,192,47442,1,2,1:0:0:0:
448,192,47609,1,2,1:0:0:0:
64,192,47776,1,8,0:0:0:0:
448,192,47776,1,0,0:0:0:0:
64,192,47942,1,0,0:0:0:0:
320,192,48109,1,0,0:0:0:0:
448,192,48276,1,0,0:0:0:0:
192,192,48442,128,0,48526:0:0:0:0:
320,192,48609,128,0,48692:0:0:0:0:
320,192,48776,128,2,49026:1:0:0:0:
448,192,48776,128,0,49109:0:0:0:0:
64,192,48942,1,0,0:0:0:0:
320,192,49109,1,0,0:0:0:0:
64,192,49276,1,0,0:0:0:0:
192,192,49276,128,0,49776:0:0:0:0:
320,192,49442,128,2,49942:1:0:0:0:
448,192,49609,1,2,1:0:0:0:
64,192,49776,1,8,0:0:0:0:
448,192,49776,128,0,50109:0:0:0:0:
64,192,49942,128,0,50276:0:0:0:0:
192,192,50109,1,0,0:0:0:0:
320,192,50276,128,0,50609:0:0:0:0:
448,192,50442,128,0,50776:0:0:0:0:
64,192,50609,1,2,1:0:0:0:
192,192,50776,128,2,51109:1:0:0:0:
320,192,50942,128,0,51276:0:0:0:0:
64,192,51109,1,2,1:0:0:0:
64,192,51276,128,2,51609:1:0:0:0:
192,192,51442,128,2,51776:1:0:0:0:
320,192,51609,1,2,1:0:0:0:
64,192,51776,128,8,52109:0:0:0:0:
448,192,51776,1,0,0:0:0:0:
448,192,51942,128,0,52276:0:0:0:0:
320,192,52109,1,0,0:0:0:0:
64,192,52276,128,0,52609:0:0:0:0:
192,192,52442,1,0,0:0:0:0:
448,192,52609,1,0,0:0:0:0:
64,192,52776,128,2,52942:1:0:0:0:
320,192,52942,128,0,53109:0:0:0:0:
448,192,53109,1,0,0:0:0:0:
192,192,53276,128,0,53526:0:0:0:0:
448,192,53442,128,2,53692:1:0:0:0:
192,192,53609,1,2,1:0:0:0:
64,192,53776,128,8,54192:0:0:0:0:
448,192,53776,1,0,0:0:0:0:
320,192,53942,128,0,54359:0:0:0:0:
192,192,54109,1,0,0:0:0:0:
64,192,54276,128,0,54609:0:0:0:0:
320,192,54442,128,0,54776:0:0:0:0:
192,192,54609,128,2,54942:1:0:0:0:
448,192,54776,128,2,55109:1:0:0:0:
64,192,54942,128,0,55692:0:0:0:0:
320,192,55109,128,2,55526:1:0:0:0:
192,192,55276,128,2,55776:1:0:0:0:
448,192,55442,128,2,55692:1:0:0:0:
320,192,55609,128,2,55776:1:0:0:0:
64,192,55776,1,8,0:0:0:0:
448,192,55776,1,0,0:0:0:0:
448,192,56317,128,8,56484:1:0:0:0:
64,192,56776,128,4,57317:1:0:0:0:
192,192,56776,128,2,57026:1:0:0:0:
320,192,56776,128,0,57484:0:0:0:0:
448,192,56776,128,0,57026:0:0:0:0:
192,192,57276,128,0,57401:0:0:0:0:
448,192,57276,128,0,57567:0:0:0:0:
64,192,57442,1,0,0:0:0:0:
320,192,57609,1,0,0:0:0:0:
64,192,57776,128,8,58276:0:0:0:0:
448,192,57776,128,0,58109:0:0:0:0:
192,192,57942,1,0,0:0:0:0:
320,192,58109,128,0,58526:0:0:0:0:
192,192,58276,128,0,58401:0:0:0:0:
448,192,58276,128,0,58651:0:0:0:0:
64,192,58442,1,0,0:0:0:0:
192,192,58609,1,0,0:0:0:0:
320,192,58776,128,0,58942:0:0:0:0:
448,192,58776,128,0,59026:0:0:0:0:
192,192,58942,1,0,0:0:0:0:
320,192,59109,128,2,59359:1:0:0:0:
448,192,59109,1,0,0:0:0:0:
64,192,59276,128,2,59609:1:0:0:0:
192,192,59276,128,0,59484:0:0:0:0:
448,192,59442,1,0,0:0:0:0:
320,192,59609,128,0,59984:0:0:0:0:
64,192,59776,128,8,59901:0:0:0:0:
448,192,59776,128,0,60109:0:0:0:0:
192,192,59942,1,0,0:0:0:0:
320,192,60109,128,0,60359:0:0:0:0:
64,192,60276,128,0,60442:0:0:0:0:
192,192,60276,128,0,60401:0:0:0:0:
448,192,60442,1,2,1:0:0:0:
320,192,60609,128,0,60692:0:0:0:0:
64,192,60776,128,2,61067:1:0:0:0:
192,192,60776,128,0,61109:0:0:0:0:
320,192,60942,128,0,61151:0:0:0:0:
448,192,61109,128,0,61192:0:0:0:0:
320,192,61276,128,2,61651:1:0:0:0:
448,192,61276,128,0,61609:0:0:0:0:
64,192,61442,128,2,61692:1:0:0:0:
192,192,61609,128,2,61734:1:0:0:0:
64,192,61776,128,8,62234:0:0:0:0:
448,192,61776,128,0,62109:0:0:0:0:
320,192,61942,128,0,62151:0:0:0:0:
192,192,62109,128,0,62192:0:0:0:0:
320,192,62276,128,0,62338:0:0:0:0:
448,192,62276,128,0,62859:0:0:0:0:
192,192,62442,1,0,0:0:0:0:
320,192,62609,128,0,63026:0:0:0:0:
64,192,62776,128,0,63026:0:0:0:0:
192,192,62776,128,0,62838:0:0:0:0:
448,192,62942,1,0,0:0:0:0:
64,192,63109,128,2,63234:1:0:0:0:
192,192,63109,128,0,63317:0:0:0:0:
320,192,63276,128,2,63401:1:0:0:0:
448,192,63276,128,0,63484:0:0:0:0:
64,192,63442,1,0,0:0:0:0:
320,192,63609,128,0,63942:0:0:0:0:
64,192,63776,128,8,64338:0:0:0:0:
448,192,63776,128,0,63900:0:0:0:0:
192,192,63942,1,0,0:0:0:0:
320,192,64109,128,0,64164:0:0:0:0:
448,192,64275,128,0,64400:0:0:0:0:
320,192,64276,128,0,64338:0:0:0:0:
192,192,64442,1,0,0:0:0:0:
64,192,64609,1,0,0:0:0:0:
192,192,64775,128,2,65067:1:0:0:0:
448,192,64775,128,0,65025:0:0:0:0:
64,192,64942,128,0,65317:0:0:0:0:
320,192,65109,128,0,65484:0:0:0:0:
192,192,65275,128,0,65401:0:0:0:0:
448,192,65275,128,0,65567:0:0:0:0:
64,192,65442,1,0,0:0:0:0:
320,192,65609,1,0,0:0:0:0:
64,192,65776,128,8,66276:0:0:0:0:
448,192,65776,128,0,66026:0:0:0:0:
192,192,65942,1,0,0:0:0:0:
320,192,66109,128,0,66526:0:0:0:0:
192,192,66276,128,0,66401:0:0:0:0:
448,192,66276,128,0,66651:0:0:0:0:
64,192,66442,1,0,0:0:0:0:
192,192,66609,1,2,1:0:0:0:
64,192,66776,128,2,66942:1:0:0:0:
192,192,66776,128,0,66984:0:0:0:0:
448,192,66942,1,0,0:0:0:0:
64,192,67109,1,2,1:0:0:0:
192,192,67109,128,0,67401:0:0:0:0:
320,192,67276,128,2,67484:1:0:0:0:
448,192,67276,128,0,67567:0:0:0:0:
64,192,67442,1,0,0:0:0:0:
192,192,67609,128,0,67984:0:0:0:0:
64,192,67776,128,8,68026:0:0:0:0:
448,192,67776,128,0,67901:0:0:0:0:
320,192,67942,1,0,0:0:0:0:
192,192,68109,1,0,0:0:0:0:
320,192,68276,128,0,68484:0:0:0:0:
448,192,68276,128,0,68651:0:0:0:0:
64,192,68442,128,0,68776:0:0:0:0:
192,192,68609,128,0,68776:0:0:0:0:
320,192,68776,128,2,68984:1:0:0:0:
448,192,68776,128,0,69026:0:0:0:0:
192,192,68942,1,0,0:0:0:0:
64,192,69109,128,0,69192:0:0:0:0:
64,192,69276,128,2,69567:1:0:0:0:
320,192,69276,128,0,69651:0:0:0:0:
448,192,69442,128,2,69692:1:0:0:0:
192,192,69609,1,2,1:0:0:0:
64,192,69776,128,8,70026:0:0:0:0:
448,192,69776,128,0,70026:0:0:0:0:
192,192,69942,1,0,0:0:0:0:
320,192,70109,1,0,0:0:0:0:
192,192,70276,128,0,70526:0:0:0:0:
448,192,70276,128,0,70442:0:0:0:0:
64,192,70442,128,0,70609:0:0:0:0:
448,192,70609,128,0,70901:0:0:0:0:
64,192,70776,128,0,71151:0:0:0:0:
320,192,70776,128,0,71026:0:0:0:0:
192,192,70942,1,0,0:0:0:0:
320,192,71109,128,2,71317:1:0:0:0:
448,192,71109,128,0,71317:0:0:0:0:
64,192,71276,128,2,71484:1:0:0:0:
192,192,71276,128,0,71484:0:0:0:0:
320,192,71442,1,0,0:0:0:0:
192,192,71609,128,0,71692:0:0:0:0:
64,192,71776,128,8,72109:0:0:0:0:
448,192,71776,128,0,72609:0:0:0:0:
320,192,71942,128,0,72442:0:0:0:0:
192,192,72109,128,2,72276:1:0:0:0:
64,192,72276,1,2,1:0:0:0:
192,192,72442,1,2,1:0:0:0:
320,192,72609,1,2,1:0:0:0:
64,192,72776,128,4,73317:0:0:0:0:
192,192,72776,128,0,73026:0:0:0:0:
320,192,72776,128,0,73484:0:0:0:0:
448,192,72776,128,0,73026:0:0:0:0:
192,192,73276,128,0,73401:0:0:0:0:
448,192,73276,128,0,73567:0:0:0:0:
64,192,73442,1,0,0:0:0:0:
320,192,73609,1,0,0:0:0:0:
64,192,73776,128,8,74276:0:0:0:0:
448,192,73776,128,0,74109:0:0:0:0:
192,192,73942,1,0,0:0:0:0:
320,192,74109,128,0,74526:0:0:0:0:
192,192,74276,128,0,74401:0:0:0:0:
448,192,74276,128,0,74651:0:0:0:0:
64,192,74442,1,0,0:0:0:0:
320,192,74609,1,0,0:0:0:0:
192,192,74776,128,0,74942:0:0:0:0:
448,192,74776,128,0,75026:0:0:0:0:
64,192,74942,1,0,0:0:0:0:
64,192,75109,128,2,75359:1:0:0:0:
320,192,75109,1,0,0:0:0:0:
192,192,75276,128,2,75484:1:0:0:0:
448,192,75276,128,0,75609:0:0:0:0:
320,192,75442,1,0,0:0:0:0:
320,192,75609,128,0,75984:0:0:0:0:
64,192,75776,128,8,75901:0:0:0:0:
448,192,75776,128,0,76109:0:0:0:0:
192,192,75942,1,0,0:0:0:0:
320,192,76109,128,0,76442:0:0:0:0:
64,192,76276,128,0,76484:0:0:0:0:
192,192,76276,128,0,76401:0:0:0:0:
448,192,76442,1,2,1:0:0:0:
320,192,76609,128,0,76692:0:0:0:0:
64,192,76776,128,2,77067:1:0:0:0:
192,192,76776,128,0,77109:0:0:0:0:
320,192,76942,128,0,77151:0:0:0:0:
448,192,77109,128,0,77192:0:0:0:0:
320,192,77276,128,2,77651:1:0:0:0:
448,192,77276,128,0,77609:0:0:0:0:
64,192,77442,128,2,77692:1:0:0:0:
192,192,77609,128,2,77692:1:0:0:0:
64,192,77776,128,8,78234:0:0:0:0:
448,192,77776,128,0,78109:0:0:0:0:
320,192,77942,128,0,78151:0:0:0:0:
192,192,78109,128,0,78192:0:0:0:0:
320,192,78276,128,0,78338:0:0:0:0:
448,192,78276,128,0,78859:0:0:0:0:
192,192,78442,1,0,0:0:0:0:
320,192,78609,128,0,79026:0:0:0:0:
64,192,78776,128,0,79026:0:0:0:0:
192,192,78776,128,0,78838:0:0:0:0:
448,192,78942,1,0,0:0:0:0:
64,192,79109,128,2,79317:1:0:0:0:
192,192,79109,128,0,79234:0:0:0:0:
320,192,79276,128,2,79484:1:0:0:0:
448,192,79276,128,0,79401:0:0:0:0:
64,192,79442,1,0,0:0:0:0:
320,192,79609,128,0,79901:0:0:0:0:
64,192,79776,128,8,80359:0:0:0:0:
448,192,79776,128,0,79942:0:0:0:0:
192,192,79942,1,0,0:0:0:0:
320,192,80109,1,0,0:0:0:0:
320,192,80276,128,0,80359:0:0:0:0:
448,192,80276,128,0,80401:0:0:0:0:
192,192,80442,1,0,0:0:0:0:
64,192,80609,1,0,0:0:0:0:
192,192,80776,128,2,81067:1:0:0:0:
448,192,80776,128,0,81026:0:0:0:0:
64,192,80942,128,0,81317:0:0:0:0:
320,192,81109,128,0,81484:0:0:0:0:
192,192,81276,128,0,81401:0:0:0:0:
448,192,81276,128,0,81567:0:0:0:0:
64,192,81442,1,0,0:0:0:0:
320,192,81609,1,0,0:0:0:0:
64,192,81776,128,8,82276:0:0:0:0:
448,192,81776,128,0,82026:0:0:0:0:
192,192,81942,1,0,0:0:0:0:
320,192,82109,128,0,82526:0:0:0:0:
192,192,82276,128,0,82401:0:0:0:0:
448,192,82276,128,0,82734:0:0:0:0:
64,192,82442,1,0,0:0:0:0:
192,192,82609,1,2,1:0:0:0:
64,192,82776,128,2,82942:1:0:0:0:
192,192,82776,128,0,82984:0:0:0:0:
448,192,82942,1,0,0:0:0:0:
64,192,83109,1,2,1:0:0:0:
192,192,83109,128,0,83401:0:0:0:0:
320,192,83276,128,2,83484:1:0:0:0:
448,192,83276,128,0,83567:0:0:0:0:
64,192,83442,1,0,0:0:0:0:
192,192,83609,128,0,83984:0:0:0:0:
64,192,83776,128,8,84026:0:0:0:0:
448,192,83776,128,0,83901:0:0:0:0:
320,192,83942,1,0,0:0:0:0:
192,192,84109,128,0,84734:0:0:0:0:
64,192,84276,128,0,84692:0:0:0:0:
320,192,84276,128,0,84692:0:0:0:0:
448,192,84276,128,0,84692:0:0:0:0:
64,192,84776,128,2,85192:1:0:0:0:
320,192,84776,128,0,85026:0:0:0:0:
448,192,84776,128,0,85067:0:0:0:0:
192,192,84942,128,0,85151:0:0:0:0:
320,192,85109,1,0,0:0:0:0:
64,192,85276,128,2,85567:1:0:0:0:
192,192,85276,128,0,85526:0:0:0:0:
448,192,85276,128,0,85692:0:0:0:0:
320,192,85442,128,2,85651:1:0:0:0:
192,192,85609,1,2,1:0:0:0:
64,192,85776,128,8,85901:0:0:0:0:
448,192,85776,128,0,85984:0:0:0:0:
320,192,85942,128,0,86192:0:0:0:0:
192,192,86109,128,0,86401:0:0:0:0:
320,192,86276,128,0,86442:0:0:0:0:
448,192,86276,128,0,86484:0:0:0:0:
64,192,86442,128,0,86817:0:0:0:0:
320,192,86609,128,0,86984:0:0:0:0:
192,192,86776,128,0,86901:0:0:0:0:
448,192,86942,128,0,87067:0:0:0:0:
64,192,87109,128,2,87567:1:0:0:0:
192,192,87109,128,0,87234:0:0:0:0:
320,192,87276,128,2,87484:1:0:0:0:
448,192,87276,128,0,87442:0:0:0:0:
192,192,87442,128,0,87526:0:0:0:0:
320,192,87609,128,0,88109:0:0:0:0:
64,192,87776,128,8,88276:0:0:0:0:
192,192,87776,128,0,87942:0:0:0:0:
448,192,87776,128,0,88276:0:0:0:0:
64,192,88776,128,4,88942:1:0:0:0:
192,192,88776,128,0,89109:0:0:0:0:
320,192,88776,128,0,89276:0:0:0:0:
448,192,88776,128,0,89276:0:0:0:0:
64,192,89276,128,0,89609:0:0:0:0:
192,192,89276,128,0,89442:0:0:0:0:
448,192,89442,1,0,0:0:0:0:
320,192,89609,1,0,0:0:0:0:
64,192,89776,1,8,0:0:0:0:
448,192,89776,128,0,90276:0:0:0:0:
192,192,89942,1,0,0:0:0:0:
320,192,90109,128,0,90442:0:0:0:0:
64,192,90276,128,0,90609:0:0:0:0:
192,192,90276,128,0,90609:0:0:0:0:
448,192,90442,1,0,0:0:0:0:
320,192,90609,1,0,0:0:0:0:
64,192,90776,1,0,0:0:0:0:
192,192,90776,128,0,91109:0:0:0:0:
448,192,90942,1,0,0:0:0:0:
320,192,91109,128,2,91276:1:0:0:0:
448,192,91109,1,0,0:0:0:0:
64,192,91276,1,2,1:0:0:0:
192,192,91276,128,0,91609:0:0:0:0:
64,192,91442,1,0,0:0:0:0:
320,192,91609,128,0,91734:0:0:0:0:
64,192,91776,128,8,91942:0:0:0:0:
448,192,91776,128,0,91942:0:0:0:0:
320,192,91942,1,0,0:0:0:0:
192,192,92109,1,0,0:0:0:0:
448,192,92192,1,0,0:0:0:0:
64,192,92276,128,0,92526:0:0:0:0:
320,192,92276,128,0,92692:0:0:0:0:
192,192,92442,128,0,92609:0:0:0:0:
448,192,92609,128,0,92776:0:0:0:0:
64,192,92776,1,2,1:0:0:0:
192,192,92776,1,0,0:0:0:0:
320,192,92942,1,0,0:0:0:0:
192,192,93109,1,0,0:0:0:0:
64,192,93276,1,0,0:0:0:0:
448,192,93442,1,0,0:0:0:0:
320,192,93609,1,0,0:0:0:0:
64,192,93776,1,8,0:0:0:0:
448,192,93776,1,0,0:0:0:0:
192,192,93942,1,0,0:0:0:0:
64,192,94109,1,0,0:0:0:0:
320,192,94276,128,0,94338:0:0:0:0:
448,192,94276,1,0,0:0:0:0:
192,192,94442,1,0,0:0:0:0:
448,192,94609,1,0,0:0:0:0:
192,192,94776,128,0,94838:0:0:0:0:
320,192,94942,1,0,0:0:0:0:
64,192,95109,1,2,1:0:0:0:
192,192,95109,128,0,95171:0:0:0:0:
320,192,95276,128,2,95338:1:0:0:0:
448,192,95276,1,0,0:0:0:0:
64,192,95442,1,2,1:0:0:0:
192,192,95609,1,0,0:0:0:0:
64,192,95776,1,8,0:0:0:0:
448,192,95776,1,0,0:0:0:0:
320,192,95942,1,0,0:0:0:0:
448,192,96109,1,0,0:0:0:0:
192,192,96276,1,0,0:0:0:0:
320,192,96442,1,0,0:0:0:0:
64,192,96609,1,0,0:0:0:0:
64,192,96776,128,2,96942:1:0:0:0:
192,192,96776,128,0,97109:0:0:0:0:
320,192,96942,128,0,97276:0:0:0:0:
448,192,97109,128,0,97276:0:0:0:0:
64,192,97276,128,0,97609:0:0:0:0:
192,192,97276,128,0,97442:0:0:0:0:
448,192,97442,1,0,0:0:0:0:
320,192,97609,1,0,0:0:0:0:
64,192,97776,1,8,0:0:0:0:
448,192,97776,128,0,98276:0:0:0:0:
192,192,97942,1,0,0:0:0:0:
320,192,98109,128,0,98442:0:0:0:0:
64,192,98276,128,0,98609:0:0:0:0:
192,192,98276,128,0,98609:0:0:0:0:
448,192,98442,1,0,0:0:0:0:
320,192,98609,1,2,1:0:0:0:
64,192,98776,1,2,1:0:0:0:
192,192,98776,128,0,99109:0:0:0:0:
448,192,98942,1,0,0:0:0:0:
320,192,99109,128,2,99276:1:0:0:0:
448,192,99109,1,0,0:0:0:0:
64,192,99276,1,2,1:0:0:0:
192,192,99276,128,0,99609:0:0:0:0:
64,192,99442,1,0,0:0:0:0:
320,192,99609,128,0,99776:0:0:0:0:
64,192,99776,128,8,99901:0:0:0:0:
448,192,99776,128,0,99901:0:0:0:0:
320,192,99942,1,0,0:0:0:0:
192,192,100109,1,0,0:0:0:0:
64,192,100276,128,0,100526:0:0:0:0:
320,192,100276,128,0,100692:0:0:0:0:
192,192,100442,128,0,100609:0:0:0:0:
448,192,100609,128,0,100776:0:0:0:0:
64,192,100776,1,2,1:0:0:0:
192,192,100776,1,0,0:0:0:0:
320,192,100942,1,0,0:0:0:0:
192,192,101109,1,0,0:0:0:0:
64,192,101276,128,0,101338:0:0:0:0:
448,192,101442,1,0,0:0:0:0:
320,192,101609,1,0,0:0:0:0:
64,192,101776,1,8,0:0:0:0:
448,192,101776,1,0,0:0:0:0:
192,192,101942,1,0,0:0:0:0:
64,192,102109,1,0,0:0:0:0:
320,192,102276,128,0,102338:0:0:0:0:
448,192,102276,1,0,0:0:0:0:
192,192,102442,1,0,0:0:0:0:
448,192,102609,1,0,0:0:0:0:
192,192,102776,128,0,102838:0:0:0:0:
320,192,102942,1,0,0:0:0:0:
64,192,103109,1,2,1:0:0:0:
192,192,103109,1,0,0:0:0:0:
320,192,103276,1,2,1:0:0:0:
448,192,103276,1,0,0:0:0:0:
64,192,103442,1,2,1:0:0:0:
192,192,103609,1,0,0:0:0:0:
64,192,103776,1,8,0:0:0:0:
448,192,103776,1,0,0:0:0:0:
320,192,103942,1,0,0:0:0:0:
448,192,104109,1,2,1:0:0:0:
192,192,104276,1,2,1:0:0:0:
320,192,104442,1,2,1:0:0:0:
64,192,104609,1,2,1:0:0:0:
320,192,104776,1,4,0:0:0:0:
448,192,104776,1,0,0:0:0:0:
192,192,104942,1,0,0:0:0:0:
64,192,105109,1,0,0:0:0:0:
320,192,105276,128,0,105567:0:0:0:0:
448,192,105276,128,0,105484:0:0:0:0:
64,192,105442,1,2,1:0:0:0:
192,192,105609,1,2,1:0:0:0:
64,192,105776,128,8,106109:0:0:0:0:
448,192,105776,1,0,0:0:0:0:
320,192,105942,128,0,106276:0:0:0:0:
448,192,106109,1,0,0:0:0:0:
192,192,106276,128,0,106776:0:0:0:0:
448,192,106442,128,0,106776:0:0:0:0:
64,192,106609,1,2,1:0:0:0:
320,192,106776,128,2,107026:1:0:0:0:
448,192,106942,128,0,107151:0:0:0:0:
64,192,107109,1,2,1:0:0:0:
192,192,107276,128,2,107526:1:0:0:0:
320,192,107442,128,2,107651:1:0:0:0:
64,192,107609,1,2,1:0:0:0:
64,192,107776,128,8,108026:0:0:0:0:
448,192,107776,1,0,0:0:0:0:
192,192,107942,128,0,108442:0:0:0:0:
448,192,108109,1,0,0:0:0:0:
320,192,108192,1,0,0:0:0:0:
64,192,108276,128,0,108609:0:0:0:0:
448,192,108442,128,0,108776:0:0:0:0:
320,192,108609,1,0,0:0:0:0:
64,192,108776,128,2,109109:1:0:0:0:
192,192,108942,1,0,0:0:0:0:
320,192,109109,1,0,0:0:0:0:
192,192,109276,128,0,109859:0:0:0:0:
448,192,109442,1,0,0:0:0:0:
320,192,109609,128,2,109776:1:0:0:0:
64,192,109776,128,8,110442:0:0:0:0:
448,192,109776,128,0,109942:0:0:0:0:
320,192,109942,128,0,110109:0:0:0:0:
192,192,110109,1,0,0:0:0:0:
448,192,110276,128,0,110442:0:0:0:0:
192,192,110442,1,0,0:0:0:0:
320,192,110609,1,2,1:0:0:0:
64,192,110776,128,2,111276:1:0:0:0:
320,192,110942,1,0,0:0:0:0:
448,192,111109,1,0,0:0:0:0:
192,192,111276,1,2,1:0:0:0:
320,192,111442,1,0,0:0:0:0:
448,192,111609,1,2,1:0:0:0:
64,192,111776,1,8,0:0:0:0:
448,192,111776,1,0,0:0:0:0:
64,192,111942,1,0,0:0:0:0:
320,192,112109,1,0,0:0:0:0:
448,192,112276,1,0,0:0:0:0:
192,192,112442,1,0,0:0:0:0:
320,192,112609,1,0,0:0:0:0:
320,192,112776,128,0,113026:0:0:0:0:
448,192,112776,128,0,113109:0:0:0:0:
192,192,113276,128,0,113776:0:0:0:0:
320,192,113442,128,0,113776:0:0:0:0:
448,192,113776,128,8,114109:0:0:0:0:
64,192,113942,128,0,114276:0:0:0:0:
320,192,114276,128,0,114442:0:0:0:0:
448,192,114442,128,0,114776:0:0:0:0:
192,192,114609,1,2,1:0:0:0:
192,192,114776,128,0,114942:0:0:0:0:
320,192,114942,128,0,115276:0:0:0:0:
64,192,115276,128,2,115567:1:0:0:0:
192,192,115442,128,0,115609:0:0:0:0:
64,192,115776,128,8,116109:0:0:0:0:
448,192,115776,1,0,0:0:0:0:
448,192,115942,128,0,116442:0:0:0:0:
64,192,116276,128,0,116609:0:0:0:0:
320,192,116442,128,0,116609:0:0:0:0:
64,192,116776,128,2,116942:1:0:0:0:
320,192,116942,128,0,117109:0:0:0:0:
192,192,117276,128,0,117526:0:0:0:0:
448,192,117442,128,0,117692:0:0:0:0:
64,192,117776,128,8,118192:0:0:0:0:
448,192,117776,1,0,0:0:0:0:
320,192,117942,128,0,118359:0:0:0:0:
192,192,118276,128,0,118609:0:0:0:0:
448,192,118442,128,0,118776:0:0:0:0:
64,192,118609,1,2,1:0:0:0:
320,192,118776,128,0,119109:0:0:0:0:
64,192,118942,128,0,119276:0:0:0:0:
448,192,119109,128,2,119692:1:0:0:0:
320,192,119276,128,2,119776:1:0:0:0:
192,192,119442,128,2,119776:1:0:0:0:
64,192,119609,128,2,119692:1:0:0:0:
64,192,119776,1,8,0:0:0:0:
448,192,119776,1,0,0:0:0:0:
64,192,120276,128,8,120376:0:0:0:0:
448,192,120276,128,8,120376:1:0:0:0:
64,192,120776,128,4,121359:1:0:0:0:
192,192,120776,128,2,121026:1:0:0:0:
320,192,120776,128,0,121442:0:0:0:0:
448,192,120776,128,0,121026:0:0:0:0:
192,192,121276,128,0,121401:0:0:0:0:
448,192,121276,128,0,121567:0:0:0:0:
64,192,121442,1,0,0:0:0:0:
320,192,121609,1,0,0:0:0:0:
64,192,121776,128,8,122276:0:0:0:0:
448,192,121776,128,0,122109:0:0:0:0:
192,192,121942,1,0,0:0:0:0:
320,192,122109,128,0,122526:0:0:0:0:
192,192,122276,128,0,122401:0:0:0:0:
448,192,122276,128,0,122651:0:0:0:0:
64,192,122442,1,0,0:0:0:0:
192,192,122609,1,0,0:0:0:0:
320,192,122776,128,0,122942:0:0:0:0:
448,192,122776,128,0,123026:0:0:0:0:
192,192,122942,1,0,0:0:0:0:
320,192,123109,128,2,123359:1:0:0:0:
448,192,123109,1,0,0:0:0:0:
64,192,123276,128,2,123484:1:0:0:0:
192,192,123276,128,0,123442:0:0:0:0:
448,192,123442,1,0,0:0:0:0:
192,192,123609,128,0,123776:0:0:0:0:
320,192,123609,128,0,123817:0:0:0:0:
64,192,123776,128,8,123901:0:0:0:0:
448,192,123776,128,0,123984:0:0:0:0:
192,192,123942,1,0,0:0:0:0:
320,192,124109,128,0,124359:0:0:0:0:
64,192,124276,128,0,124442:0:0:0:0:
192,192,124276,128,0,124401:0:0:0:0:
448,192,124442,1,2,1:0:0:0:
320,192,124609,128,0,124692:0:0:0:0:
64,192,124776,128,2,125067:1:0:0:0:
192,192,124776,128,0,125109:0:0:0:0:
320,192,124942,128,0,125151:0:0:0:0:
448,192,125109,128,0,125192:0:0:0:0:
320,192,125276,128,2,125526:1:0:0:0:
448,192,125276,128,0,125609:0:0:0:0:
64,192,125442,128,2,125567:1:0:0:0:
192,192,125609,128,2,125817:1:0:0:0:
320,192,125609,128,0,125734:0:0:0:0:
64,192,125776,128,8,126234:0:0:0:0:
448,192,125776,128,0,126109:0:0:0:0:
320,192,125942,128,0,126151:0:0:0:0:
192,192,126109,128,0,126192:0:0:0:0:
320,192,126276,128,0,126338:0:0:0:0:
448,192,126276,128,0,126859:0:0:0:0:
192,192,126442,1,0,0:0:0:0:
320,192,126609,128,0,127026:0:0:0:0:
64,192,126776,128,0,127026:0:0:0:0:
192,192,126776,128,0,126838:0:0:0:0:
448,192,126942,1,0,0:0:0:0:
64,192,127109,128,2,127234:1:0:0:0:
192,192,127109,128,0,127276:0:0:0:0:
320,192,127276,128,2,127526:1:0:0:0:
448,192,127276,128,0,127567:0:0:0:0:
64,192,127442,1,0,0:0:0:0:
320,192,127609,128,0,127942:0:0:0:0:
64,192,127776,128,8,128192:0:0:0:0:
448,192,127776,128,0,127900:0:0:0:0:
192,192,127942,1,0,0:0:0:0:
320,192,128109,128,0,128192:0:0:0:0:
320,192,128275,128,0,128400:0:0:0:0:
448,192,128275,128,0,128442:0:0:0:0:
192,192,128442,1,0,0:0:0:0:
64,192,128609,1,0,0:0:0:0:
192,192,128775,128,2,129067:1:0:0:0:
448,192,128775,128,0,129025:0:0:0:0:
64,192,128942,128,0,129317:0:0:0:0:
320,192,129109,128,0,129484:0:0:0:0:
192,192,129275,128,0,129401:0:0:0:0:
448,192,129275,128,0,129567:0:0:0:0:
64,192,129442,1,0,0:0:0:0:
320,192,129609,1,0,0:0:0:0:
64,192,129776,128,8,130276:0:0:0:0:
448,192,129776,128,0,130026:0:0:0:0:
192,192,129942,1,0,0:0:0:0:
320,192,130109,128,0,130526:0:0:0:0:
192,192,130276,128,0,130401:0:0:0:0:
448,192,130276,128,0,130651:0:0:0:0:
64,192,130442,1,0,0:0:0:0:
192,192,130609,1,2,1:0:0:0:
64,192,130776,128,2,130942:1:0:0:0:
192,192,130776,128,0,130984:0:0:0:0:
448,192,130942,1,0,0:0:0:0:
64,192,131109,1,2,1:0:0:0:
192,192,131109,128,0,131401:0:0:0:0:
320,192,131276,128,2,131484:1:0:0:0:
448,192,131276,128,0,131567:0:0:0:0:
64,192,131442,1,0,0:0:0:0:
192,192,131609,128,0,131942:0:0:0:0:
64,192,131776,128,8,131942:0:0:0:0:
448,192,131776,128,0,131901:0:0:0:0:
320,192,131942,1,0,0:0:0:0:
192,192,132109,1,0,0:0:0:0:
320,192,132276,128,0,132484:0:0:0:0:
448,192,132276,128,0,132651:0:0:0:0:
64,192,132442,128,0,132776:0:0:0:0:
192,192,132609,128,0,132776:0:0:0:0:
320,192,132776,128,2,132984:1:0:0:0:
448,192,132776,128,0,133026:0:0:0:0:
192,192,132942,1,0,0:0:0:0:
64,192,133109,128,0,133192:0:0:0:0:
64,192,133276,128,2,133567:1:0:0:0:
320,192,133276,128,0,133651:0:0:0:0:
448,192,133442,128,2,133692:1:0:0:0:
192,192,133609,1,2,1:0:0:0:
64,192,133776,128,8,134026:0:0:0:0:
448,192,133776,128,0,134026:0:0:0:0:
192,192,133942,1,0,0:0:0:0:
320,192,134109,1,0,0:0:0:0:
192,192,134276,128,0,134526:0:0:0:0:
448,192,134276,128,0,134442:0:0:0:0:
64,192,134442,128,0,134609:0:0:0:0:
448,192,134609,128,0,134901:0:0:0:0:
64,192,134776,128,0,135151:0:0:0:0:
320,192,134776,128,0,135026:0:0:0:0:
192,192,134942,1,0,0:0:0:0:
320,192,135109,128,2,135317:1:0:0:0:
448,192,135109,128,0,135317:0:0:0:0:
64,192,135276,128,2,135484:1:0:0:0:
192,192,135276,128,0,135484:0:0:0:0:
320,192,135442,1,0,0:0:0:0:
192,192,135609,128,0,135817:0:0:0:0:
64,192,135776,128,8,136109:0:0:0:0:
448,192,135776,128,0,136609:0:0:0:0:
320,192,135942,128,0,136442:0:0:0:0:
192,192,136109,128,2,136276:1:0:0:0:
64,192,136276,1,2,1:0:0:0:
192,192,136442,1,2,1:0:0:0:
320,192,136609,1,2,1:0:0:0:
64,192,136776,128,4,137317:0:0:0:0:
192,192,136776,128,0,137026:0:0:0:0:
320,192,136776,128,0,137484:0:0:0:0:
448,192,136776,128,0,137026:0:0:0:0:
192,192,137276,128,0,137401:0:0:0:0:
448,192,137276,128,0,137567:0:0:0:0:
64,192,137442,1,0,0:0:0:0:
320,192,137609,1,0,0:0:0:0:
64,192,137776,128,8,138276:0:0:0:0:
448,192,137776,128,0,138109:0:0:0:0:
192,192,137942,1,0,0:0:0:0:
320,192,138109,128,0,138526:0:0:0:0:
192,192,138276,128,0,138401:0:0:0:0:
448,192,138276,128,0,138651:0:0:0:0:
64,192,138442,1,0,0:0:0:0:
320,192,138609,1,0,0:0:0:0:
192,192,138776,128,0,138942:0:0:0:0:
448,192,138776,128,0,139026:0:0:0:0:
64,192,138942,1,0,0:0:0:0:
64,192,139109,128,2,139359:1:0:0:0:
320,192,139109,1,0,0:0:0:0:
192,192,139276,128,2,139484:1:0:0:0:
448,192,139276,128,0,139526:0:0:0:0:
320,192,139442,1,0,0:0:0:0:
192,192,139609,128,0,139776:0:0:0:0:
320,192,139609,128,0,139734:0:0:0:0:
64,192,139776,128,8,139901:0:0:0:0:
448,192,139776,128,0,140109:0:0:0:0:
192,192,139942,1,0,0:0:0:0:
320,192,140109,128,0,140359:0:0:0:0:
64,192,140276,128,0,140442:0:0:0:0:
192,192,140276,128,0,140401:0:0:0:0:
448,192,140442,1,2,1:0:0:0:
320,192,140609,128,0,140692:0:0:0:0:
64,192,140776,128,2,141067:1:0:0:0:
192,192,140776,128,0,141109:0:0:0:0:
320,192,140942,128,0,141151:0:0:0:0:
448,192,141109,128,0,141192:0:0:0:0:
320,192,141276,128,2,141526:1:0:0:0:
448,192,141276,128,0,141609:0:0:0:0:
64,192,141442,128,2,141567:1:0:0:0:
192,192,141609,128,2,141817:1:0:0:0:
320,192,141609,128,0,141734:0:0:0:0:
64,192,141776,128,8,142234:0:0:0:0:
448,192,141776,128,0,142109:0:0:0:0:
320,192,141942,128,0,142151:0:0:0:0:
192,192,142109,128,0,142192:0:0:0:0:
320,192,142276,128,0,142338:0:0:0:0:
448,192,142276,128,0,142859:0:0:0:0:
192,192,142442,1,0,0:0:0:0:
320,192,142609,128,0,143026:0:0:0:0:
64,192,142776,128,0,143026:0:0:0:0:
192,192,142776,128,0,142838:0:0:0:0:
448,192,142942,1,0,0:0:0:0:
64,192,143109,128,2,143359:1:0:0:0:
192,192,143109,128,0,143317:0:0:0:0:
320,192,143276,128,2,143526:1:0:0:0:
448,192,143276,128,0,143484:0:0:0:0:
64,192,143442,1,0,0:0:0:0:
320,192,143609,128,0,143942:0:0:0:0:
64,192,143776,128,8,144192:0:0:0:0:
448,192,143776,128,0,143942:0:0:0:0:
192,192,143942,1,0,0:0:0:0:
448,192,144109,128,0,144192:0:0:0:0:
320,192,144276,128,0,144484:0:0:0:0:
448,192,144276,128,0,144442:0:0:0:0:
192,192,144442,1,0,0:0:0:0:
64,192,144609,1,0,0:0:0:0:
192,192,144776,128,2,145067:1:0:0:0:
448,192,144776,128,0,145026:0:0:0:0:
64,192,144942,128,0,145317:0:0:0:0:
320,192,145109,128,0,145484:0:0:0:0:
192,192,145276,128,0,145401:0:0:0:0:
448,192,145276,128,0,145567:0:0:0:0:
64,192,145442,1,0,0:0:0:0:
320,192,145609,1,0,0:0:0:0:
64,192,145776,128,8,146276:0:0:0:0:
448,192,145776,128,0,146026:0:0:0:0:
192,192,145942,1,0,0:0:0:0:
320,192,146109,128,0,146526:0:0:0:0:
192,192,146276,128,0,146401:0:0:0:0:
448,192,146276,128,0,146692:0:0:0:0:
64,192,146442,1,0,0:0:0:0:
192,192,146609,1,2,1:0:0:0:
64,192,146776,128,2,146942:1:0:0:0:
192,192,146776,128,0,146984:0:0:0:0:
448,192,146942,1,0,0:0:0:0:
64,192,147109,1,2,1:0:0:0:
192,192,147109,128,0,147401:0:0:0:0:
320,192,147276,128,2,147484:1:0:0:0:
448,192,147276,128,0,147567:0:0:0:0:
64,192,147442,1,0,0:0:0:0:
192,192,147609,128,0,147984:0:0:0:0:
64,192,147776,128,8,148026:0:0:0:0:
448,192,147776,128,0,147901:0:0:0:0:
320,192,147942,1,0,0:0:0:0:
192,192,148109,128,0,148526:0:0:0:0:
64,192,148276,128,0,148359:0:0:0:0:
320,192,148276,128,0,148526:0:0:0:0:
448,192,148276,128,0,148484:0:0:0:0:
64,192,148442,1,0,0:0:0:0:
448,192,148609,1,0,0:0:0:0:
64,192,148776,128,2,149192:1:0:0:0:
192,192,148776,128,0,149026:0:0:0:0:
320,192,148776,128,0,149067:0:0:0:0:
448,192,148942,128,0,149109:0:0:0:0:
192,192,149109,1,0,0:0:0:0:
192,192,149276,128,2,149567:1:0:0:0:
320,192,149276,128,0,149526:0:0:0:0:
448,192,149276,128,0,149692:0:0:0:0:
64,192,149442,128,2,149609:1:0:0:0:
320,192,149609,128,2,149692:1:0:0:0:
64,192,149776,128,8,149901:0:0:0:0:
448,192,149776,128,0,149984:0:0:0:0:
320,192,149942,128,0,150192:0:0:0:0:
64,192,150109,128,0,150192:0:0:0:0:
192,192,150109,128,0,150401:0:0:0:0:
320,192,150276,128,0,150442:0:0:0:0:
448,192,150276,128,0,150484:0:0:0:0:
64,192,150442,128,0,150942:0:0:0:0:
320,192,150609,128,0,150984:0:0:0:0:
192,192,150776,128,0,150984:0:0:0:0:
448,192,150942,128,0,151026:0:0:0:0:
64,192,151109,128,2,151567:1:0:0:0:
192,192,151109,128,0,151234:0:0:0:0:
320,192,151276,128,2,151484:1:0:0:0:
448,192,151276,128,0,151442:0:0:0:0:
192,192,151442,128,0,151526:0:0:0:0:
320,192,151609,128,0,152109:0:0:0:0:
64,192,151776,128,8,152276:0:0:0:0:
192,192,151776,128,0,151942:0:0:0:0:
448,192,151776,128,0,152276:0:0:0:0:
64,192,152776,128,4,152942:0:0:0:0:
192,192,152776,128,2,152942:1:0:0:0:
192,192,153109,1,0,0:0:0:0:
64,192,153276,1,0,0:0:0:0:
320,192,153609,1,0,0:0:0:0:
64,192,153776,1,8,0:0:0:0:
64,192,154109,1,0,0:0:0:0:
192,192,154276,1,0,0:0:0:0:
320,192,154442,1,0,0:0:0:0:
192,192,154609,1,2,1:0:0:0:
64,192,154776,1,0,0:0:0:0:
448,192,154942,1,0,0:0:0:0:
64,192,155109,1,0,0:0:0:0:
320,192,155276,1,2,1:0:0:0:
192,192,155442,1,0,0:0:0:0:
320,192,155609,1,0,0:0:0:0:
64,192,155776,1,8,0:0:0:0:
192,192,155942,1,0,0:0:0:0:
320,192,156109,1,0,0:0:0:0:
64,192,156276,1,0,0:0:0:0:
448,192,156776,1,2,1:0:0:0:
64,192,157109,1,0,0:0:0:0:
448,192,157276,1,0,0:0:0:0:
320,192,157609,1,0,0:0:0:0:
448,192,157776,1,8,0:0:0:0:
448,192,158109,1,0,0:0:0:0:
320,192,158276,1,0,0:0:0:0:
192,192,158442,1,0,0:0:0:0:
320,192,158609,1,2,1:0:0:0:
448,192,158776,1,0,0:0:0:0:
64,192,158942,1,0,0:0:0:0:
448,192,159109,1,2,1:0:0:0:
192,192,159276,1,0,0:0:0:0:
320,192,159442,1,0,0:0:0:0:
192,192,159609,1,0,0:0:0:0:
64,192,159776,128,8,159901:0:0:0:0:
448,192,159776,128,0,159901:0:0:0:0:
320,192,159942,128,8,160067:0:0:0:0:
192,192,160109,128,8,160234:0:0:0:0:
64,192,160276,128,2,160359:1:0:0:0:
448,192,160276,128,0,160359:0:0:0:0:
64,192,160442,128,2,160526:1:0:0:0:
192,192,160442,128,0,160526:0:0:0:0:
320,192,160609,128,2,160692:1:0:0:0:
448,192,160609,128,0,160692:0:0:0:0:
320,192,160776,128,4,160942:0:0:0:0:
448,192,160776,128,2,160942:1:0:0:0:
192,192,161109,1,0,0:0:0:0:
64,192,161276,1,2,1:0:0:0:
320,192,161609,1,2,1:0:0:0:
64,192,161776,1,8,0:0:0:0:
448,192,161776,128,0,161901:0:0:0:0:
64,192,162109,1,0,0:0:0:0:
192,192,162276,1,0,0:0:0:0:
320,192,162442,1,0,0:0:0:0:
192,192,162609,1,2,1:0:0:0:
64,192,162776,1,2,1:0:0:0:
448,192,162942,1,0,0:0:0:0:
64,192,163109,1,2,1:0:0:0:
320,192,163276,1,2,1:0:0:0:
192,192,163442,1,2,1:0:0:0:
320,192,163609,1,2,1:0:0:0:
64,192,163776,128,8,163901:0:0:0:0:
448,192,163776,1,0,0:0:0:0:
192,192,163942,1,0,0:0:0:0:
320,192,164109,1,2,1:0:0:0:
448,192,164276,1,2,1:0:0:0:
320,192,164442,128,0,164609:0:0:0:0:
192,192,164609,128,0,164692:0:0:0:0:
64,192,164776,1,0,0:0:0:0:
192,192,164942,1,0,0:0:0:0:
320,192,165109,128,0,165192:0:0:0:0:
448,192,165276,128,0,165359:0:0:0:0:
320,192,165442,128,0,165609:0:0:0:0:
192,192,165609,128,0,165734:0:0:0:0:
64,192,165776,128,0,165859:0:0:0:0:
192,192,165942,128,0,166026:0:0:0:0:
320,192,166109,128,0,166234:0:0:0:0:
448,192,166276,128,0,166401:0:0:0:0:
192,192,166442,128,0,166526:0:0:0:0:
320,192,166609,128,2,166692:1:0:0:0:
64,192,166776,128,2,166901:1:0:0:0:
192,192,166942,128,2,167067:1:0:0:0:
320,192,167109,128,2,167317:1:0:0:0:
448,192,167276,128,2,167484:1:0:0:0:
192,192,167442,128,0,167609:0:0:0:0:
320,192,167609,128,0,167776:0:0:0:0:
64,192,167776,128,2,167984:1:0:0:0:
448,192,167776,1,8,0:0:0:0:
192,192,167942,128,2,168234:1:0:0:0:
320,192,168109,128,2,168484:1:0:0:0:
448,192,168276,128,2,168734:1:0:0:0:
64,192,168442,128,2,168859:1:0:0:0:
192,192,168609,128,2,168817:1:0:0:0:
320,192,168776,128,4,169234:1:0:0:0:
448,192,169276,128,0,169651:0:0:0:0:
64,192,169776,128,0,170026:0:0:0:0:
192,192,170109,128,0,170234:0:0:0:0:
448,192,170276,128,0,170651:0:0:0:0:
320,192,170776,128,0,171026:0:0:0:0:
192,192,171109,128,0,171234:0:0:0:0:
448,192,171317,128,0,171567:0:0:0:0:
64,192,171651,128,0,171776:0:0:0:0:
192,192,171817,128,0,172192:0:0:0:0:
320,192,172151,128,0,172276:0:0:0:0:
64,192,172317,128,0,172567:0:0:0:0:
64,192,172776,128,0,172859:0:0:0:0:
192,192,173276,128,0,173526:0:0:0:0:
320,192,173651,128,0,173776:0:0:0:0:
448,192,173817,128,0,174192:0:0:0:0:
320,192,174276,128,0,174734:0:0:0:0:
192,192,174609,128,0,174776:0:0:0:0:
320,192,175109,128,0,175234:0:0:0:0:
192,192,175276,128,0,175442:0:0:0:0:
64,192,175609,128,0,175859:0:0:0:0:
448,192,175776,128,0,176026:0:0:0:0:
320,192,176067,128,0,176317:0:0:0:0:
192,192,176276,128,0,176401:0:0:0:0:
64,192,176776,128,4,176942:0:0:0:0:
192,192,176776,1,0,0:0:0:0:
320,192,176942,128,0,177109:0:0:0:0:
192,192,177109,128,0,177276:0:0:0:0:
64,192,177276,128,0,177442:0:0:0:0:
320,192,177442,1,2,1:0:0:0:
192,192,177609,128,0,177942:0:0:0:0:
64,192,177776,1,8,0:0:0:0:
448,192,177776,128,0,177942:0:0:0:0:
320,192,177942,128,0,178109:0:0:0:0:
192,192,178109,128,0,178276:0:0:0:0:
64,192,178276,128,0,178442:0:0:0:0:
320,192,178442,1,2,1:0:0:0:
448,192,178609,1,2,1:0:0:0:
64,192,178776,128,0,179026:0:0:0:0:
320,192,178942,128,0,179026:0:0:0:0:
192,192,179109,128,2,179276:1:0:0:0:
448,192,179276,128,2,179442:1:0:0:0:
320,192,179442,128,2,179609:1:0:0:0:
192,192,179609,128,0,179901:0:0:0:0:
64,192,179776,128,8,179901:0:0:0:0:
448,192,179776,128,0,179942:0:0:0:0:
320,192,179942,128,0,180109:0:0:0:0:
448,192,180109,128,0,180192:0:0:0:0:
64,192,180276,1,0,0:0:0:0:
192,192,180442,128,0,180734:0:0:0:0:
64,192,180609,128,0,180734:0:0:0:0:
320,192,180776,128,4,180859:0:0:0:0:
448,192,180776,128,0,180942:0:0:0:0:
192,192,180942,128,0,181151:0:0:0:0:
320,192,181109,128,0,181192:0:0:0:0:
448,192,181276,128,0,181401:0:0:0:0:
192,192,181442,128,2,181567:1:0:0:0:
320,192,181609,128,0,181692:0:0:0:0:
64,192,181776,128,8,181984:0:0:0:0:
448,192,181776,128,0,182026:0:0:0:0:
192,192,181942,128,0,182067:0:0:0:0:
64,192,182109,128,0,182359:0:0:0:0:
320,192,182276,128,0,182442:0:0:0:0:
192,192,182442,1,0,0:0:0:0:
320,192,182609,128,2,183026:1:0:0:0:
192,192,182776,128,2,182984:1:0:0:0:
448,192,182942,1,0,0:0:0:0:
64,192,183109,128,2,183651:1:0:0:0:
448,192,183276,128,2,183609:1:0:0:0:
320,192,183442,128,2,183651:1:0:0:0:
192,192,183609,128,0,183776:0:0:0:0:
64,192,183776,128,8,183901:0:0:0:0:
448,192,183776,128,0,183859:0:0:0:0:
192,192,183942,128,8,184026:0:0:0:0:
320,192,183942,128,0,184151:0:0:0:0:
64,192,184109,128,8,184401:0:0:0:0:
448,192,184109,128,0,184401:0:0:0:0:
192,192,184276,128,8,184442:0:0:0:0:
320,192,184276,128,0,184359:0:0:0:0:
64,192,184776,128,4,185359:1:0:0:0:
192,192,184776,128,0,185151:0:0:0:0:
320,192,184776,128,0,185526:0:0:0:0:
448,192,184776,128,0,185151:0:0:0:0:
192,192,185276,128,0,185401:0:0:0:0:
448,192,185276,128,0,185567:0:0:0:0:
64,192,185442,128,0,185651:0:0:0:0:
320,192,185609,128,0,185692:0:0:0:0:
64,192,185776,128,8,186276:0:0:0:0:
448,192,185776,128,0,186109:0:0:0:0:
192,192,185942,1,0,0:0:0:0:
320,192,186109,128,0,186526:0:0:0:0:
192,192,186276,128,0,186401:0:0:0:0:
448,192,186276,128,0,186651:0:0:0:0:
64,192,186442,128,0,186609:0:0:0:0:
320,192,186609,128,0,186776:0:0:0:0:
192,192,186776,128,0,186942:0:0:0:0:
448,192,186776,128,0,187026:0:0:0:0:
64,192,186942,1,0,0:0:0:0:
64,192,187109,128,2,187359:1:0:0:0:
320,192,187109,1,0,0:0:0:0:
192,192,187276,128,2,187484:1:0:0:0:
448,192,187276,128,0,187526:0:0:0:0:
320,192,187442,1,0,0:0:0:0:
192,192,187609,128,0,187776:0:0:0:0:
320,192,187609,128,0,187734:0:0:0:0:
64,192,187776,128,8,187901:0:0:0:0:
448,192,187776,128,0,188109:0:0:0:0:
192,192,187942,1,0,0:0:0:0:
320,192,188109,128,0,188359:0:0:0:0:
64,192,188276,128,0,188442:0:0:0:0:
192,192,188276,128,0,188401:0:0:0:0:
448,192,188442,1,2,1:0:0:0:
320,192,188609,128,0,188692:0:0:0:0:
64,192,188776,128,2,189067:1:0:0:0:
192,192,188776,128,0,189109:0:0:0:0:
320,192,188942,128,0,189151:0:0:0:0:
448,192,189109,128,0,189192:0:0:0:0:
320,192,189276,128,2,189526:1:0:0:0:
448,192,189276,128,0,189609:0:0:0:0:
64,192,189442,128,2,189567:1:0:0:0:
192,192,189609,128,2,189817:1:0:0:0:
320,192,189609,128,0,189734:0:0:0:0:
64,192,189776,128,8,190234:0:0:0:0:
448,192,189776,128,0,190109:0:0:0:0:
320,192,189942,128,0,190151:0:0:0:0:
192,192,190109,128,0,190192:0:0:0:0:
320,192,190276,128,0,190338:0:0:0:0:
448,192,190276,128,0,190859:0:0:0:0:
192,192,190442,1,0,0:0:0:0:
320,192,190609,128,0,191026:0:0:0:0:
64,192,190776,128,0,191026:0:0:0:0:
192,192,190776,128,0,190838:0:0:0:0:
448,192,190942,1,0,0:0:0:0:
64,192,191109,128,2,191359:1:0:0:0:
192,192,191109,128,0,191317:0:0:0:0:
320,192,191276,128,2,191526:1:0:0:0:
448,192,191276,128,0,191484:0:0:0:0:
64,192,191442,1,0,0:0:0:0:
320,192,191609,128,0,191942:0:0:0:0:
64,192,191776,128,8,192192:0:0:0:0:
448,192,191776,128,0,191942:0:0:0:0:
192,192,191942,1,0,0:0:0:0:
448,192,192109,128,0,192192:0:0:0:0:
320,192,192276,128,0,192484:0:0:0:0:
448,192,192276,128,0,192442:0:0:0:0:
192,192,192442,1,0,0:0:0:0:
64,192,192609,1,0,0:0:0:0:
192,192,192776,128,2,193151:1:0:0:0:
448,192,192776,128,0,193067:0:0:0:0:
64,192,192942,128,0,193317:0:0:0:0:
320,192,193109,128,0,193484:0:0:0:0:
192,192,193276,128,0,193401:0:0:0:0:
448,192,193276,128,0,193567:0:0:0:0:
64,192,193442,128,0,193651:0:0:0:0:
320,192,193609,128,0,193692:0:0:0:0:
64,192,193776,128,8,194276:0:0:0:0:
448,192,193776,128,0,194026:0:0:0:0:
192,192,193942,1,0,0:0:0:0:
320,192,194109,128,0,194526:0:0:0:0:
192,192,194276,128,0,194401:0:0:0:0:
448,192,194276,128,0,194734:0:0:0:0:
64,192,194442,128,0,194526:0:0:0:0:
192,192,194609,128,2,194692:1:0:0:0:
64,192,194776,128,2,194942:1:0:0:0:
192,192,194776,128,0,194984:0:0:0:0:
448,192,194942,1,0,0:0:0:0:
64,192,195109,1,2,1:0:0:0:
192,192,195109,128,0,195401:0:0:0:0:
320,192,195276,128,2,195484:1:0:0:0:
448,192,195276,128,0,195567:0:0:0:0:
64,192,195442,1,0,0:0:0:0:
192,192,195609,128,0,195984:0:0:0:0:
64,192,195776,128,8,196026:0:0:0:0:
448,192,195776,128,0,195901:0:0:0:0:
320,192,195942,1,0,0:0:0:0:
192,192,196109,128,0,196859:0:0:0:0:
64,192,196276,128,0,196359:0:0:0:0:
320,192,196276,128,0,196567:0:0:0:0:
448,192,196276,128,0,196526:0:0:0:0:
64,192,196442,128,0,196651:0:0:0:0:
448,192,196609,128,0,196692:0:0:0:0:
64,192,196776,128,2,197109:1:0:0:0:
320,192,196776,128,0,197026:0:0:0:0:
448,192,196776,128,0,196984:0:0:0:0:
192,192,196942,128,0,197067:0:0:0:0:
320,192,197109,128,0,197317:0:0:0:0:
64,192,197276,128,2,197484:1:0:0:0:
192,192,197276,128,0,197526:0:0:0:0:
448,192,197276,128,0,197567:0:0:0:0:
320,192,197442,128,2,197526:1:0:0:0:
192,192,197609,128,2,197901:1:0:0:0:
320,192,197609,128,0,197817:0:0:0:0:
64,192,197776,128,8,197984:0:0:0:0:
448,192,197776,128,0,197984:0:0:0:0:
320,192,197942,128,0,198192:0:0:0:0:
64,192,198109,128,0,198192:0:0:0:0:
192,192,198109,128,0,198401:0:0:0:0:
320,192,198276,128,0,198442:0:0:0:0:
448,192,198276,128,0,198484:0:0:0:0:
64,192,198442,128,0,198942:0:0:0:0:
320,192,198609,128,0,198984:0:0:0:0:
192,192,198776,128,0,198984:0:0:0:0:
448,192,198942,128,0,199026:0:0:0:0:
64,192,199109,128,2,199692:1:0:0:0:
192,192,199109,128,0,199317:0:0:0:0:
320,192,199276,128,2,199484:1:0:0:0:
448,192,199276,128,0,199567:0:0:0:0:
192,192,199442,128,0,199651:0:0:0:0:
320,192,199609,128,0,200359:0:0:0:0:
64,192,199776,128,8,200026:0:0:0:0:
192,192,199776,128,0,200192:0:0:0:0:
448,192,199776,128,0,200526:0:0:0:0:
64,192,200109,128,2,200567:1:0:0:0:
192,192,200276,128,2,200609:1:0:0:0:
320,192,200442,128,2,200651:1:0:0:0:
448,192,200609,128,2,200692:1:0:0:0:
64,192,200776,128,4,200901:1:0:0:0:
192,192,200776,128,0,200869:0:0:0:0:
320,192,200776,128,0,200859:0:0:0:0:
448,192,200776,128,0,200838:0:0:0:0:
64,192,201276,128,0,201609:0:0:0:0:
192,192,201276,128,0,201442:0:0:0:0:
448,192,201776,128,0,202276:0:0:0:0:
320,192,202109,128,0,202442:0:0:0:0:
64,192,202276,128,0,202609:0:0:0:0:
192,192,202276,128,0,202609:0:0:0:0:
192,192,202776,128,0,203109:0:0:0:0:
448,192,202776,1,0,0:0:0:0:
320,192,203109,128,0,203276:0:0:0:0:
192,192,203276,128,0,203609:0:0:0:0:
320,192,203609,128,0,203734:0:0:0:0:
64,192,203776,128,0,203942:0:0:0:0:
448,192,203776,128,0,203942:0:0:0:0:
64,192,204276,128,0,204526:0:0:0:0:
320,192,204276,128,0,204692:0:0:0:0:
64,192,204776,1,0,0:0:0:0:
448,192,204776,1,0,0:0:0:0:
320,192,205442,128,0,205609:0:0:0:0:
192,192,205609,128,0,205692:0:0:0:0:
192,192,205776,1,0,0:0:0:0:
320,192,205776,1,0,0:0:0:0:
320,192,206442,128,0,206567:0:0:0:0:
192,192,206609,128,0,206692:0:0:0:0:
64,192,206776,1,0,0:0:0:0:
192,192,207276,1,0,0:0:0:0:
320,192,207442,128,0,207609:0:0:0:0:
192,192,207609,128,0,207734:0:0:0:0:
320,192,207776,1,0,0:0:0:0:
192,192,208442,128,0,208609:0:0:0:0:
320,192,208609,128,0,208734:0:0:0:0:
64,192,208776,1,0,0:0:0:0:
448,192,208776,1,0,0:0:0:0:
192,192,209442,128,0,209609:0:0:0:0:
320,192,209609,128,0,209734:0:0:0:0:
448,192,209776,1,0,0:0:0:0:
192,192,210276,1,0,0:0:0:0:
320,192,210442,128,0,210567:0:0:0:0:
192,192,210609,128,0,210692:0:0:0:0:
64,192,210776,1,0,0:0:0:0:
192,192,210776,1,0,0:0:0:0:
192,192,211276,1,0,0:0:0:0:
320,192,211442,128,0,211526:0:0:0:0:
192,192,211609,128,0,211664:0:0:0:0:
320,192,211776,1,0,0:0:0:0:
448,192,212276,1,0,0:0:0:0:
192,192,212442,128,0,212526:0:0:0:0:
320,192,212609,128,0,212734:0:0:0:0:
64,192,212776,1,0,0:0:0:0:
192,192,212776,1,0,0:0:0:0:
320,192,213442,128,0,213609:0:0:0:0:
192,192,213609,128,0,213734:0:0:0:0:
320,192,213776,1,0,0:0:0:0:
448,192,213776,128,0,214401:0:0:0:0:
