osu file format v14

[General]
AudioFilename: full.mp3
AudioLeadIn: 0
PreviewTime: 56776
Countdown: 0
SampleSet: Soft
StackLeniency: 0.2
Mode: 3
LetterboxInBreaks: 0
SpecialStyle: 0
WidescreenStoryboard: 1

[Editor]
Bookmarks: 8776,24776,40776,56776,72776,88776,104776,112776,120776,136776,152776,160776,168776,176776,184776,200776
DistanceSpacing: 3.3
BeatDivisor: 6
GridSize: 32
TimelineZoom: 2

[Metadata]
Title:Jishou Mushoku
TitleUnicode:自傷無色
Artist:Hanatan
ArtistUnicode:花たん
Creator:Abraxos
Version:Hard
Source:
Tags:ねこぼーろ utaite hatsune miku vocaloid self-inflicted achromatic japanese folk nekobolo colorless self-injury self-harm exit tunes presents vocalospace feat evergreen songs 2013 cv01 初音ミク
BeatmapID:2856841
BeatmapSetID:1278216

[Difficulty]
HPDrainRate:7
CircleSize:4
OverallDifficulty:7
ApproachRate:8.9
SliderMultiplier:2.5
SliderTickRate:1

[Events]
//Background and Video events
0,0,"53831532_p0.jpg",0,0
//Break Periods
//Storyboard Layer 0 (Background)
//Storyboard Layer 1 (Fail)
//Storyboard Layer 2 (Pass)
//Storyboard Layer 3 (Foreground)
//Storyboard Layer 4 (Overlay)
//Storyboard Sound Samples

[TimingPoints]
776,500,2,2,53,20,1,0
8776,-100,4,2,53,40,0,0
24776,-100,4,2,53,30,0,0
56776,-100,4,2,53,40,0,0
104776,-100,4,2,53,30,0,0
112776,-100,4,2,53,20,0,0
120276,-100,4,2,53,30,0,0
120776,-100,4,2,53,40,0,0
152776,-100,4,2,53,20,0,0
160776,-100,4,2,53,30,0,0
164776,-100,4,2,53,20,0,0
167776,-100,4,2,53,30,0,0
168776,-100,4,2,53,40,0,0
168859,-100,4,2,53,20,0,0
176776,-100,4,2,53,30,0,0
183776,-100,4,2,53,40,0,0
200776,-100,4,2,53,30,0,0

[HitObjects]
64,192,776,5,0,0:0:0:0:
448,192,776,1,0,0:0:0:0:
192,192,1442,1,0,0:0:0:0:
320,192,1609,1,0,0:0:0:0:
320,192,2442,1,0,0:0:0:0:
192,192,2609,1,0,0:0:0:0:
320,192,3442,1,0,0:0:0:0:
64,192,3609,1,0,0:0:0:0:
192,192,4442,1,0,0:0:0:0:
448,192,4609,1,0,0:0:0:0:
448,192,5442,1,0,0:0:0:0:
64,192,5609,1,0,0:0:0:0:
192,192,6442,1,0,0:0:0:0:
320,192,6609,1,0,0:0:0:0:
64,192,6776,1,0,0:0:0:0:
448,192,6776,1,0,0:0:0:0:
64,192,7442,1,0,0:0:0:0:
448,192,7609,1,0,0:0:0:0:
448,192,8109,1,0,0:0:0:0:
64,192,8192,1,0,0:0:0:0:
320,192,8276,1,0,0:0:0:0:
192,192,8442,1,0,0:0:0:0:
320,192,8609,1,0,0:0:0:0:
64,192,8776,128,4,9109:1:0:0:0:
448,192,8776,128,0,9192:0:0:0:0:
64,192,9276,128,0,9609:0:0:0:0:
192,192,9276,128,0,9442:0:0:0:0:
448,192,9442,1,0,0:0:0:0:
320,192,9609,1,0,0:0:0:0:
64,192,9776,128,8,10109:0:0:0:0:
448,192,9776,128,0,10276:0:0:0:0:
192,192,10109,128,0,10609:0:0:0:0:
320,192,10276,128,0,10609:0:0:0:0:
64,192,10776,1,0,0:0:0:0:
192,192,10776,128,0,11109:0:0:0:0:
320,192,11109,1,2,1:0:0:0:
448,192,11109,1,0,0:0:0:0:
64,192,11276,1,2,1:0:0:0:
192,192,11276,128,0,11609:0:0:0:0:
320,192,11609,128,0,11776:0:0:0:0:
64,192,11776,128,8,12026:0:0:0:0:
448,192,11776,128,0,12026:0:0:0:0:
64,192,12276,128,0,12526:0:0:0:0:
448,192,12276,128,0,12609:0:0:0:0:
64,192,12776,1,2,1:0:0:0:
192,192,12776,1,0,0:0:0:0:
320,192,12942,1,0,0:0:0:0:
448,192,13109,1,0,0:0:0:0:
64,192,13276,1,0,0:0:0:0:
192,192,13442,1,0,0:0:0:0:
320,192,13609,1,0,0:0:0:0:
64,192,13776,1,8,0:0:0:0:
448,192,13776,1,0,0:0:0:0:
320,192,13942,1,0,0:0:0:0:
192,192,14109,1,0,0:0:0:0:
64,192,14276,1,0,0:0:0:0:
448,192,14442,1,0,0:0:0:0:
320,192,14609,1,0,0:0:0:0:
192,192,14776,1,0,0:0:0:0:
448,192,14942,1,0,0:0:0:0:
64,192,15109,1,2,1:0:0:0:
192,192,15109,1,0,0:0:0:0:
320,192,15276,1,2,1:0:0:0:
448,192,15276,1,0,0:0:0:0:
64,192,15442,1,2,1:0:0:0:
320,192,15609,1,0,0:0:0:0:
64,192,15776,1,8,0:0:0:0:
448,192,15776,1,0,0:0:0:0:
320,192,15942,1,0,0:0:0:0:
192,192,16109,1,0,0:0:0:0:
64,192,16276,1,0,0:0:0:0:
192,192,16442,1,0,0:0:0:0:
320,192,16609,1,0,0:0:0:0:
64,192,16776,128,2,17109:1:0:0:0:
448,192,16776,128,0,17192:0:0:0:0:
64,192,17276,128,0,17609:0:0:0:0:
192,192,17276,128,0,17442:0:0:0:0:
448,192,17442,1,0,0:0:0:0:
320,192,17609,1,0,0:0:0:0:
64,192,17776,128,8,18109:0:0:0:0:
448,192,17776,128,0,18276:0:0:0:0:
192,192,18109,128,0,18609:0:0:0:0:
320,192,18276,128,0,18609:0:0:0:0:
64,192,18776,1,2,1:0:0:0:
192,192,18776,128,0,19109:0:0:0:0:
320,192,19109,1,2,1:0:0:0:
448,192,19109,1,0,0:0:0:0:
64,192,19276,1,2,1:0:0:0:
192,192,19276,128,0,19609:0:0:0:0:
320,192,19609,128,0,19776:0:0:0:0:
64,192,19776,128,8,20026:0:0:0:0:
448,192,19776,128,0,20026:0:0:0:0:
64,192,20276,128,0,20526:0:0:0:0:
448,192,20276,128,0,20609:0:0:0:0:
64,192,20776,1,2,1:0:0:0:
192,192,20776,1,0,0:0:0:0:
320,192,20942,1,0,0:0:0:0:
448,192,21109,1,0,0:0:0:0:
64,192,21276,1,0,0:0:0:0:
192,192,21442,1,0,0:0:0:0:
320,192,21609,1,0,0:0:0:0:
64,192,21776,1,8,0:0:0:0:
448,192,21776,1,0,0:0:0:0:
320,192,21942,1,0,0:0:0:0:
192,192,22109,1,0,0:0:0:0:
64,192,22276,1,0,0:0:0:0:
448,192,22442,1,0,0:0:0:0:
192,192,22609,1,0,0:0:0:0:
320,192,22776,1,0,0:0:0:0:
64,192,22942,1,0,0:0:0:0:
320,192,23109,1,2,1:0:0:0:
448,192,23109,1,0,0:0:0:0:
64,192,23276,1,2,1:0:0:0:
192,192,23276,1,0,0:0:0:0:
320,192,23442,1,2,1:0:0:0:
192,192,23609,1,0,0:0:0:0:
64,192,23776,1,8,0:0:0:0:
448,192,23776,1,0,0:0:0:0:
320,192,23942,1,0,0:0:0:0:
192,192,24109,1,2,1:0:0:0:
64,192,24276,1,2,1:0:0:0:
192,192,24442,1,2,1:0:0:0:
320,192,24609,1,2,1:0:0:0:
64,192,24776,1,4,0:0:0:0:
448,192,24776,1,0,0:0:0:0:
192,192,24942,1,0,0:0:0:0:
192,192,25109,1,0,0:0:0:0:
448,192,25276,128,0,25609:0:0:0:0:
320,192,25609,1,0,0:0:0:0:
64,192,25776,128,8,26109:0:0:0:0:
448,192,25776,1,0,0:0:0:0:
320,192,26109,1,0,0:0:0:0:
192,192,26276,128,0,26609:0:0:0:0:
320,192,26609,1,2,1:0:0:0:
64,192,26776,128,0,27109:0:0:0:0:
320,192,27109,1,2,1:0:0:0:
64,192,27276,128,2,27609:1:0:0:0:
192,192,27609,128,2,27776:1:0:0:0:
64,192,27776,1,8,0:0:0:0:
448,192,27776,128,0,28276:0:0:0:0:
320,192,28276,1,0,0:0:0:0:
192,192,28609,1,0,0:0:0:0:
448,192,28776,128,2,29109:1:0:0:0:
64,192,29109,1,0,0:0:0:0:
320,192,29276,128,0,29609:0:0:0:0:
192,192,29609,1,0,0:0:0:0:
64,192,29776,128,8,30109:0:0:0:0:
448,192,29776,1,0,0:0:0:0:
320,192,30109,1,0,0:0:0:0:
192,192,30276,128,0,30609:0:0:0:0:
320,192,30609,1,2,1:0:0:0:
64,192,30776,128,0,31109:0:0:0:0:
320,192,31109,1,2,1:0:0:0:
64,192,31276,128,2,31609:1:0:0:0:
192,192,31609,128,2,31776:1:0:0:0:
64,192,31776,1,8,0:0:0:0:
448,192,31776,128,0,32276:0:0:0:0:
320,192,32276,1,0,0:0:0:0:
192,192,32609,1,0,0:0:0:0:
320,192,32776,128,2,33109:1:0:0:0:
64,192,33109,1,0,0:0:0:0:
448,192,33276,128,0,33609:0:0:0:0:
192,192,33609,1,0,0:0:0:0:
64,192,33776,1,8,0:0:0:0:
448,192,33776,128,0,34109:0:0:0:0:
320,192,34276,128,0,34609:0:0:0:0:
192,192,34609,1,2,1:0:0:0:
64,192,34776,128,0,35109:0:0:0:0:
320,192,35109,1,2,1:0:0:0:
64,192,35276,128,2,35609:1:0:0:0:
320,192,35609,128,2,35776:1:0:0:0:
64,192,35776,1,8,0:0:0:0:
448,192,35776,128,0,36276:0:0:0:0:
320,192,36276,1,0,0:0:0:0:
192,192,36609,1,0,0:0:0:0:
320,192,36776,128,2,37276:1:0:0:0:
64,192,37109,128,0,37276:0:0:0:0:
192,192,37609,128,0,37776:0:0:0:0:
64,192,37776,1,8,0:0:0:0:
448,192,37776,128,0,38276:0:0:0:0:
192,192,38276,128,0,38609:0:0:0:0:
320,192,38609,128,2,38776:1:0:0:0:
64,192,38776,1,0,0:0:0:0:
320,192,39109,128,2,39276:1:0:0:0:
448,192,39276,128,2,39442:1:0:0:0:
64,192,39442,1,2,1:0:0:0:
320,192,39609,128,2,39776:1:0:0:0:
64,192,39776,1,8,0:0:0:0:
448,192,39776,128,0,39942:0:0:0:0:
192,192,39942,1,0,0:0:0:0:
448,192,40109,1,0,0:0:0:0:
64,192,40276,1,2,1:0:0:0:
320,192,40442,1,2,1:0:0:0:
192,192,40609,1,2,1:0:0:0:
320,192,40776,1,4,0:0:0:0:
448,192,40776,1,0,0:0:0:0:
192,192,41276,128,0,41609:0:0:0:0:
448,192,41442,1,2,1:0:0:0:
320,192,41609,1,2,1:0:0:0:
64,192,41776,128,8,42109:0:0:0:0:
448,192,41776,1,0,0:0:0:0:
192,192,41942,1,0,0:0:0:0:
320,192,42109,1,0,0:0:0:0:
448,192,42276,128,0,42609:0:0:0:0:
64,192,42442,1,0,0:0:0:0:
192,192,42609,1,2,1:0:0:0:
320,192,42776,128,2,43109:1:0:0:0:
448,192,42942,1,0,0:0:0:0:
64,192,43109,1,2,1:0:0:0:
192,192,43276,128,2,43609:1:0:0:0:
448,192,43442,1,2,1:0:0:0:
320,192,43609,1,2,1:0:0:0:
64,192,43776,128,8,44109:0:0:0:0:
448,192,43776,1,0,0:0:0:0:
192,192,43942,1,0,0:0:0:0:
320,192,44109,1,0,0:0:0:0:
64,192,44276,128,0,44609:0:0:0:0:
448,192,44442,128,0,44776:0:0:0:0:
320,192,44609,1,0,0:0:0:0:
64,192,44776,128,2,45109:1:0:0:0:
192,192,44942,1,0,0:0:0:0:
448,192,45109,1,0,0:0:0:0:
192,192,45276,128,0,45609:0:0:0:0:
64,192,45442,1,2,1:0:0:0:
320,192,45609,1,2,1:0:0:0:
64,192,45776,1,8,0:0:0:0:
448,192,45776,128,0,46109:0:0:0:0:
320,192,45942,1,0,0:0:0:0:
192,192,46109,1,0,0:0:0:0:
320,192,46276,128,0,46609:0:0:0:0:
448,192,46442,1,0,0:0:0:0:
192,192,46609,1,2,1:0:0:0:
64,192,46776,128,2,47276:1:0:0:0:
448,192,46942,1,0,0:0:0:0:
320,192,47109,1,2,1:0:0:0:
192,192,47276,1,2,1:0:0:0:
64,192,47442,1,2,1:0:0:0:
320,192,47609,1,2,1:0:0:0:
64,192,47776,1,8,0:0:0:0:
448,192,47776,1,0,0:0:0:0:
320,192,47942,1,0,0:0:0:0:
192,192,48109,1,0,0:0:0:0:
64,192,48276,1,0,0:0:0:0:
320,192,48442,1,0,0:0:0:0:
448,192,48609,1,0,0:0:0:0:
192,192,48776,128,2,49109:1:0:0:0:
64,192,48942,1,0,0:0:0:0:
448,192,49109,1,0,0:0:0:0:
64,192,49276,128,0,49609:0:0:0:0:
320,192,49442,1,2,1:0:0:0:
192,192,49609,1,2,1:0:0:0:
64,192,49776,1,8,0:0:0:0:
448,192,49776,128,0,50109:0:0:0:0:
320,192,49942,1,0,0:0:0:0:
192,192,50109,1,0,0:0:0:0:
320,192,50276,128,0,50609:0:0:0:0:
448,192,50442,1,0,0:0:0:0:
64,192,50609,1,2,1:0:0:0:
192,192,50776,128,2,51109:1:0:0:0:
448,192,50942,1,0,0:0:0:0:
320,192,51109,1,2,1:0:0:0:
64,192,51276,128,2,51609:1:0:0:0:
192,192,51442,1,2,1:0:0:0:
320,192,51609,1,2,1:0:0:0:
64,192,51776,128,8,52109:0:0:0:0:
448,192,51776,1,0,0:0:0:0:
320,192,51942,128,0,52276:0:0:0:0:
448,192,52109,1,0,0:0:0:0:
64,192,52276,128,0,52609:0:0:0:0:
192,192,52442,1,0,0:0:0:0:
448,192,52609,1,0,0:0:0:0:
192,192,52776,128,2,53109:1:0:0:0:
64,192,52942,1,0,0:0:0:0:
448,192,53109,1,0,0:0:0:0:
320,192,53276,128,0,53609:0:0:0:0:
448,192,53442,1,2,1:0:0:0:
192,192,53609,1,2,1:0:0:0:
64,192,53776,1,8,0:0:0:0:
448,192,53776,128,0,54109:0:0:0:0:
320,192,53942,1,0,0:0:0:0:
192,192,54109,1,0,0:0:0:0:
64,192,54276,128,0,54776:0:0:0:0:
448,192,54442,1,0,0:0:0:0:
320,192,54609,1,2,1:0:0:0:
448,192,54776,128,2,55109:1:0:0:0:
192,192,54942,128,0,55109:0:0:0:0:
320,192,55109,128,2,55276:1:0:0:0:
64,192,55276,128,2,55609:1:0:0:0:
320,192,55442,128,2,55609:1:0:0:0:
192,192,55609,128,2,55776:1:0:0:0:
64,192,55776,1,8,0:0:0:0:
448,192,55776,1,0,0:0:0:0:
448,192,56317,128,8,56484:1:0:0:0:
64,192,56776,128,4,57276:1:0:0:0:
192,192,56776,128,2,57276:1:0:0:0:
448,192,56776,128,0,57026:0:0:0:0:
320,192,57276,128,0,57442:0:0:0:0:
448,192,57276,128,0,57609:0:0:0:0:
64,192,57442,1,0,0:0:0:0:
320,192,57609,1,0,0:0:0:0:
64,192,57776,128,8,58276:0:0:0:0:
448,192,57776,128,0,58109:0:0:0:0:
192,192,57942,1,0,0:0:0:0:
320,192,58109,128,0,58442:0:0:0:0:
192,192,58276,1,0,0:0:0:0:
448,192,58276,128,0,58609:0:0:0:0:
64,192,58442,1,0,0:0:0:0:
320,192,58609,1,0,0:0:0:0:
192,192,58776,128,0,59109:0:0:0:0:
64,192,58942,128,0,59109:0:0:0:0:
320,192,59109,1,2,1:0:0:0:
448,192,59109,128,0,59276:0:0:0:0:
64,192,59276,128,2,59609:1:0:0:0:
192,192,59276,1,0,0:0:0:0:
320,192,59442,1,0,0:0:0:0:
192,192,59609,128,0,59776:0:0:0:0:
64,192,59776,128,8,60109:0:0:0:0:
448,192,59776,128,0,59942:0:0:0:0:
192,192,59942,1,0,0:0:0:0:
320,192,60109,128,0,60276:0:0:0:0:
64,192,60276,128,0,60609:0:0:0:0:
192,192,60276,128,0,60609:0:0:0:0:
448,192,60442,1,2,1:0:0:0:
320,192,60609,1,0,0:0:0:0:
64,192,60776,1,2,1:0:0:0:
192,192,60776,128,0,61109:0:0:0:0:
448,192,60942,128,0,61109:0:0:0:0:
64,192,61109,1,0,0:0:0:0:
320,192,61276,128,2,61609:1:0:0:0:
448,192,61276,1,0,0:0:0:0:
64,192,61442,128,2,61609:1:0:0:0:
192,192,61609,1,2,1:0:0:0:
64,192,61776,128,8,62109:0:0:0:0:
448,192,61776,128,0,62109:0:0:0:0:
320,192,61942,1,0,0:0:0:0:
192,192,62109,1,0,0:0:0:0:
320,192,62276,128,0,62609:0:0:0:0:
448,192,62276,128,0,62776:0:0:0:0:
64,192,62442,1,0,0:0:0:0:
192,192,62609,1,0,0:0:0:0:
320,192,62776,128,0,63109:0:0:0:0:
448,192,62942,128,0,63109:0:0:0:0:
64,192,63109,1,2,1:0:0:0:
192,192,63109,128,0,63442:0:0:0:0:
320,192,63276,128,2,63442:1:0:0:0:
448,192,63276,1,0,0:0:0:0:
64,192,63442,1,0,0:0:0:0:
320,192,63609,128,0,63942:0:0:0:0:
64,192,63776,128,8,64109:0:0:0:0:
448,192,63776,128,0,63942:0:0:0:0:
192,192,63942,1,0,0:0:0:0:
320,192,64109,1,0,0:0:0:0:
64,192,64275,128,0,64609:0:0:0:0:
448,192,64275,128,0,64609:0:0:0:0:
192,192,64442,1,0,0:0:0:0:
320,192,64609,1,0,0:0:0:0:
192,192,64775,128,2,64942:1:0:0:0:
448,192,64775,128,0,65109:0:0:0:0:
64,192,64942,1,0,0:0:0:0:
192,192,65109,1,0,0:0:0:0:
320,192,65275,128,0,65442:0:0:0:0:
448,192,65275,128,0,65609:0:0:0:0:
64,192,65442,1,0,0:0:0:0:
320,192,65609,1,0,0:0:0:0:
64,192,65776,128,8,66276:0:0:0:0:
448,192,65776,128,0,66109:0:0:0:0:
320,192,65942,1,0,0:0:0:0:
192,192,66109,1,0,0:0:0:0:
320,192,66276,128,0,66442:0:0:0:0:
448,192,66276,128,0,66609:0:0:0:0:
64,192,66442,1,0,0:0:0:0:
192,192,66609,1,2,1:0:0:0:
320,192,66776,128,2,66942:1:0:0:0:
448,192,66776,128,0,66942:0:0:0:0:
64,192,66942,1,0,0:0:0:0:
320,192,67109,128,2,67276:1:0:0:0:
448,192,67109,1,0,0:0:0:0:
64,192,67276,128,2,67442:1:0:0:0:
192,192,67276,128,0,67442:0:0:0:0:
320,192,67442,1,0,0:0:0:0:
192,192,67609,128,0,67942:0:0:0:0:
64,192,67776,128,8,67942:0:0:0:0:
448,192,67776,128,0,67942:0:0:0:0:
320,192,67942,1,0,0:0:0:0:
192,192,68109,1,0,0:0:0:0:
64,192,68276,1,0,0:0:0:0:
448,192,68276,128,0,68609:0:0:0:0:
320,192,68442,1,0,0:0:0:0:
192,192,68609,1,0,0:0:0:0:
320,192,68776,128,2,68942:1:0:0:0:
448,192,68776,128,0,69109:0:0:0:0:
64,192,68942,1,0,0:0:0:0:
320,192,69109,128,0,69276:0:0:0:0:
64,192,69276,128,2,69609:1:0:0:0:
192,192,69276,128,0,69442:0:0:0:0:
320,192,69442,1,2,1:0:0:0:
192,192,69609,1,2,1:0:0:0:
64,192,69776,128,8,70109:0:0:0:0:
448,192,69776,128,0,70109:0:0:0:0:
320,192,69942,1,0,0:0:0:0:
192,192,70109,1,0,0:0:0:0:
64,192,70276,128,0,70442:0:0:0:0:
448,192,70276,128,0,70442:0:0:0:0:
320,192,70442,1,0,0:0:0:0:
192,192,70609,128,0,70942:0:0:0:0:
320,192,70776,128,0,70942:0:0:0:0:
448,192,70942,128,0,71109:0:0:0:0:
64,192,71109,1,2,1:0:0:0:
192,192,71109,128,0,71442:0:0:0:0:
320,192,71276,128,2,71442:1:0:0:0:
448,192,71276,1,0,0:0:0:0:
64,192,71442,1,0,0:0:0:0:
192,192,71609,128,0,71776:0:0:0:0:
448,192,71776,128,0,72609:0:0:0:0:
64,192,71776,1,8,0:0:0:0:
192,192,71942,128,0,72276:0:0:0:0:
320,192,72109,128,2,72442:1:0:0:0:
64,192,72276,1,2,1:0:0:0:
192,192,72442,1,2,1:0:0:0:
320,192,72609,1,2,1:0:0:0:
64,192,72776,128,4,73276:0:0:0:0:
192,192,72776,128,0,73276:0:0:0:0:
448,192,72776,128,0,73109:0:0:0:0:
320,192,73276,128,0,73442:0:0:0:0:
448,192,73276,128,0,73609:0:0:0:0:
64,192,73442,1,0,0:0:0:0:
320,192,73609,1,0,0:0:0:0:
64,192,73776,128,8,74276:0:0:0:0:
448,192,73776,128,0,74109:0:0:0:0:
192,192,73942,1,0,0:0:0:0:
320,192,74109,128,0,74442:0:0:0:0:
192,192,74276,1,0,0:0:0:0:
448,192,74276,128,0,74609:0:0:0:0:
64,192,74442,1,0,0:0:0:0:
320,192,74609,1,0,0:0:0:0:
64,192,74776,128,0,75109:0:0:0:0:
192,192,74942,128,0,75109:0:0:0:0:
320,192,75109,128,2,75276:1:0:0:0:
448,192,75109,1,0,0:0:0:0:
64,192,75276,128,2,75609:1:0:0:0:
192,192,75276,1,0,0:0:0:0:
448,192,75442,1,0,0:0:0:0:
320,192,75609,128,0,75776:0:0:0:0:
64,192,75776,128,8,76109:0:0:0:0:
448,192,75776,128,0,75942:0:0:0:0:
192,192,75942,1,0,0:0:0:0:
320,192,76109,128,0,76276:0:0:0:0:
64,192,76276,128,0,76609:0:0:0:0:
192,192,76276,128,0,76609:0:0:0:0:
448,192,76442,1,2,1:0:0:0:
320,192,76609,1,0,0:0:0:0:
64,192,76776,1,2,1:0:0:0:
192,192,76776,128,0,77109:0:0:0:0:
448,192,76942,128,0,77109:0:0:0:0:
64,192,77109,1,0,0:0:0:0:
320,192,77276,128,2,77609:1:0:0:0:
448,192,77276,1,0,0:0:0:0:
64,192,77442,128,2,77609:1:0:0:0:
192,192,77609,128,2,77776:1:0:0:0:
64,192,77776,128,8,78109:0:0:0:0:
448,192,77776,128,0,78109:0:0:0:0:
320,192,77942,1,0,0:0:0:0:
192,192,78109,1,0,0:0:0:0:
320,192,78276,128,0,78609:0:0:0:0:
448,192,78276,128,0,78776:0:0:0:0:
64,192,78442,1,0,0:0:0:0:
192,192,78609,1,0,0:0:0:0:
320,192,78776,128,0,79109:0:0:0:0:
448,192,78942,128,0,79109:0:0:0:0:
64,192,79109,1,2,1:0:0:0:
192,192,79109,128,0,79442:0:0:0:0:
320,192,79276,128,2,79442:1:0:0:0:
448,192,79276,1,0,0:0:0:0:
64,192,79442,1,0,0:0:0:0:
320,192,79609,128,0,79942:0:0:0:0:
64,192,79776,128,8,80109:0:0:0:0:
448,192,79776,128,0,79942:0:0:0:0:
192,192,79942,1,0,0:0:0:0:
320,192,80109,1,0,0:0:0:0:
64,192,80276,128,0,80609:0:0:0:0:
448,192,80276,128,0,80609:0:0:0:0:
192,192,80442,1,0,0:0:0:0:
320,192,80609,1,0,0:0:0:0:
192,192,80776,128,2,80942:1:0:0:0:
448,192,80776,128,0,81109:0:0:0:0:
64,192,80942,1,0,0:0:0:0:
192,192,81109,1,0,0:0:0:0:
320,192,81276,128,0,81442:0:0:0:0:
448,192,81276,128,0,81609:0:0:0:0:
64,192,81442,1,0,0:0:0:0:
320,192,81609,1,0,0:0:0:0:
64,192,81776,128,8,82276:0:0:0:0:
448,192,81776,128,0,82109:0:0:0:0:
320,192,81942,1,0,0:0:0:0:
192,192,82109,1,0,0:0:0:0:
320,192,82276,128,0,82442:0:0:0:0:
448,192,82276,128,0,82609:0:0:0:0:
64,192,82442,1,0,0:0:0:0:
192,192,82609,1,2,1:0:0:0:
320,192,82776,128,2,82942:1:0:0:0:
448,192,82776,128,0,82942:0:0:0:0:
64,192,82942,1,0,0:0:0:0:
320,192,83109,128,2,83276:1:0:0:0:
448,192,83109,1,0,0:0:0:0:
64,192,83276,128,2,83442:1:0:0:0:
192,192,83276,128,0,83442:0:0:0:0:
320,192,83442,1,0,0:0:0:0:
192,192,83609,128,0,83942:0:0:0:0:
64,192,83776,128,8,83942:0:0:0:0:
448,192,83776,128,0,83942:0:0:0:0:
320,192,83942,1,0,0:0:0:0:
192,192,84109,128,0,84442:0:0:0:0:
64,192,84276,128,0,84776:0:0:0:0:
448,192,84276,128,0,84609:0:0:0:0:
320,192,84442,128,0,84609:0:0:0:0:
192,192,84609,128,0,84776:0:0:0:0:
320,192,84776,128,2,84942:1:0:0:0:
448,192,84776,128,0,85109:0:0:0:0:
64,192,84942,128,0,85109:0:0:0:0:
320,192,85109,128,0,85276:0:0:0:0:
64,192,85276,128,2,85609:1:0:0:0:
192,192,85276,128,0,85442:0:0:0:0:
448,192,85442,128,2,85609:1:0:0:0:
192,192,85609,128,2,85776:1:0:0:0:
64,192,85776,128,8,86109:0:0:0:0:
448,192,85776,128,0,86109:0:0:0:0:
320,192,85942,1,0,0:0:0:0:
192,192,86109,1,0,0:0:0:0:
64,192,86276,128,0,86442:0:0:0:0:
448,192,86276,128,0,86442:0:0:0:0:
320,192,86442,128,0,86609:0:0:0:0:
192,192,86609,128,0,86942:0:0:0:0:
320,192,86776,128,0,86942:0:0:0:0:
448,192,86942,128,0,87109:0:0:0:0:
192,192,87109,128,0,87442:0:0:0:0:
64,192,87109,1,0,0:0:0:0:
320,192,87276,128,2,87442:1:0:0:0:
448,192,87276,1,0,0:0:0:0:
64,192,87442,1,0,0:0:0:0:
320,192,87609,128,0,87776:0:0:0:0:
64,192,87776,128,8,88276:0:0:0:0:
448,192,87776,128,0,88109:0:0:0:0:
192,192,87942,128,0,88276:0:0:0:0:
320,192,88109,128,0,88276:0:0:0:0:
64,192,88776,128,4,89109:1:0:0:0:
448,192,88776,128,0,89192:0:0:0:0:
64,192,89276,128,0,89609:0:0:0:0:
192,192,89276,128,0,89442:0:0:0:0:
448,192,89442,1,0,0:0:0:0:
320,192,89609,1,0,0:0:0:0:
64,192,89776,128,8,90109:0:0:0:0:
448,192,89776,128,0,90276:0:0:0:0:
192,192,90109,128,0,90609:0:0:0:0:
320,192,90276,128,0,90609:0:0:0:0:
64,192,90776,1,0,0:0:0:0:
192,192,90776,128,0,91109:0:0:0:0:
320,192,91109,1,2,1:0:0:0:
448,192,91109,1,0,0:0:0:0:
64,192,91276,1,2,1:0:0:0:
192,192,91276,128,0,91609:0:0:0:0:
320,192,91609,128,0,91776:0:0:0:0:
64,192,91776,128,8,92026:0:0:0:0:
448,192,91776,128,0,92026:0:0:0:0:
64,192,92276,128,0,92526:0:0:0:0:
448,192,92276,128,0,92609:0:0:0:0:
64,192,92776,1,2,1:0:0:0:
192,192,92776,1,0,0:0:0:0:
320,192,92942,1,0,0:0:0:0:
448,192,93109,1,0,0:0:0:0:
64,192,93276,1,0,0:0:0:0:
192,192,93442,1,0,0:0:0:0:
320,192,93609,1,0,0:0:0:0:
64,192,93776,1,8,0:0:0:0:
448,192,93776,1,0,0:0:0:0:
320,192,93942,1,0,0:0:0:0:
192,192,94109,1,0,0:0:0:0:
64,192,94276,1,0,0:0:0:0:
448,192,94442,1,0,0:0:0:0:
320,192,94609,1,0,0:0:0:0:
192,192,94776,1,0,0:0:0:0:
448,192,94942,1,0,0:0:0:0:
64,192,95109,1,2,1:0:0:0:
192,192,95109,1,0,0:0:0:0:
320,192,95276,1,2,1:0:0:0:
448,192,95276,1,0,0:0:0:0:
64,192,95442,1,2,1:0:0:0:
320,192,95609,1,0,0:0:0:0:
64,192,95776,1,8,0:0:0:0:
448,192,95776,1,0,0:0:0:0:
320,192,95942,1,0,0:0:0:0:
192,192,96109,1,0,0:0:0:0:
64,192,96276,1,0,0:0:0:0:
192,192,96442,1,0,0:0:0:0:
320,192,96609,1,0,0:0:0:0:
64,192,96776,128,2,97109:1:0:0:0:
448,192,96776,128,0,97192:0:0:0:0:
64,192,97276,128,0,97609:0:0:0:0:
192,192,97276,128,0,97442:0:0:0:0:
448,192,97442,1,0,0:0:0:0:
320,192,97609,1,0,0:0:0:0:
64,192,97776,128,8,98109:0:0:0:0:
448,192,97776,128,0,98276:0:0:0:0:
192,192,98109,128,0,98609:0:0:0:0:
320,192,98276,128,0,98609:0:0:0:0:
64,192,98776,1,2,1:0:0:0:
192,192,98776,128,0,99109:0:0:0:0:
320,192,99109,1,2,1:0:0:0:
448,192,99109,1,0,0:0:0:0:
64,192,99276,1,2,1:0:0:0:
192,192,99276,128,0,99609:0:0:0:0:
320,192,99609,128,0,99776:0:0:0:0:
64,192,99776,128,8,100026:0:0:0:0:
448,192,99776,128,0,100026:0:0:0:0:
64,192,100276,128,0,100526:0:0:0:0:
448,192,100276,128,0,100609:0:0:0:0:
64,192,100776,1,2,1:0:0:0:
192,192,100776,1,0,0:0:0:0:
320,192,100942,1,0,0:0:0:0:
448,192,101109,1,0,0:0:0:0:
64,192,101276,1,0,0:0:0:0:
192,192,101442,1,0,0:0:0:0:
320,192,101609,1,0,0:0:0:0:
64,192,101776,1,8,0:0:0:0:
448,192,101776,1,0,0:0:0:0:
320,192,101942,1,0,0:0:0:0:
192,192,102109,1,0,0:0:0:0:
64,192,102276,1,0,0:0:0:0:
448,192,102442,1,0,0:0:0:0:
192,192,102609,1,0,0:0:0:0:
320,192,102776,1,0,0:0:0:0:
64,192,102942,1,0,0:0:0:0:
320,192,103109,1,2,1:0:0:0:
448,192,103109,1,0,0:0:0:0:
64,192,103276,1,2,1:0:0:0:
192,192,103276,1,0,0:0:0:0:
320,192,103442,1,2,1:0:0:0:
192,192,103609,1,0,0:0:0:0:
64,192,103776,1,8,0:0:0:0:
448,192,103776,1,0,0:0:0:0:
320,192,103942,1,0,0:0:0:0:
192,192,104109,1,2,1:0:0:0:
64,192,104276,1,2,1:0:0:0:
192,192,104442,1,2,1:0:0:0:
320,192,104609,1,2,1:0:0:0:
64,192,104776,1,4,0:0:0:0:
448,192,104776,1,0,0:0:0:0:
192,192,104942,1,0,0:0:0:0:
320,192,105109,1,0,0:0:0:0:
192,192,105276,128,0,105442:0:0:0:0:
448,192,105442,1,2,1:0:0:0:
192,192,105609,1,2,1:0:0:0:
64,192,105776,128,8,105942:0:0:0:0:
448,192,105776,1,0,0:0:0:0:
192,192,105942,1,0,0:0:0:0:
320,192,106109,1,0,0:0:0:0:
448,192,106276,128,0,106442:0:0:0:0:
64,192,106442,1,0,0:0:0:0:
192,192,106609,1,2,1:0:0:0:
320,192,106776,128,2,106942:1:0:0:0:
448,192,106942,1,0,0:0:0:0:
320,192,107109,1,2,1:0:0:0:
192,192,107276,128,2,107442:1:0:0:0:
64,192,107442,1,2,1:0:0:0:
320,192,107609,1,2,1:0:0:0:
64,192,107776,128,8,107942:0:0:0:0:
448,192,107776,1,0,0:0:0:0:
192,192,107942,1,0,0:0:0:0:
320,192,108109,1,0,0:0:0:0:
64,192,108276,128,0,108609:0:0:0:0:
448,192,108442,128,0,108609:0:0:0:0:
320,192,108609,1,0,0:0:0:0:
64,192,108776,128,2,108942:1:0:0:0:
192,192,108942,1,0,0:0:0:0:
448,192,109109,1,0,0:0:0:0:
192,192,109276,128,0,109776:0:0:0:0:
64,192,109442,1,0,0:0:0:0:
320,192,109609,128,2,109776:1:0:0:0:
64,192,109776,1,8,0:0:0:0:
448,192,109776,128,0,109942:0:0:0:0:
192,192,109942,1,0,0:0:0:0:
320,192,110109,1,0,0:0:0:0:
64,192,110276,128,0,110609:0:0:0:0:
448,192,110442,1,0,0:0:0:0:
320,192,110609,1,2,1:0:0:0:
64,192,110776,128,2,111276:1:0:0:0:
448,192,110942,1,0,0:0:0:0:
320,192,111109,1,0,0:0:0:0:
192,192,111276,1,2,1:0:0:0:
64,192,111442,1,0,0:0:0:0:
320,192,111609,1,2,1:0:0:0:
64,192,111776,1,8,0:0:0:0:
448,192,111776,1,0,0:0:0:0:
320,192,111942,1,0,0:0:0:0:
192,192,112109,1,0,0:0:0:0:
64,192,112276,1,0,0:0:0:0:
320,192,112442,1,0,0:0:0:0:
192,192,112609,1,0,0:0:0:0:
448,192,112776,1,0,0:0:0:0:
192,192,113276,128,0,113442:0:0:0:0:
64,192,113776,128,8,113942:0:0:0:0:
448,192,113776,1,0,0:0:0:0:
448,192,114276,128,0,114442:0:0:0:0:
192,192,114609,1,2,1:0:0:0:
320,192,114776,128,0,114942:0:0:0:0:
192,192,115276,128,2,115442:1:0:0:0:
64,192,115776,128,8,115942:0:0:0:0:
448,192,115776,1,0,0:0:0:0:
64,192,116276,128,0,116609:0:0:0:0:
448,192,116442,128,0,116609:0:0:0:0:
64,192,116776,128,2,116942:1:0:0:0:
192,192,117276,128,0,117442:0:0:0:0:
64,192,117776,1,8,0:0:0:0:
448,192,117776,128,0,117942:0:0:0:0:
64,192,118276,128,0,118609:0:0:0:0:
320,192,118609,1,2,1:0:0:0:
64,192,118776,128,0,119276:0:0:0:0:
448,192,118776,128,0,119109:0:0:0:0:
320,192,118942,1,0,0:0:0:0:
192,192,119109,128,2,119276:1:0:0:0:
320,192,119276,128,2,119609:1:0:0:0:
448,192,119442,128,2,119609:1:0:0:0:
192,192,119609,128,2,119776:1:0:0:0:
64,192,119776,1,8,0:0:0:0:
448,192,119776,1,0,0:0:0:0:
64,192,120276,128,8,120376:0:0:0:0:
448,192,120276,128,8,120376:1:0:0:0:
64,192,120776,128,4,121276:1:0:0:0:
192,192,120776,128,2,121276:1:0:0:0:
448,192,120776,128,0,121026:0:0:0:0:
320,192,121276,128,0,121609:0:0:0:0:
448,192,121276,128,0,121609:0:0:0:0:
64,192,121442,1,0,0:0:0:0:
192,192,121609,1,0,0:0:0:0:
64,192,121776,128,8,122276:0:0:0:0:
448,192,121776,128,0,122109:0:0:0:0:
192,192,121942,1,0,0:0:0:0:
320,192,122109,128,0,122442:0:0:0:0:
192,192,122276,1,0,0:0:0:0:
448,192,122276,128,0,122776:0:0:0:0:
64,192,122442,1,0,0:0:0:0:
320,192,122609,1,0,0:0:0:0:
192,192,122776,128,0,123109:0:0:0:0:
64,192,122942,128,0,123109:0:0:0:0:
320,192,123109,128,2,123276:1:0:0:0:
448,192,123109,1,0,0:0:0:0:
64,192,123276,128,2,123609:1:0:0:0:
192,192,123276,1,0,0:0:0:0:
448,192,123442,1,0,0:0:0:0:
320,192,123609,128,0,123776:0:0:0:0:
64,192,123776,128,8,124109:0:0:0:0:
448,192,123776,128,0,124109:0:0:0:0:
192,192,123942,1,0,0:0:0:0:
320,192,124109,128,0,124276:0:0:0:0:
64,192,124276,128,0,124609:0:0:0:0:
192,192,124276,128,0,124442:0:0:0:0:
448,192,124442,1,2,1:0:0:0:
320,192,124609,1,0,0:0:0:0:
64,192,124776,1,2,1:0:0:0:
192,192,124776,128,0,125109:0:0:0:0:
448,192,124942,128,0,125109:0:0:0:0:
64,192,125109,1,0,0:0:0:0:
320,192,125276,128,2,125609:1:0:0:0:
448,192,125276,1,0,0:0:0:0:
64,192,125442,1,2,1:0:0:0:
192,192,125609,128,2,125776:1:0:0:0:
64,192,125776,128,8,125942:0:0:0:0:
448,192,125776,128,0,126109:0:0:0:0:
320,192,125942,1,0,0:0:0:0:
192,192,126109,1,0,0:0:0:0:
320,192,126276,128,0,126609:0:0:0:0:
448,192,126276,128,0,126776:0:0:0:0:
192,192,126442,1,0,0:0:0:0:
64,192,126609,128,0,126776:0:0:0:0:
320,192,126776,128,0,127109:0:0:0:0:
448,192,126942,128,0,127109:0:0:0:0:
64,192,127109,1,2,1:0:0:0:
192,192,127109,128,0,127442:0:0:0:0:
320,192,127276,128,2,127442:1:0:0:0:
448,192,127276,1,0,0:0:0:0:
64,192,127442,1,0,0:0:0:0:
320,192,127609,128,0,127942:0:0:0:0:
64,192,127776,128,8,128109:0:0:0:0:
448,192,127776,128,0,127942:0:0:0:0:
192,192,127942,1,0,0:0:0:0:
320,192,128109,128,0,128275:0:0:0:0:
64,192,128275,128,0,128609:0:0:0:0:
448,192,128275,128,0,128609:0:0:0:0:
192,192,128442,1,0,0:0:0:0:
320,192,128609,1,0,0:0:0:0:
192,192,128775,128,2,128942:1:0:0:0:
448,192,128775,128,0,129109:0:0:0:0:
64,192,128942,1,0,0:0:0:0:
192,192,129109,1,0,0:0:0:0:
320,192,129275,128,0,129442:0:0:0:0:
448,192,129275,128,0,129609:0:0:0:0:
64,192,129442,1,0,0:0:0:0:
320,192,129609,1,0,0:0:0:0:
64,192,129776,128,8,130276:0:0:0:0:
448,192,129776,128,0,130109:0:0:0:0:
320,192,129942,1,0,0:0:0:0:
192,192,130109,1,0,0:0:0:0:
320,192,130276,128,0,130442:0:0:0:0:
448,192,130276,128,0,130609:0:0:0:0:
64,192,130442,1,0,0:0:0:0:
192,192,130609,1,2,1:0:0:0:
320,192,130776,128,2,130942:1:0:0:0:
448,192,130776,128,0,130942:0:0:0:0:
64,192,130942,1,0,0:0:0:0:
320,192,131109,128,2,131276:1:0:0:0:
448,192,131109,1,0,0:0:0:0:
64,192,131276,128,2,131442:1:0:0:0:
192,192,131276,128,0,131442:0:0:0:0:
320,192,131442,1,0,0:0:0:0:
192,192,131609,128,0,131942:0:0:0:0:
64,192,131776,128,8,131942:0:0:0:0:
448,192,131776,128,0,131942:0:0:0:0:
320,192,131942,1,0,0:0:0:0:
192,192,132109,1,0,0:0:0:0:
64,192,132276,1,0,0:0:0:0:
448,192,132276,128,0,132609:0:0:0:0:
320,192,132442,1,0,0:0:0:0:
192,192,132609,1,0,0:0:0:0:
320,192,132776,128,2,132942:1:0:0:0:
448,192,132776,128,0,133109:0:0:0:0:
64,192,132942,1,0,0:0:0:0:
320,192,133109,128,0,133276:0:0:0:0:
64,192,133276,128,2,133609:1:0:0:0:
192,192,133276,128,0,133442:0:0:0:0:
320,192,133442,1,2,1:0:0:0:
192,192,133609,1,2,1:0:0:0:
64,192,133776,128,8,134109:0:0:0:0:
448,192,133776,128,0,134109:0:0:0:0:
320,192,133942,1,0,0:0:0:0:
192,192,134109,1,0,0:0:0:0:
64,192,134276,128,0,134442:0:0:0:0:
448,192,134276,128,0,134442:0:0:0:0:
320,192,134442,1,0,0:0:0:0:
192,192,134609,128,0,134942:0:0:0:0:
320,192,134776,128,0,134942:0:0:0:0:
448,192,134942,128,0,135109:0:0:0:0:
64,192,135109,1,2,1:0:0:0:
192,192,135109,128,0,135442:0:0:0:0:
320,192,135276,128,2,135442:1:0:0:0:
448,192,135276,1,0,0:0:0:0:
64,192,135442,1,0,0:0:0:0:
192,192,135609,128,0,135776:0:0:0:0:
448,192,135776,128,0,136609:0:0:0:0:
64,192,135776,1,8,0:0:0:0:
192,192,135942,128,0,136276:0:0:0:0:
320,192,136109,128,2,136442:1:0:0:0:
64,192,136276,1,2,1:0:0:0:
192,192,136442,1,2,1:0:0:0:
320,192,136609,1,2,1:0:0:0:
64,192,136776,128,4,137276:0:0:0:0:
192,192,136776,128,0,137276:0:0:0:0:
448,192,136776,128,0,137109:0:0:0:0:
320,192,137276,128,0,137442:0:0:0:0:
448,192,137276,128,0,137609:0:0:0:0:
64,192,137442,1,0,0:0:0:0:
320,192,137609,1,0,0:0:0:0:
64,192,137776,128,8,138276:0:0:0:0:
448,192,137776,128,0,138109:0:0:0:0:
192,192,137942,1,0,0:0:0:0:
320,192,138109,128,0,138442:0:0:0:0:
192,192,138276,1,0,0:0:0:0:
448,192,138276,128,0,138609:0:0:0:0:
64,192,138442,1,0,0:0:0:0:
320,192,138609,1,0,0:0:0:0:
64,192,138776,128,0,139109:0:0:0:0:
192,192,138942,128,0,139109:0:0:0:0:
320,192,139109,128,2,139276:1:0:0:0:
448,192,139109,1,0,0:0:0:0:
64,192,139276,128,2,139609:1:0:0:0:
192,192,139276,1,0,0:0:0:0:
448,192,139442,1,0,0:0:0:0:
192,192,139609,128,0,139776:0:0:0:0:
64,192,139776,128,8,140109:0:0:0:0:
448,192,139776,128,0,139942:0:0:0:0:
192,192,139942,1,0,0:0:0:0:
320,192,140109,128,0,140276:0:0:0:0:
64,192,140276,128,0,140609:0:0:0:0:
192,192,140276,128,0,140609:0:0:0:0:
448,192,140442,1,2,1:0:0:0:
320,192,140609,1,0,0:0:0:0:
64,192,140776,1,2,1:0:0:0:
192,192,140776,128,0,141109:0:0:0:0:
448,192,140942,128,0,141109:0:0:0:0:
64,192,141109,1,0,0:0:0:0:
320,192,141276,128,2,141776:1:0:0:0:
448,192,141276,1,0,0:0:0:0:
64,192,141442,128,2,141609:1:0:0:0:
192,192,141609,128,2,141776:1:0:0:0:
64,192,141776,128,8,142109:0:0:0:0:
448,192,141776,128,0,142109:0:0:0:0:
320,192,141942,1,0,0:0:0:0:
192,192,142109,1,0,0:0:0:0:
320,192,142276,128,0,142609:0:0:0:0:
448,192,142276,128,0,142776:0:0:0:0:
64,192,142442,1,0,0:0:0:0:
192,192,142609,128,0,142776:0:0:0:0:
320,192,142776,128,0,143109:0:0:0:0:
448,192,142942,128,0,143109:0:0:0:0:
64,192,143109,1,2,1:0:0:0:
192,192,143109,128,0,143442:0:0:0:0:
320,192,143276,128,2,143442:1:0:0:0:
448,192,143276,1,0,0:0:0:0:
64,192,143442,1,0,0:0:0:0:
320,192,143609,128,0,143942:0:0:0:0:
64,192,143776,128,8,144109:0:0:0:0:
448,192,143776,128,0,143942:0:0:0:0:
192,192,143942,1,0,0:0:0:0:
320,192,144109,1,0,0:0:0:0:
64,192,144276,128,0,144609:0:0:0:0:
448,192,144276,128,0,144609:0:0:0:0:
192,192,144442,1,0,0:0:0:0:
320,192,144609,1,0,0:0:0:0:
192,192,144776,128,2,144942:1:0:0:0:
448,192,144776,128,0,145109:0:0:0:0:
64,192,144942,1,0,0:0:0:0:
192,192,145109,1,0,0:0:0:0:
320,192,145276,128,0,145442:0:0:0:0:
448,192,145276,128,0,145609:0:0:0:0:
64,192,145442,1,0,0:0:0:0:
320,192,145609,1,0,0:0:0:0:
64,192,145776,128,8,146276:0:0:0:0:
448,192,145776,128,0,146109:0:0:0:0:
320,192,145942,1,0,0:0:0:0:
192,192,146109,128,0,146276:0:0:0:0:
320,192,146276,128,0,146442:0:0:0:0:
448,192,146276,128,0,146609:0:0:0:0:
64,192,146442,1,0,0:0:0:0:
192,192,146609,1,2,1:0:0:0:
320,192,146776,128,2,146942:1:0:0:0:
448,192,146776,128,0,146942:0:0:0:0:
64,192,146942,1,0,0:0:0:0:
320,192,147109,128,2,147276:1:0:0:0:
448,192,147109,1,0,0:0:0:0:
64,192,147276,128,2,147442:1:0:0:0:
192,192,147276,128,0,147442:0:0:0:0:
320,192,147442,1,0,0:0:0:0:
192,192,147609,128,0,147942:0:0:0:0:
64,192,147776,128,8,147942:0:0:0:0:
448,192,147776,128,0,147942:0:0:0:0:
320,192,147942,1,0,0:0:0:0:
192,192,148109,128,0,148442:0:0:0:0:
64,192,148276,128,0,148609:0:0:0:0:
448,192,148276,128,0,148609:0:0:0:0:
320,192,148442,128,0,148609:0:0:0:0:
192,192,148609,128,0,148692:0:0:0:0:
320,192,148776,128,2,148942:1:0:0:0:
448,192,148776,128,0,149109:0:0:0:0:
64,192,148942,128,0,149109:0:0:0:0:
320,192,149109,128,0,149276:0:0:0:0:
64,192,149276,128,2,149609:1:0:0:0:
192,192,149276,128,0,149442:0:0:0:0:
448,192,149442,128,2,149609:1:0:0:0:
320,192,149609,128,2,149776:1:0:0:0:
64,192,149776,128,8,150109:0:0:0:0:
448,192,149776,128,0,150109:0:0:0:0:
320,192,149942,1,0,0:0:0:0:
192,192,150109,128,0,150276:0:0:0:0:
64,192,150276,128,0,150609:0:0:0:0:
448,192,150276,128,0,150609:0:0:0:0:
320,192,150442,128,0,150609:0:0:0:0:
192,192,150609,128,0,150942:0:0:0:0:
320,192,150776,128,0,150942:0:0:0:0:
448,192,150942,128,0,151109:0:0:0:0:
64,192,151109,1,2,1:0:0:0:
192,192,151109,128,0,151442:0:0:0:0:
320,192,151276,128,2,151442:1:0:0:0:
448,192,151276,1,0,0:0:0:0:
64,192,151442,1,0,0:0:0:0:
320,192,151609,128,0,151776:0:0:0:0:
64,192,151776,128,8,152276:0:0:0:0:
448,192,151776,128,0,152109:0:0:0:0:
192,192,151942,128,0,152276:0:0:0:0:
320,192,152109,128,0,152276:0:0:0:0:
64,192,152776,128,4,152942:0:0:0:0:
192,192,152776,128,2,152942:1:0:0:0:
320,192,153109,1,0,0:0:0:0:
192,192,153276,1,0,0:0:0:0:
448,192,153609,1,0,0:0:0:0:
64,192,153776,1,8,0:0:0:0:
192,192,154109,1,0,0:0:0:0:
320,192,154276,1,0,0:0:0:0:
192,192,154442,1,0,0:0:0:0:
448,192,154609,1,2,1:0:0:0:
64,192,154776,1,0,0:0:0:0:
448,192,154942,1,0,0:0:0:0:
192,192,155109,1,0,0:0:0:0:
320,192,155276,1,2,1:0:0:0:
192,192,155442,1,0,0:0:0:0:
448,192,155609,1,0,0:0:0:0:
64,192,155776,1,8,0:0:0:0:
192,192,155942,1,0,0:0:0:0:
320,192,156109,1,0,0:0:0:0:
448,192,156276,1,0,0:0:0:0:
192,192,156776,1,2,1:0:0:0:
64,192,157109,1,0,0:0:0:0:
448,192,157276,1,0,0:0:0:0:
320,192,157609,1,0,0:0:0:0:
192,192,157776,1,8,0:0:0:0:
320,192,158109,1,0,0:0:0:0:
64,192,158276,1,0,0:0:0:0:
448,192,158442,1,0,0:0:0:0:
64,192,158609,1,2,1:0:0:0:
320,192,158776,1,0,0:0:0:0:
192,192,158942,1,0,0:0:0:0:
320,192,159109,1,2,1:0:0:0:
64,192,159276,1,0,0:0:0:0:
448,192,159442,1,0,0:0:0:0:
192,192,159609,1,0,0:0:0:0:
64,192,159776,1,8,0:0:0:0:
448,192,159776,1,0,0:0:0:0:
320,192,159942,1,8,0:0:0:0:
192,192,160109,1,8,0:0:0:0:
320,192,160276,1,2,1:0:0:0:
448,192,160276,1,0,0:0:0:0:
64,192,160442,1,2,1:0:0:0:
192,192,160442,1,0,0:0:0:0:
320,192,160609,1,2,1:0:0:0:
448,192,160609,1,0,0:0:0:0:
64,192,160776,128,4,160942:0:0:0:0:
192,192,160776,128,2,160942:1:0:0:0:
320,192,161109,1,0,0:0:0:0:
192,192,161276,1,2,1:0:0:0:
320,192,161609,1,2,1:0:0:0:
64,192,161776,1,8,0:0:0:0:
448,192,161776,1,0,0:0:0:0:
192,192,162109,1,0,0:0:0:0:
320,192,162276,1,0,0:0:0:0:
192,192,162442,1,0,0:0:0:0:
448,192,162609,1,2,1:0:0:0:
64,192,162776,1,2,1:0:0:0:
448,192,162942,1,0,0:0:0:0:
192,192,163109,1,2,1:0:0:0:
320,192,163276,1,2,1:0:0:0:
192,192,163442,1,2,1:0:0:0:
320,192,163609,1,2,1:0:0:0:
64,192,163776,1,8,0:0:0:0:
448,192,163776,1,0,0:0:0:0:
192,192,163942,1,0,0:0:0:0:
320,192,164109,1,2,1:0:0:0:
448,192,164276,1,2,1:0:0:0:
64,192,164776,1,0,0:0:0:0:
192,192,164942,1,0,0:0:0:0:
320,192,165109,1,0,0:0:0:0:
448,192,165276,1,0,0:0:0:0:
64,192,165776,128,0,165859:0:0:0:0:
192,192,165942,128,0,166026:0:0:0:0:
320,192,166109,128,0,166192:0:0:0:0:
448,192,166276,128,0,166359:0:0:0:0:
64,192,166776,128,2,166942:1:0:0:0:
192,192,166942,128,2,167109:1:0:0:0:
320,192,167109,128,2,167276:1:0:0:0:
448,192,167276,128,2,167442:1:0:0:0:
64,192,167776,128,2,168276:1:0:0:0:
448,192,167776,1,8,0:0:0:0:
192,192,167942,128,2,168276:1:0:0:0:
320,192,168109,128,2,168276:1:0:0:0:
448,192,168276,128,2,168776:1:0:0:0:
320,192,168442,128,2,168776:1:0:0:0:
192,192,168609,128,2,168776:1:0:0:0:
64,192,168776,128,4,169317:1:0:0:0:
448,192,169317,128,0,169651:0:0:0:0:
64,192,169776,128,0,170026:0:0:0:0:
192,192,170109,128,0,170276:0:0:0:0:
448,192,170276,128,0,170651:0:0:0:0:
320,192,170776,128,0,171026:0:0:0:0:
192,192,171109,128,0,171317:0:0:0:0:
448,192,171317,128,0,171651:0:0:0:0:
64,192,171651,128,0,171817:0:0:0:0:
192,192,171817,128,0,172151:0:0:0:0:
320,192,172151,128,0,172317:0:0:0:0:
64,192,172317,128,0,172567:0:0:0:0:
64,192,172776,128,0,172942:0:0:0:0:
192,192,173276,128,0,173526:0:0:0:0:
320,192,173651,128,0,173817:0:0:0:0:
448,192,173817,128,0,174276:0:0:0:0:
320,192,174276,128,0,174776:0:0:0:0:
192,192,174609,128,0,174776:0:0:0:0:
320,192,175109,128,0,175276:0:0:0:0:
192,192,175276,128,0,175442:0:0:0:0:
64,192,175609,128,0,175776:0:0:0:0:
448,192,175776,128,0,176067:0:0:0:0:
320,192,176067,128,0,176276:0:0:0:0:
192,192,176276,128,0,176442:0:0:0:0:
64,192,176776,128,4,176942:0:0:0:0:
192,192,176776,1,0,0:0:0:0:
320,192,176942,128,0,177109:0:0:0:0:
192,192,177109,128,0,177276:0:0:0:0:
64,192,177276,128,0,177442:0:0:0:0:
320,192,177442,1,2,1:0:0:0:
192,192,177609,128,0,177942:0:0:0:0:
64,192,177776,1,8,0:0:0:0:
448,192,177776,128,0,177942:0:0:0:0:
320,192,177942,128,0,178109:0:0:0:0:
192,192,178109,128,0,178276:0:0:0:0:
64,192,178276,128,0,178442:0:0:0:0:
320,192,178442,1,2,1:0:0:0:
448,192,178609,1,2,1:0:0:0:
64,192,178776,128,0,179109:0:0:0:0:
320,192,178942,128,0,179109:0:0:0:0:
192,192,179109,128,2,179276:1:0:0:0:
448,192,179276,128,2,179442:1:0:0:0:
320,192,179442,128,2,179609:1:0:0:0:
192,192,179609,128,0,179942:0:0:0:0:
64,192,179776,128,8,179942:0:0:0:0:
448,192,179776,1,0,0:0:0:0:
320,192,179942,128,0,180109:0:0:0:0:
448,192,180109,128,0,180276:0:0:0:0:
64,192,180276,1,0,0:0:0:0:
192,192,180442,128,0,180776:0:0:0:0:
64,192,180609,128,0,180776:0:0:0:0:
320,192,180776,128,4,180942:0:0:0:0:
448,192,180776,128,0,181109:0:0:0:0:
192,192,180942,1,0,0:0:0:0:
320,192,181109,1,0,0:0:0:0:
448,192,181276,128,0,181442:0:0:0:0:
192,192,181442,128,2,181526:1:0:0:0:
320,192,181609,128,0,181692:0:0:0:0:
64,192,181776,128,8,182026:0:0:0:0:
448,192,181776,128,0,182109:0:0:0:0:
192,192,181942,128,0,182109:0:0:0:0:
320,192,182109,128,0,182359:0:0:0:0:
192,192,182276,128,0,182359:0:0:0:0:
64,192,182442,1,0,0:0:0:0:
320,192,182609,128,2,182942:1:0:0:0:
192,192,182776,128,2,182942:1:0:0:0:
448,192,182942,1,0,0:0:0:0:
64,192,183109,128,2,183442:1:0:0:0:
448,192,183276,128,2,183526:1:0:0:0:
320,192,183442,128,2,183609:1:0:0:0:
192,192,183609,128,0,183692:0:0:0:0:
64,192,183776,128,8,183859:0:0:0:0:
448,192,183776,128,0,183942:0:0:0:0:
192,192,183942,128,8,184109:0:0:0:0:
320,192,183942,128,0,184026:0:0:0:0:
64,192,184109,128,8,184442:0:0:0:0:
448,192,184109,128,0,184442:0:0:0:0:
192,192,184276,128,8,184359:0:0:0:0:
320,192,184276,128,0,184359:0:0:0:0:
64,192,184776,128,4,185276:1:0:0:0:
192,192,184776,128,0,185276:0:0:0:0:
448,192,184776,128,0,185109:0:0:0:0:
320,192,185276,128,0,185442:0:0:0:0:
448,192,185276,128,0,185609:0:0:0:0:
64,192,185442,1,0,0:0:0:0:
320,192,185609,1,0,0:0:0:0:
64,192,185776,128,8,186276:0:0:0:0:
448,192,185776,128,0,186109:0:0:0:0:
192,192,185942,1,0,0:0:0:0:
320,192,186109,128,0,186442:0:0:0:0:
192,192,186276,1,0,0:0:0:0:
448,192,186276,128,0,186609:0:0:0:0:
64,192,186442,1,0,0:0:0:0:
320,192,186609,1,0,0:0:0:0:
64,192,186776,128,0,187109:0:0:0:0:
192,192,186942,128,0,187109:0:0:0:0:
320,192,187109,128,2,187276:1:0:0:0:
448,192,187109,1,0,0:0:0:0:
64,192,187276,128,2,187609:1:0:0:0:
192,192,187276,1,0,0:0:0:0:
448,192,187442,1,0,0:0:0:0:
192,192,187609,128,0,187776:0:0:0:0:
64,192,187776,128,8,188109:0:0:0:0:
448,192,187776,128,0,187942:0:0:0:0:
192,192,187942,1,0,0:0:0:0:
320,192,188109,128,0,188276:0:0:0:0:
64,192,188276,128,0,188609:0:0:0:0:
192,192,188276,128,0,188609:0:0:0:0:
448,192,188442,1,2,1:0:0:0:
320,192,188609,1,0,0:0:0:0:
64,192,188776,1,2,1:0:0:0:
192,192,188776,128,0,189109:0:0:0:0:
448,192,188942,128,0,189109:0:0:0:0:
64,192,189109,1,0,0:0:0:0:
320,192,189276,128,2,189776:1:0:0:0:
448,192,189276,1,0,0:0:0:0:
64,192,189442,128,2,189609:1:0:0:0:
192,192,189609,128,2,189776:1:0:0:0:
64,192,189776,128,8,190109:0:0:0:0:
448,192,189776,128,0,190109:0:0:0:0:
320,192,189942,1,0,0:0:0:0:
192,192,190109,1,0,0:0:0:0:
320,192,190276,128,0,190609:0:0:0:0:
448,192,190276,128,0,190776:0:0:0:0:
64,192,190442,1,0,0:0:0:0:
192,192,190609,128,0,190776:0:0:0:0:
320,192,190776,128,0,191109:0:0:0:0:
448,192,190942,128,0,191109:0:0:0:0:
64,192,191109,1,2,1:0:0:0:
192,192,191109,128,0,191442:0:0:0:0:
320,192,191276,128,2,191442:1:0:0:0:
448,192,191276,1,0,0:0:0:0:
64,192,191442,1,0,0:0:0:0:
320,192,191609,128,0,191942:0:0:0:0:
64,192,191776,128,8,192109:0:0:0:0:
448,192,191776,128,0,191942:0:0:0:0:
192,192,191942,1,0,0:0:0:0:
320,192,192109,1,0,0:0:0:0:
64,192,192276,128,0,192609:0:0:0:0:
448,192,192276,128,0,192609:0:0:0:0:
192,192,192442,1,0,0:0:0:0:
320,192,192609,1,0,0:0:0:0:
192,192,192776,128,2,192942:1:0:0:0:
448,192,192776,128,0,193109:0:0:0:0:
64,192,192942,1,0,0:0:0:0:
192,192,193109,1,0,0:0:0:0:
320,192,193276,128,0,193442:0:0:0:0:
448,192,193276,128,0,193609:0:0:0:0:
64,192,193442,1,0,0:0:0:0:
320,192,193609,1,0,0:0:0:0:
64,192,193776,128,8,194276:0:0:0:0:
448,192,193776,128,0,194109:0:0:0:0:
320,192,193942,1,0,0:0:0:0:
192,192,194109,128,0,194276:0:0:0:0:
320,192,194276,128,0,194442:0:0:0:0:
448,192,194276,128,0,194609:0:0:0:0:
64,192,194442,1,0,0:0:0:0:
192,192,194609,1,2,1:0:0:0:
320,192,194776,128,2,194942:1:0:0:0:
448,192,194776,128,0,194942:0:0:0:0:
64,192,194942,1,0,0:0:0:0:
320,192,195109,128,2,195276:1:0:0:0:
448,192,195109,1,0,0:0:0:0:
64,192,195276,128,2,195442:1:0:0:0:
192,192,195276,128,0,195442:0:0:0:0:
320,192,195442,1,0,0:0:0:0:
192,192,195609,128,0,195942:0:0:0:0:
64,192,195776,128,8,195942:0:0:0:0:
448,192,195776,128,0,195942:0:0:0:0:
320,192,195942,1,0,0:0:0:0:
192,192,196109,128,0,196442:0:0:0:0:
64,192,196276,128,0,196609:0:0:0:0:
448,192,196276,128,0,196609:0:0:0:0:
320,192,196442,128,0,196609:0:0:0:0:
192,192,196609,1,0,0:0:0:0:
320,192,196776,128,2,196942:1:0:0:0:
448,192,196776,128,0,197109:0:0:0:0:
64,192,196942,128,0,197109:0:0:0:0:
320,192,197109,128,0,197276:0:0:0:0:
64,192,197276,128,2,197609:1:0:0:0:
192,192,197276,128,0,197442:0:0:0:0:
448,192,197442,128,2,197609:1:0:0:0:
320,192,197609,128,2,197776:1:0:0:0:
64,192,197776,128,8,198109:0:0:0:0:
448,192,197776,128,0,198109:0:0:0:0:
320,192,197942,1,0,0:0:0:0:
192,192,198109,128,0,198276:0:0:0:0:
64,192,198276,128,0,198609:0:0:0:0:
448,192,198276,128,0,198609:0:0:0:0:
320,192,198442,128,0,198609:0:0:0:0:
192,192,198609,128,0,198942:0:0:0:0:
320,192,198776,128,0,198942:0:0:0:0:
448,192,198942,128,0,199109:0:0:0:0:
64,192,199109,1,2,1:0:0:0:
192,192,199109,128,0,199442:0:0:0:0:
320,192,199276,128,2,199442:1:0:0:0:
448,192,199276,1,0,0:0:0:0:
64,192,199442,1,0,0:0:0:0:
320,192,199609,128,0,200276:0:0:0:0:
448,192,199776,128,0,200442:0:0:0:0:
64,192,199776,128,8,199942:0:0:0:0:
64,192,200109,128,2,200276:0:1:0:0:
192,192,200276,128,2,200442:1:0:0:0:
320,192,200442,128,2,200609:1:0:0:0:
448,192,200609,128,2,200776:1:0:0:0:
64,192,200776,128,4,200942:1:0:0:0:
192,192,200776,128,0,200859:0:0:0:0:
320,192,200776,1,0,0:0:0:0:
448,192,201276,128,0,201609:0:0:0:0:
320,192,201276,128,0,201442:0:0:0:0:
64,192,201776,128,0,202109:0:0:0:0:
448,192,201776,128,0,202276:0:0:0:0:
192,192,202109,128,0,202609:0:0:0:0:
320,192,202276,128,0,202609:0:0:0:0:
192,192,202776,128,0,203109:0:0:0:0:
320,192,203109,128,0,203276:0:0:0:0:
192,192,203276,128,0,203609:0:0:0:0:
320,192,203609,128,0,203776:0:0:0:0:
64,192,203776,128,0,204026:0:0:0:0:
448,192,203776,128,0,204026:0:0:0:0:
64,192,204276,128,0,204526:0:0:0:0:
448,192,204276,128,0,204609:0:0:0:0:
320,192,205442,1,0,0:0:0:0:
192,192,205609,1,0,0:0:0:0:
320,192,206442,1,0,0:0:0:0:
64,192,206609,1,0,0:0:0:0:
320,192,207442,1,0,0:0:0:0:
192,192,207609,1,0,0:0:0:0:
192,192,208442,1,0,0:0:0:0:
448,192,208609,1,0,0:0:0:0:
192,192,209442,1,0,0:0:0:0:
448,192,209609,1,0,0:0:0:0:
192,192,210442,1,0,0:0:0:0:
64,192,210609,1,0,0:0:0:0:
448,192,211442,1,0,0:0:0:0:
320,192,211609,1,0,0:0:0:0:
192,192,212442,1,0,0:0:0:0:
320,192,212609,1,0,0:0:0:0:
448,192,213442,1,0,0:0:0:0:
64,192,213609,1,0,0:0:0:0:
320,192,213776,128,0,214401:0:0:0:0:
