osu file format v14

[General]
AudioFilename: audio.mp3
AudioLeadIn: 0
PreviewTime: 201940
Countdown: 0
SampleSet: Soft
StackLeniency: 0.5
Mode: 0
LetterboxInBreaks: 0
EpilepsyWarning: 1
WidescreenStoryboard: 1

[Editor]
Bookmarks: 23981,62418,89245,89894,90110,106553,106985,107130,159630,161072,214417,217019,217172,236376,240342,243804,251088,271496,300126
DistanceSpacing: 1
BeatDivisor: 4
GridSize: 32
TimelineZoom: 2

[Metadata]
Title:If
TitleUnicode:If
Artist:Hanatan
ArtistUnicode:Hanatan
Creator:sonic8889
Version:Sixth
Source:
Tags:vocaloid muryokup flower
BeatmapID:1324900
BeatmapSetID:628421

[Difficulty]
HPDrainRate:5
CircleSize:4
OverallDifficulty:10
ApproachRate:9.5
SliderMultiplier:1.7
SliderTickRate:1

[Events]
//Background and Video events
0,0,"o o f osu.png",0,0
//Break Periods
//Storyboard Layer 0 (Background)
//Storyboard Layer 1 (Fail)
//Storyboard Layer 2 (Pass)
//Storyboard Layer 3 (Foreground)
//Storyboard Sound Samples

[TimingPoints]
111,288.461538461538,3,2,1,20,1,0
374,288.461538461538,3,2,1,20,1,0
950,288.461538461538,3,2,1,20,1,0
13957,288.461538461538,3,2,1,60,1,0
13957,-83.3333333333333,3,2,1,60,0,0
20014,-200,3,2,1,60,0,0
20880,-66.6666666666667,3,2,1,60,0,1
45110,-100,3,2,1,60,0,0
58957,-200,3,2,1,60,0,0
62418,-100,3,2,1,60,0,0
89245,-200,3,2,1,60,0,0
90110,-76.9230769230769,3,2,1,60,0,0
91841,-200,3,2,1,60,0,0
94726,-76.9230769230769,3,2,1,60,0,0
95303,-200,3,2,1,60,0,0
97034,-76.9230769230769,3,2,1,60,0,0
98764,-200,3,2,1,60,0,0
102226,-66.6666666666667,3,2,1,60,0,0
103956,-66.6666666666667,3,2,1,60,0,1
128187,-133.333333333333,3,2,1,20,0,0
135110,-100,3,2,1,60,0,0
136841,-90.9090909090909,3,2,1,60,0,0
138572,-83.3333333333333,3,2,1,60,0,0
140303,-76.9230769230769,3,2,1,60,0,0
142033,-66.6666666666667,3,2,1,60,0,1
162803,-200,3,2,1,60,0,0
166264,-66.6666666666667,3,2,1,60,0,0
183555,275.229357798165,4,2,1,60,1,0
184655,303.030303030303,4,2,1,40,1,0
185867,309.278350515464,4,2,1,20,1,0
186485,333.333333333333,4,2,1,20,1,8
187151,359.281437125748,4,2,1,20,1,8
187510,355.029585798817,4,2,1,20,1,0
188532,340.909090909091,4,2,1,20,1,8
188872,337.078651685393,4,2,1,20,1,0
191231,428.571428571429,3,2,1,20,1,0
191659,410.958904109589,3,2,1,20,1,8
192069,526.315789473684,3,2,1,20,1,8
192797,359.281437125748,3,2,1,20,1,0
193515,487.80487804878,3,2,1,20,1,0
194978,740.740740740741,3,2,1,20,1,0
197200,824.515597086712,3,2,1,20,1,0
202147,319.148936170213,3,2,1,20,1,0
202147,-200,3,2,1,20,0,0
202785,306.122448979592,3,2,1,20,1,0
202785,-200,3,2,1,20,0,0
228516,288.461538461538,3,2,1,60,1,0
230246,-66.6666666666667,3,2,1,60,0,9
254189,-66.6666666666667,3,2,1,60,0,8
254477,-66.6666666666667,3,2,1,60,0,9
278708,-66.6666666666667,3,2,1,60,0,8

[Colours]
Combo1 : 221,81,143
Combo2 : 243,179,29
Combo3 : 214,63,63

[HitObjects]
86,182,111,5,0,0:0:0:0:
200,214,374,1,0,0:0:0:0:
318,214,662,1,0,0:0:0:0:
432,182,950,1,0,0:0:0:0:
86,182,1527,5,0,0:0:0:0:
432,182,2392,5,0,0:0:0:0:
86,182,3258,6,0,P|80:221|90:285,1,85,0|0,0:0|0:0,0:0:0:0:
115,345,3546,1,0,0:0:0:0:
86,182,3834,1,0,0:0:0:0:
115,345,4123,5,0,0:0:0:0:
256,224,4411,5,0,0:0:0:0:
256,320,4556,1,0,0:0:0:0:
466,135,4988,5,0,0:0:0:0:
416,320,5277,1,0,0:0:0:0:
46,135,5854,5,0,0:0:0:0:
96,320,6143,1,0,0:0:0:0:
416,320,6431,5,0,0:0:0:0:
466,135,6720,1,0,0:0:0:0:
256,224,7008,5,0,0:0:0:0:
256,320,7296,1,0,0:0:0:0:
256,128,7584,5,0,0:0:0:0:
256,224,7872,1,0,0:0:0:0:
256,64,8450,5,0,0:0:0:0:
366,256,9315,5,0,0:0:0:0:
145,256,10181,6,0,P|139:217|149:153,1,85,0|0,0:0|0:0,0:0:0:0:
174,93,10469,1,0,0:0:0:0:
145,256,10758,1,0,0:0:0:0:
174,93,11046,5,0,0:0:0:0:
267,194,11334,5,0,0:0:0:0:
267,98,11479,1,0,0:0:0:0:
477,283,11911,5,0,0:0:0:0:
427,98,12200,1,0,0:0:0:0:
457,286,12777,5,0,0:0:0:0:
443,51,13066,1,0,0:0:0:0:
458,51,13957,6,0,P|397:40|316:144,1,203.999993774414,4|0,3:3|3:0,0:0:0:0:
31,149,14389,5,0,3:0:0:0:
31,149,14533,2,0,L|157:171,1,101.999996887207,8|0,3:0|3:0,0:0:0:0:
193,20,14822,2,0,L|319:42,1,101.999996887207,8|0,3:0|3:0,0:0:0:0:
196,319,15110,2,0,L|297:337,1,101.999996887207,8|0,3:0|3:0,0:0:0:0:
358,190,15399,2,0,L|459:208,1,101.999996887207,8|0,3:0|3:0,0:0:0:0:
57,230,15687,6,0,P|118:241|199:137,1,203.999993774414,4|0,3:0|3:0,0:0:0:0:
436,188,16120,5,0,3:0:0:0:
436,188,16264,2,0,L|335:170,1,101.999996887207,8|0,3:0|3:0,0:0:0:0:
274,316,16553,2,0,L|173:298,1,101.999996887207,8|0,3:0|3:0,0:0:0:0:
270,18,16841,2,0,L|169:0,1,101.999996887207,8|0,3:0|3:0,0:0:0:0:
108,147,17130,2,0,L|7:129,1,101.999996887207,8|0,3:0|3:0,0:0:0:0:
373,230,17418,6,0,P|345:312|280:255,1,203.999993774414,4|0,3:0|3:0,0:0:0:0:
100,253,17851,5,0,3:0:0:0:
100,253,17995,2,0,L|0:236,1,101.999996887207,8|0,3:0|3:0,0:0:0:0:
373,67,18283,2,0,L|474:85,1,101.999996887207,8|0,3:0|3:0,0:0:0:0:
165,30,18572,2,0,L|65:13,1,101.999996887207,8|0,3:0|3:0,0:0:0:0:
308,289,18860,2,0,L|409:307,1,101.999996887207,8|0,3:0|3:0,0:0:0:0:
66,301,19149,6,0,P|32:249|96:133,1,203.999993774414,10|0,3:0|3:0,0:0:0:0:
195,153,19582,2,0,P|228:204|164:320,1,203.999993774414,10|0,3:0|3:0,0:0:0:0:
130,226,20014,2,0,B|170:249|211:229|211:229|252:209|293:232,1,170,4|0,3:0|3:0,0:0:0:0:
443,85,20880,6,0,P|325:114|292:232,1,255.000009727478,12|0,0:0|0:0,0:0:0:0:
89,173,21312,2,0,P|173:260|291:230,1,255.000009727478,8|0,0:0|0:0,0:0:0:0:
352,196,21745,1,8,0:0:0:0:
399,177,22034,1,0,0:0:0:0:
437,145,22322,1,8,0:0:0:0:
223,26,22610,6,0,B|156:48|139:114|139:114|122:180|55:202,1,255.000009727478,8|0,0:0|0:0,0:0:0:0:
263,75,23043,2,0,B|192:79|159:138|159:138|125:197|55:202,1,255.000009727478,8|0,0:0|0:0,0:0:0:0:
1,242,23476,1,8,0:0:0:0:
38,276,23764,1,0,0:0:0:0:
87,294,24053,1,8,0:0:0:0:
361,303,24341,6,0,B|354:232|407:190|407:190|461:148|454:78,1,255.000009727478,8|0,0:0|0:0,0:0:0:0:
125,78,24774,2,0,B|118:148|171:190|171:190|225:232|218:302,1,255.000009727478,8|0,0:0|0:0,0:0:0:0:
238,365,25207,1,8,0:0:0:0:
284,383,25495,1,0,0:0:0:0:
336,382,25784,1,8,0:0:0:0:
436,308,26072,6,0,P|429:187|321:132,1,255.000009727478,8|0,0:0|0:0,0:0:0:0:
145,248,26505,2,0,P|278:233|318:108,1,255.000009727478,8|0,0:0|0:0,0:0:0:0:
199,138,26937,5,8,0:3:0:0:
108,49,27081,1,0,0:3:0:0:
285,260,27226,5,8,0:3:0:0:
194,171,27370,1,0,0:3:0:0:
372,374,27514,5,8,0:3:0:0:
372,374,27658,1,10,0:3:0:0:
224,49,27803,6,0,B|291:72|314:140|314:140|382:162|401:220,1,255.000009727478,10|0,0:0|0:0,0:0:0:0:
361,52,28235,2,0,P|300:157|178:157,1,255.000009727478,8|0,0:0|0:0,0:0:0:0:
110,146,28668,1,8,0:0:0:0:
60,156,28957,1,0,0:0:0:0:
18,186,29245,1,8,0:0:0:0:
0,367,29534,6,0,P|27:246|136:188,1,255.000009727478,8|0,0:0|0:0,0:0:0:0:
258,182,29966,2,0,P|366:123|393:3,1,255.000009727478,8|0,0:0|0:0,0:0:0:0:
275,71,30399,2,0,P|240:122|257:181,1,127.500004863739,8|0,0:0|0:0,0:0:0:0:
275,292,30687,2,0,P|292:233|258:182,1,127.500004863739,8|0,0:0|0:0,0:0:0:0:
162,197,30976,2,0,P|145:256|180:308,1,127.500004863739,8|0,0:0|0:0,0:0:0:0:
219,244,31264,5,12,0:3:0:0:
204,116,31409,1,0,0:3:0:0:
305,192,31553,5,0,0:3:0:0:
356,74,31698,1,4,0:3:0:0:
404,190,31841,5,0,0:3:0:0:
507,113,31986,1,0,0:3:0:0:
305,192,32130,5,4,0:3:0:0:
320,64,32275,1,0,0:3:0:0:
219,140,32419,5,0,0:3:0:0:
168,24,32562,1,4,0:3:0:0:
120,138,32707,5,0,0:3:0:0:
17,61,32852,1,0,0:3:0:0:
120,138,32995,5,6,0:3:0:0:
270,33,33139,1,12,0:3:0:0:
0,177,33428,5,6,0:3:0:0:
228,93,33572,1,12,0:3:0:0:
507,113,33860,5,12,0:3:0:0:
475,186,34005,1,0,0:3:0:0:
500,99,34149,5,12,0:3:0:0:
481,199,34294,1,0,0:3:0:0:
491,88,34437,5,12,0:3:0:0:
490,210,34581,1,0,0:3:0:0:
491,88,34726,6,0,P|384:146|383:269,1,255.000009727478,12|0,0:0|0:0,0:0:0:0:
244,269,35158,2,0,P|242:147|135:88,1,255.000009727478,8|0,0:0|0:0,0:0:0:0:
69,95,35591,1,8,0:0:0:0:
44,139,35880,1,0,0:0:0:0:
32,188,36168,1,8,0:0:0:0:
112,295,36457,6,0,P|214:364|333:330,1,255.000009727478,8|0,0:0|0:0,0:0:0:0:
306,107,36889,2,0,P|371:212|333:329,1,255.000009727478,8|0,0:0|0:0,0:0:0:0:
280,360,37322,1,8,0:0:0:0:
229,365,37610,1,0,0:0:0:0:
179,353,37899,1,8,0:0:0:0:
98,238,38187,6,0,B|105:167|52:125|52:125|-2:83|5:13,1,255.000009727478,8|0,0:0|0:0,0:0:0:0:
322,144,38620,2,0,B|252:137|210:191|210:191|168:244|97:237,1,255.000009727478,8|0,0:0|0:0,0:0:0:0:
34,232,39053,1,8,0:0:0:0:
9,187,39341,1,0,0:0:0:0:
2,136,39630,1,8,0:0:0:0:
174,100,39918,6,0,P|281:42|384:107,1,255.000009727478,8|0,0:0|0:0,0:0:0:0:
385,222,40351,2,0,P|277:279|174:214,1,255.000009727478,8|0,0:0|0:0,0:0:0:0:
281,157,40783,5,8,0:3:0:0:
398,207,40927,1,0,0:0:0:0:
153,87,41072,5,8,0:3:0:0:
270,137,41216,1,0,0:3:0:0:
25,17,41360,5,8,0:3:0:0:
25,17,41504,1,0,0:0:0:0:
324,77,41649,6,0,P|209:116|186:236,1,255.000009727478,10|0,0:0|0:0,0:0:0:0:
361,118,42081,2,0,P|239:126|186:236,1,255.000009727478,8|0,0:0|0:0,0:0:0:0:
200,299,42514,1,8,0:0:0:0:
228,341,42802,1,0,0:0:0:0:
270,371,43091,1,8,0:0:0:0:
512,366,43380,6,0,P|485:246|376:188,1,255.000009727478,8|0,0:0|0:0,0:0:0:0:
254,182,43812,2,0,P|145:122|119:1,1,255.000009727478,8|0,0:0|0:0,0:0:0:0:
236,70,44245,2,0,P|271:121|254:181,1,127.500004863739,8|0,0:0|0:0,0:0:0:0:
237,292,44533,2,0,P|220:232|254:181,1,127.500004863739,8|0,0:0|0:0,0:0:0:0:
349,196,44822,2,0,P|366:256|332:307,1,127.500004863739,8|0,0:0|0:0,0:0:0:0:
293,244,45110,5,4,3:2:0:0:
319,71,45255,1,0,3:0:0:0:
319,71,45543,5,0,3:0:0:0:
163,112,45687,1,0,3:0:0:0:
204,268,45832,1,0,3:0:0:0:
142,328,45976,5,8,3:0:0:0:
121,246,46120,2,8,L|229:274,1,85,8|8,3:0|3:0,0:0:0:0:
141,102,46408,2,8,L|170:210,1,85,0|8,3:0|3:0,0:0:0:0:
242,281,46841,5,4,3:2:0:0:
216,108,46986,1,0,3:0:0:0:
216,108,47274,5,0,3:0:0:0:
372,149,47418,1,0,3:0:0:0:
331,305,47563,1,0,3:0:0:0:
393,365,47707,5,8,3:0:0:0:
414,283,47851,2,0,L|305:311,1,85,8|8,3:0|3:0,0:0:0:0:
393,139,48139,1,0,3:0:0:0:
359,163,48211,1,0,3:0:0:0:
317,163,48283,1,8,3:0:0:0:
285,136,48355,1,0,3:0:0:0:
257,104,48428,1,0,3:0:0:0:
216,109,48500,1,0,3:0:0:0:
198,145,48572,6,0,P|172:196|180:249,1,85,0|0,3:0|3:0,0:0:0:0:
266,211,48860,1,0,3:0:0:0:
334,277,49005,6,0,P|360:226|352:173,1,85,0|0,3:0|3:0,0:0:0:0:
266,211,49293,1,0,3:0:0:0:
425,131,49437,6,0,P|374:105|321:113,1,85,0|0,3:0|3:0,0:0:0:0:
359,199,49725,1,0,3:0:0:0:
333,276,49870,6,0,P|359:225|351:172,1,85,0|0,3:0|3:0,0:0:0:0:
265,210,50158,1,0,3:0:0:0:
174,236,50303,6,0,P|205:284|255:303,1,85,0|0,3:0|3:0,0:0:0:0:
265,210,50591,1,0,3:0:0:0:
288,119,50735,6,0,P|230:121|188:155,1,85,0|0,3:0|3:0,0:0:0:0:
265,210,51023,1,0,3:0:0:0:
134,74,51168,5,2,3:0:0:0:
341,190,51312,1,2,3:0:0:0:
127,254,51457,5,2,3:0:0:0:
364,250,51601,1,2,3:0:0:0:
223,384,51745,5,2,3:0:0:0:
426,262,51889,1,2,3:0:0:0:
341,190,52034,5,4,3:2:0:0:
424,36,52179,1,0,3:0:0:0:
424,36,52467,5,0,3:0:0:0:
263,20,52611,1,0,3:0:0:0:
248,181,52756,1,0,3:0:0:0:
170,217,52900,5,8,3:0:0:0:
178,133,53044,2,8,L|269:196,1,85,8|8,3:0|3:0,0:0:0:0:
199,251,53332,2,0,L|107:187,1,85,0|8,3:0|3:0,0:0:0:0:
199,251,53764,5,4,3:2:0:0:
116,97,53909,1,0,3:0:0:0:
116,97,54197,5,0,3:0:0:0:
277,81,54341,1,0,3:0:0:0:
292,242,54486,1,0,3:0:0:0:
370,278,54630,5,8,3:0:0:0:
362,194,54774,2,8,L|270:257,1,85,8|8,3:0|3:0,0:0:0:0:
341,312,55062,1,0,3:0:0:0:
382,317,55134,1,0,3:0:0:0:
417,295,55206,1,8,3:0:0:0:
430,256,55278,1,0,3:0:0:0:
406,220,55351,1,0,3:0:0:0:
380,189,55423,1,0,3:0:0:0:
376,146,55495,6,0,P|374:88|405:44,1,85,0|0,3:0|3:0,0:0:0:0:
466,116,55783,1,0,3:0:0:0:
305,187,55928,6,0,P|349:150|402:147,1,85,0|0,3:0|3:0,0:0:0:0:
384,239,56216,1,0,3:0:0:0:
228,156,56360,6,0,P|283:168|319:209,1,85,0|0,3:0|3:0,0:0:0:0:
235,250,56648,1,0,3:0:0:0:
204,77,56793,6,0,P|228:128|218:181,1,85,0|0,3:0|3:0,0:0:0:0:
134,140,57081,1,0,3:0:0:0:
154,233,57226,6,0,P|96:228|56:193,1,85,0|0,3:0|3:0,0:0:0:0:
134,140,57514,1,0,3:0:0:0:
193,66,57658,6,0,P|156:47|113:47,1,85,0|0,3:0|3:0,0:0:0:0:
134,140,57946,1,0,3:0:0:0:
307,350,58091,5,4,3:2:0:0:
121,94,58235,1,6,3:2:0:0:
422,192,58380,1,6,3:2:0:0:
121,289,58524,1,6,3:2:0:0:
307,33,58668,1,6,3:2:0:0:
307,350,58812,1,6,3:2:0:0:
121,94,58957,2,0,P|377:74|107:118,1,998.75,6|0,3:1|3:2,0:0:0:0:
176,146,62418,6,0,B|214:173|256:156|256:156|299:140|337:167,1,170,8|0,0:0|0:0,0:0:0:0:
328,255,62851,1,0,0:0:0:0:
252,293,62995,2,0,P|216:283|157:221,1,85,8|0,0:0|0:0,0:0:0:0:
176,146,63284,2,0,P|154:115|149:29,1,85,8|0,0:0|0:0,0:0:0:0:
226,79,63572,1,8,0:0:0:0:
226,79,63860,5,8,0:0:0:0:
308,56,64005,1,8,0:0:0:0:
287,139,64149,2,0,P|277:174|215:234,1,85,8|0,0:0|0:0,0:0:0:0:
144,226,64437,5,0,0:0:0:0:
265,300,64582,1,8,0:0:0:0:
265,300,64870,5,0,0:0:0:0:
193,255,65014,2,0,P|174:222|176:136,1,85,8|0,0:0|0:0,0:0:0:0:
228,115,65303,2,0,P|246:147|244:233,1,85,8|0,0:0|0:0,0:0:0:0:
193,255,65591,1,8,0:0:0:0:
193,255,65880,5,8,0:0:0:0:
108,250,66024,2,8,P|72:240|13:178,1,85,8|8,0:0|0:0,0:0:0:0:
105,167,66312,2,0,B|151:159|169:117|169:117|187:75|234:68,1,170,8|0,0:0|0:0,0:0:0:0:
319,74,66745,6,0,P|351:92|392:168,1,85,8|0,0:0|0:0,0:0:0:0:
321,190,67034,2,0,P|285:213|259:246,1,85,8|0,0:0|0:0,0:0:0:0:
377,254,67322,2,0,P|390:288|457:342,1,85,8|0,0:0|0:0,0:0:0:0:
303,317,67610,6,0,P|289:282|222:228,1,85,8|0,0:0|0:0,0:0:0:0:
160,192,67899,1,0,0:0:0:0:
303,317,68043,2,0,B|337:349|381:337|381:337|426:326|460:358,1,170,8|0,0:0|0:0,0:0:0:0:
258,246,68476,6,0,P|271:211|338:157,1,85,8|0,0:0|0:0,0:0:0:0:
401,121,68765,1,0,0:0:0:0:
258,246,68908,2,0,B|223:278|179:266|179:266|134:255|100:287,1,170,8|0,0:0|0:0,0:0:0:0:
207,163,69341,6,0,B|196:209|153:224|153:224|110:239|100:286,1,170,8|0,0:0|0:0,0:0:0:0:
95,374,69774,1,0,0:0:0:0:
10,376,69918,6,0,P|23:341|90:287,1,85,8|0,0:0|0:0,0:0:0:0:
128,262,70207,2,0,P|160:243|246:245,1,85,8|0,0:0|0:0,0:0:0:0:
291,232,70495,1,8,0:0:0:0:
291,232,70784,5,8,0:0:0:0:
321,152,70928,1,8,0:0:0:0:
238,169,71072,2,0,P|196:174|158:194,1,85,8|0,0:0|0:0,0:0:0:0:
85,152,71360,5,0,0:0:0:0:
141,282,71505,1,8,0:0:0:0:
141,282,71793,5,0,0:0:0:0:
56,280,71937,2,0,P|37:247|39:161,1,85,8|0,0:0|0:0,0:0:0:0:
110,170,72226,2,0,P|128:137|126:51,1,85,8|0,0:0|0:0,0:0:0:0:
217,67,72514,1,8,0:0:0:0:
217,67,72803,5,8,0:0:0:0:
298,42,72947,2,0,P|330:23|416:25,1,85,8|8,0:0|0:0,0:0:0:0:
298,42,73235,2,0,B|263:74|219:62|219:62|174:51|140:83,1,170,8|0,0:0|0:0,0:0:0:0:
93,154,73668,6,0,P|74:186|76:272,1,85,8|0,0:0|0:0,0:0:0:0:
152,220,73957,2,0,P|158:256|215:320,1,85,8|0,0:0|0:0,0:0:0:0:
236,230,74245,2,0,P|264:253|349:266,1,85,8|0,0:0|0:0,0:0:0:0:
308,183,74534,6,0,P|321:148|388:94,1,85,8|0,0:0|0:0,0:0:0:0:
451,58,74823,1,0,0:0:0:0:
376,17,74966,2,0,B|341:49|297:37|297:37|252:26|218:58,1,170,8|0,0:0|0:0,0:0:0:0:
169,127,75399,6,0,P|155:161|88:215,1,85,8|0,0:0|0:0,0:0:0:0:
26,252,75688,1,0,0:0:0:0:
101,293,75832,2,0,B|152:244|176:271|201:297|255:249,1,170,8|0,0:0|0:0,0:0:0:0:
155,347,76264,6,0,B|204:296|177:272|151:247|199:193,1,170,8|0,0:0|0:0,0:0:0:0:
262,135,76697,1,0,0:0:0:0:
338,97,76841,2,0,P|374:107|433:169,1,85,8|0,0:0|0:0,0:0:0:0:
365,206,77130,2,0,P|343:237|338:323,1,85,8|0,0:0|0:0,0:0:0:0:
415,273,77418,1,8,0:0:0:0:
415,273,77707,5,8,0:0:0:0:
445,353,77851,1,8,0:0:0:0:
362,336,77995,2,0,P|320:331|282:311,1,85,8|0,0:0|0:0,0:0:0:0:
209,353,78283,5,0,0:0:0:0:
265,223,78428,1,8,0:0:0:0:
265,223,78716,5,0,0:0:0:0:
193,178,78860,2,0,P|174:145|176:59,1,85,8|0,0:0|0:0,0:0:0:0:
228,38,79149,2,0,P|263:47|322:110,1,85,8|0,0:0|0:0,0:0:0:0:
345,149,79437,1,8,0:0:0:0:
345,149,79726,5,10,0:0:0:0:
299,220,79870,1,0,0:0:0:0:
216,238,80014,2,0,P|180:248|121:310,1,85,10|0,0:0|0:0,0:0:0:0:
213,322,80303,2,0,P|249:332|308:394,1,85,10|0,0:0|0:0,0:0:0:0:
286,115,80591,6,0,P|322:125|381:187,1,85,10|0,0:0|0:0,0:0:0:0:
289,199,80880,1,0,0:0:0:0:
118,265,81168,1,0,0:0:0:0:
118,265,81457,6,0,P|131:230|198:176,1,85,8|0,0:0|0:0,0:0:0:0:
261,140,81746,1,0,0:0:0:0:
272,222,81889,2,0,B|237:254|193:242|193:242|148:231|114:263,1,170,8|0,0:0|0:0,0:0:0:0:
316,151,82322,6,0,P|303:186|236:240,1,85,8|0,0:0|0:0,0:0:0:0:
173,276,82611,1,0,0:0:0:0:
162,194,82755,2,0,B|196:161|240:173|240:173|285:184|319:152,1,170,8|0,0:0|0:0,0:0:0:0:
319,234,83187,6,0,B|284:201|240:213|240:213|195:224|161:192,1,170,8|0,0:0|0:0,0:0:0:0:
168,108,83620,1,0,0:0:0:0:
244,70,83764,2,0,P|280:80|339:142,1,85,8|0,0:0|0:0,0:0:0:0:
320,217,84053,2,0,P|342:248|347:334,1,85,8|0,0:0|0:0,0:0:0:0:
270,284,84341,1,8,0:0:0:0:
270,284,84629,5,8,0:0:0:0:
188,307,84774,1,8,0:0:0:0:
209,224,84918,2,0,P|219:189|281:129,1,85,8|0,0:0|0:0,0:0:0:0:
352,137,85206,5,0,0:0:0:0:
231,63,85351,1,8,0:0:0:0:
231,63,85639,5,0,0:0:0:0:
303,108,85783,2,0,P|322:141|320:227,1,85,8|0,0:0|0:0,0:0:0:0:
354,266,86072,2,0,P|336:234|338:148,1,85,8|0,0:0|0:0,0:0:0:0:
303,108,86360,1,8,0:0:0:0:
303,108,86649,5,8,0:0:0:0:
388,113,86793,2,8,P|424:123|483:185,1,85,8|8,0:0|0:0,0:0:0:0:
391,196,87081,2,0,B|344:203|326:245|326:245|308:287|261:294,1,170,8|0,0:0|0:0,0:0:0:0:
177,289,87514,6,0,P|145:271|104:195,1,85,8|0,0:0|0:0,0:0:0:0:
175,173,87803,2,0,P|211:150|237:117,1,85,8|0,0:0|0:0,0:0:0:0:
131,101,88091,2,0,P|167:78|193:45,1,85,8|0,0:0|0:0,0:0:0:0:
193,46,88379,6,0,P|207:81|274:135,1,85,8|0,0:0|0:0,0:0:0:0:
336,171,88668,1,0,0:0:0:0:
193,46,88812,2,0,B|158:13|114:25|114:25|69:36|35:4,1,170,8|0,0:0|0:0,0:0:0:0:
177,128,89245,6,0,B|211:160|256:149|256:149|300:137|335:170,1,170,8|0,0:0|0:0,0:0:0:0:
116,128,90110,6,0,P|148:48|176:129,1,220.999989883423,12|0,0:0|0:0,0:0:0:0:
140,230,90543,1,0,0:0:0:0:
208,316,90687,2,0,P|268:328|322:291,1,110.499994941712,0|0,0:0|0:0,0:0:0:0:
140,230,90976,1,0,0:0:0:0:
140,230,91264,5,2,0:0:0:0:
134,197,91336,1,2,0:0:0:0:
139,164,91408,1,2,0:0:0:0:
155,135,91480,1,2,0:0:0:0:
178,112,91552,1,2,0:0:0:0:
178,113,91841,6,0,B|212:145|256:133|256:133|301:122|335:154,1,170,8|0,0:0|0:0,0:0:0:0:
233,383,92706,2,0,B|265:349|254:304|254:304|242:260|275:226,1,170,8|8,0:0|0:0,0:0:0:0:
112,175,93572,5,8,0:0:0:0:
98,91,93860,5,0,0:0:0:0:
112,175,94005,1,0,0:0:0:0:
141,18,94293,5,0,0:0:0:0:
98,91,94438,1,0,0:0:0:0:
98,91,94726,5,2,0:0:0:0:
120,114,94798,1,2,0:0:0:0:
150,129,94870,1,2,0:0:0:0:
182,135,94942,1,2,0:0:0:0:
215,129,95014,1,2,0:0:0:0:
215,129,95303,6,0,P|263:122|310:135,1,85,8|0,0:0|0:0,0:0:0:0:
256,299,95735,2,0,P|249:257|257:216,1,85,8|0,0:0|0:0,0:0:0:0:
298,129,96168,2,0,P|282:115|262:108,1,42.5,8|0,0:0|0:0,0:0:0:0:
178,113,96457,2,0,P|156:112|136:119,1,42.5,8|0,0:0|0:0,0:0:0:0:
71,170,96745,2,0,P|54:183|44:201,1,42.5,8|0,0:0|0:0,0:0:0:0:
130,251,97034,6,0,P|162:330|190:249,1,220.999989883423,8|0,0:0|0:0,0:0:0:0:
136,119,97466,2,0,P|163:38|196:117,1,220.999989883423,0|0,0:0|0:0,0:0:0:0:
168,184,97899,1,0,0:0:0:0:
168,184,98187,5,2,0:0:0:0:
196,172,98259,1,2,0:0:0:0:
222,150,98331,1,2,0:0:0:0:
240,123,98403,1,2,0:0:0:0:
247,91,98475,1,2,0:0:0:0:
247,91,98764,6,0,P|336:110|385:180,1,170,8|0,0:0|0:0,0:0:0:0:
206,316,99630,2,0,P|254:265|266:200,1,127.5,8|0,0:0|0:0,0:0:0:0:
143,211,100206,1,8,0:0:0:0:
454,26,100495,5,14,0:1:0:0:
238,174,101649,5,0,0:0:0:0:
246,182,101937,1,0,0:0:0:0:
454,26,102226,5,14,0:0:0:0:
256,192,102370,2,0,P|111:144|111:47,1,255.000009727478,0|0,0:0|0:0,0:0:0:0:
209,95,102803,2,0,P|256:126|254:194,1,127.500004863739,4|0,0:0|0:0,0:0:0:0:
125,291,103091,5,4,0:0:0:0:
165,321,103163,1,0,0:0:0:0:
214,333,103235,1,0,0:0:0:0:
264,323,103307,1,0,0:0:0:0:
303,290,103380,5,4,0:0:0:0:
352,280,103452,1,0,0:0:0:0:
402,292,103524,1,0,0:0:0:0:
442,322,103596,1,0,0:0:0:0:
464,367,103668,2,0,P|345:344|305:231,1,191.250007295609,4|0,0:1|0:0,0:0:0:0:
257,179,103956,6,0,P|198:71|77:68,1,255.000009727478,12|0,0:0|0:0,0:0:0:0:
194,331,104389,2,0,P|310:365|399:281,1,255.000009727478,8|0,0:0|0:0,0:0:0:0:
100,253,104822,6,0,P|165:185|258:180,1,191.250007295609,8|0,0:0|0:0,0:0:0:0:
399,281,105110,2,0,P|309:259|258:181,1,191.250007295609,0|0,0:0|0:0,0:0:0:0:
274,8,105399,2,8,P|301:97|259:180,1,191.250007295609,8|0,0:0|0:0,0:0:0:0:
232,260,105687,6,0,P|290:152|411:149,1,255.000009727478,8|0,0:0|0:0,0:0:0:0:
298,367,106120,2,0,P|419:363|477:256,1,255.000009727478,8|0,0:0|0:0,0:0:0:0:
18,376,106553,6,0,B|57:316|124:317|124:317|193:318|231:259,1,255.000009727478,10|0,0:0|0:0,0:0:0:0:
361,225,106985,5,0,0:0:0:0:
213,74,107130,1,8,0:0:0:0:
243,194,107274,1,0,0:0:0:0:
361,225,107418,6,0,P|330:107|213:74,1,255.000009727478,8|0,0:0|0:0,0:0:0:0:
63,374,107851,2,0,L|244:192,1,255.000009727478,8|0,0:0|0:0,0:0:0:0:
400,266,108284,6,0,P|335:198|242:193,1,191.250007295609,8|0,0:0|0:0,0:0:0:0:
416,177,108572,2,0,P|326:150|243:192,1,191.250007295609,0|0,0:0|0:0,0:0:0:0:
385,92,108860,2,0,P|294:114|243:192,1,191.250007295609,8|0,0:0|0:0,0:0:0:0:
55,334,109149,6,0,P|175:296|242:191,1,255.000009727478,8|0,0:0|0:0,0:0:0:0:
290,341,109582,2,0,B|271:284|203:261|203:261|180:193|113:171,1,255.000009727478,8|0,0:0|0:0,0:0:0:0:
284,93,110014,5,12,0:3:0:0:
76,83,110159,1,0,0:3:0:0:
492,103,110303,5,12,0:3:0:0:
284,93,110448,1,0,0:3:0:0:
492,181,110591,5,12,0:3:0:0:
492,181,110735,1,12,0:3:0:0:
100,236,110880,6,0,P|158:128|279:125,1,255.000009727478,12|0,0:0|0:0,0:0:0:0:
100,236,111312,2,0,P|94:114|197:48,1,255.000009727478,8|0,0:0|0:0,0:0:0:0:
328,198,111745,6,0,P|420:194|471:271,1,191.250007295609,8|0,0:0|0:0,0:0:0:0:
377,279,112034,2,0,P|333:360|242:366,1,191.250007295609,0|0,0:0|0:0,0:0:0:0:
281,279,112322,2,0,P|232:202|275:121,1,191.250007295609,8|0,0:0|0:0,0:0:0:0:
55,107,112610,6,0,B|99:51|171:53|171:53|215:-2|276:0,1,255.000009727478,8|0,0:0|0:0,0:0:0:0:
379,191,113043,2,0,B|334:246|262:244|262:244|218:300|157:298,1,255.000009727478,8|0,0:0|0:0,0:0:0:0:
159,176,113476,6,0,P|97:168|64:116,1,127.500004863739,8|0,0:0|0:0,0:0:0:0:
273,120,113764,2,0,P|248:63|277:8,1,127.500004863739,8|0,0:0|0:0,0:0:0:0:
390,177,114053,2,0,P|451:173|488:124,1,127.500004863739,8|0,0:0|0:0,0:0:0:0:
339,133,114341,5,12,0:3:0:0:
319,299,114486,1,0,0:3:0:0:
153,83,114630,5,8,0:3:0:0:
219,237,114775,1,4,0:3:0:0:
0,102,114917,5,10,0:3:0:0:
119,217,115062,1,10,0:3:0:0:
200,71,115207,5,12,0:3:0:0:
219,237,115352,1,0,0:3:0:0:
362,33,115496,5,8,0:3:0:0:
296,184,115639,1,4,0:3:0:0:
495,26,115783,5,8,0:3:0:0:
403,165,115928,1,8,0:3:0:0:
175,1,116072,5,4,0:0:0:0:
403,165,116216,1,0,0:0:0:0:
0,5,116505,5,4,0:0:0:0:
364,0,116649,1,0,0:0:0:0:
5,271,116937,5,4,0:0:0:0:
160,299,117081,1,2,0:0:0:0:
12,285,117226,5,4,0:0:0:0:
152,281,117370,1,2,0:0:0:0:
21,296,117514,5,4,0:0:0:0:
140,267,117658,1,2,0:0:0:0:
21,296,117803,6,0,P|53:178|171:148,1,255.000009727478,12|0,0:0|0:0,0:0:0:0:
340,148,118235,2,0,P|458:178|491:296,1,255.000009727478,8|0,0:0|0:0,0:0:0:0:
166,202,118668,6,0,P|288:187|372:96,1,191.250007295609,8|0,0:0|0:0,0:0:0:0:
220,376,118957,2,0,P|205:252|114:168,1,191.250007295609,0|0,0:0|0:0,0:0:0:0:
394,321,119245,2,0,P|270:334|186:425,1,191.250007295609,8|0,0:0|0:0,0:0:0:0:
75,178,119534,6,0,B|137:211|148:282|148:282|210:316|219:376,1,255.000009727478,8|0,0:0|0:0,0:0:0:0:
391,250,119966,2,0,B|328:216|317:145|317:145|255:111|246:51,1,255.000009727478,8|0,0:0|0:0,0:0:0:0:
82,210,120399,6,0,B|133:160|199:176|199:176|265:193|316:144,1,255.000009727478,10|0,0:0|0:0,0:0:0:0:
170,296,120832,5,0,0:0:0:0:
230,58,120977,1,8,0:0:0:0:
82,210,121121,1,0,0:0:0:0:
172,292,121264,6,0,P|177:170|285:114,1,255.000009727478,8|0,0:0|0:0,0:0:0:0:
74,104,121697,2,0,P|69:226|172:292,1,255.000009727478,8|0,0:0|0:0,0:0:0:0:
338,291,122130,6,0,P|439:226|434:105,1,191.250007295609,8|0,0:0|0:0,0:0:0:0:
209,164,122418,2,0,P|239:251|324:291,1,191.250007295609,0|0,0:0|0:0,0:0:0:0:
331,169,122706,2,0,P|395:67|516:72,1,191.250007295609,8|0,0:0|0:0,0:0:0:0:
147,121,122995,6,0,B|214:143|237:211|237:211|305:234|324:291,1,255.000009727478,8|0,0:0|0:0,0:0:0:0:
87,281,123428,2,0,P|206:244|273:139,1,255.000009727478,8|0,0:0|0:0,0:0:0:0:
275,48,123860,5,12,0:3:0:0:
67,38,124005,1,0,0:3:0:0:
483,58,124149,5,12,0:3:0:0:
275,48,124294,1,0,0:3:0:0:
483,136,124437,5,12,0:3:0:0:
483,136,124581,1,12,0:3:0:0:
100,236,124726,6,0,P|165:130|284:93,1,255.000009727478,12|0,0:0|0:0,0:0:0:0:
252,325,125158,2,0,P|311:215|285:94,1,255.000009727478,8|0,0:0|0:0,0:0:0:0:
354,62,125591,6,0,P|447:66|510:135,1,191.250007295609,8|0,0:0|0:0,0:0:0:0:
395,178,125880,2,0,P|325:240|322:333,1,191.250007295609,0|0,0:0|0:0,0:0:0:0:
438,293,126168,2,0,L|253:218,1,191.250007295609,8|0,0:0|0:0,0:0:0:0:
64,200,126456,6,0,B|108:144|180:146|180:146|224:90|284:92,1,255.000009727478,8|0,0:0|0:0,0:0:0:0:
363,268,126889,2,0,B|318:324|246:322|246:322|202:378|142:376,1,255.000009727478,8|0,0:0|0:0,0:0:0:0:
363,268,127322,6,0,P|398:217|381:158,1,127.500004863739,8|0,0:0|0:0,0:0:0:0:
363,47,127610,2,0,P|346:106|380:157,1,127.500004863739,8|0,0:0|0:0,0:0:0:0:
476,142,127899,2,0,P|493:83|458:31,1,127.500004863739,8|0,0:0|0:0,0:0:0:0:
419,95,128187,5,8,0:0:0:0:
347,158,128476,1,0,0:0:0:0:
251,162,128764,1,0,0:0:0:0:
179,99,129053,5,8,0:0:0:0:
179,285,129485,1,8,0:0:0:0:
179,99,129918,5,8,0:0:0:0:
251,162,130207,1,0,0:0:0:0:
347,158,130495,1,0,0:0:0:0:
419,95,130784,5,8,0:0:0:0:
419,289,131216,1,0,0:0:0:0:
363,319,131360,2,0,P|319:328|293:326,1,63.7500024318696,0|0,0:0|0:0,0:0:0:0:
256,280,131649,5,8,0:0:0:0:
147,213,131937,5,0,0:0:0:0:
205,187,132082,1,8,0:0:0:0:
176,67,132515,5,8,0:0:0:0:
256,280,133380,5,8,0:0:0:0:
365,213,133668,5,0,0:0:0:0:
307,187,133813,1,8,0:0:0:0:
394,93,134101,5,8,0:0:0:0:
336,67,134246,1,8,0:0:0:0:
336,67,135110,6,0,P|280:79|244:120,1,85,4|0,0:0|0:0,0:0:0:0:
343,187,135399,1,8,0:0:0:0:
363,309,135543,2,0,P|281:293|227:229,1,170,8|0,0:0|0:0,0:0:0:0:
226,107,135976,6,0,P|268:112|303:137,1,85,10|0,0:0|0:0,0:0:0:0:
227,229,136264,2,0,P|221:270|197:305,1,85,10|0,0:0|0:0,0:0:0:0:
105,229,136553,2,0,P|63:223|28:199,1,85,10|0,0:0|0:0,0:0:0:0:
104,106,136841,6,0,P|112:60|139:24,1,93.5000028533936,8|0,0:0|0:0,0:0:0:0:
225,111,137130,1,8,0:0:0:0:
329,176,137274,2,0,P|254:230|165:218,1,187.000005706787,8|0,0:0|0:0,0:0:0:0:
252,133,137707,6,0,P|215:105|170:97,1,93.5000028533936,10|0,0:0|0:0,0:0:0:0:
165,218,137995,2,0,P|137:254|129:299,1,93.5000028533936,10|0,0:0|0:0,0:0:0:0:
251,304,138283,2,0,P|287:331|332:339,1,93.5000028533936,10|0,0:0|0:0,0:0:0:0:
191,97,138572,6,0,P|149:68|99:61,1,101.999996887207,4|0,0:0|0:0,0:0:0:0:
107,184,138861,1,8,0:0:0:0:
68,300,139005,2,0,P|168:290|228:204,1,203.999993774414,8|0,0:0|0:0,0:0:0:0:
228,90,139438,6,0,P|177:97|136:125,1,101.999996887207,10|0,0:0|0:0,0:0:0:0:
226,212,139726,2,0,P|233:262|261:303,1,101.999996887207,10|0,0:0|0:0,0:0:0:0:
348,212,140014,2,0,P|398:204|439:176,1,101.999996887207,10|0,0:0|0:0,0:0:0:0:
117,160,140303,6,0,P|126:105|160:60,1,110.499994941712,8|0,0:0|0:0,0:0:0:0:
238,158,140592,1,8,0:0:0:0:
357,214,140736,2,0,P|272:284|158:263,1,220.999989883423,8|0,0:0|0:0,0:0:0:0:
196,36,141168,5,0,0:0:0:0:
159,46,141240,1,0,0:0:0:0:
132,73,141312,1,0,0:0:0:0:
125,111,141384,1,0,0:0:0:0:
141,146,141457,5,0,0:0:0:0:
166,180,141529,1,0,0:0:0:0:
166,224,141601,1,0,0:0:0:0:
141,259,141673,1,0,0:0:0:0:
97,265,141745,5,0,0:0:0:0:
93,210,141817,1,0,0:0:0:0:
117,160,141889,1,0,0:0:0:0:
161,128,141961,1,0,0:0:0:0:
215,121,142033,5,14,3:2:0:0:
322,281,142178,1,0,3:2:0:0:
406,108,142322,1,0,3:2:0:0:
131,294,142466,5,10,3:2:0:0:
24,135,142610,1,0,3:2:0:0:
322,281,142755,1,0,3:2:0:0:
192,0,142899,5,10,3:2:0:0:
128,249,143043,1,0,3:2:0:0:
256,64,143187,5,10,3:2:0:0:
192,313,143331,1,0,3:2:0:0:
320,128,143476,5,10,3:2:0:0:
256,377,143620,1,0,3:2:0:0:
414,250,143764,5,14,3:2:0:0:
240,167,143909,1,0,3:2:0:0:
398,57,144053,1,0,3:2:0:0:
256,360,144197,5,10,3:2:0:0:
82,277,144342,1,0,3:2:0:0:
414,250,144485,1,0,3:2:0:0:
183,60,144630,5,10,3:2:0:0:
177,110,144702,1,0,3:2:0:0:
198,155,144774,1,0,3:2:0:0:
239,184,144846,1,0,3:2:0:0:
290,189,144918,5,10,3:2:0:0:
306,236,144990,1,0,3:2:0:0:
294,285,145062,1,0,3:2:0:0:
256,318,145134,1,0,3:2:0:0:
205,317,145207,5,10,3:2:0:0:
202,253,145279,1,0,3:2:0:0:
229,196,145351,1,0,3:2:0:0:
279,158,145423,1,0,3:2:0:0:
341,148,145495,6,0,P|425:173|490:280,1,191.250007295609,14|0,3:2|3:2,0:0:0:0:
26,254,145784,2,0,P|80:177|170:148,1,191.250007295609,8|0,3:2|3:2,0:0:0:0:
230,167,146072,6,0,P|266:200|276:241,2,85.0000032424928,8|8|8,3:2|3:2|3:2,0:0:0:0:
170,148,146360,2,0,P|80:119|26:42,1,191.250007295609,8|0,3:2|3:2,0:0:0:0:
88,23,146649,6,0,P|136:20|172:42,2,85.0000032424928,8|8|8,3:2|3:2|3:2,0:0:0:0:
210,85,146937,6,0,P|247:103|289:99,2,85.0000032424928,8|8|8,3:2|3:2|3:2,0:0:0:0:
177,95,147226,5,14,3:2:0:0:
162,126,147322,1,0,3:2:0:0:
166,162,147418,1,0,3:2:0:0:
186,191,147514,5,10,3:2:0:0:
219,177,147610,1,0,3:2:0:0:
254,182,147706,1,0,3:2:0:0:
286,195,147802,5,10,3:2:0:0:
273,162,147899,1,0,3:2:0:0:
278,127,147995,1,0,3:2:0:0:
300,104,148091,6,0,L|363:73,3,63.7500024318696,10|0|10|0,3:2|3:2|3:2|3:2,0:0:0:0:
400,76,148380,5,10,3:2:0:0:
417,117,148452,1,0,3:2:0:0:
416,161,148524,1,10,3:2:0:0:
396,201,148596,1,0,3:2:0:0:
355,218,148668,5,10,3:2:0:0:
299,188,148740,1,0,3:2:0:0:
236,180,148812,1,10,3:2:0:0:
175,196,148884,1,0,3:2:0:0:
129,238,148957,6,0,P|80:240|44:218,2,85.0000032424928,14|0|0,3:2|3:2|3:2,0:0:0:0:
160,225,149245,5,10,3:2:0:0:
167,191,149341,1,0,3:2:0:0:
152,159,149437,1,0,3:2:0:0:
120,145,149533,5,10,3:2:0:0:
154,152,149629,1,0,3:2:0:0:
186,137,149725,1,0,3:2:0:0:
200,104,149822,5,10,3:2:0:0:
193,138,149918,1,0,3:2:0:0:
208,170,150014,1,0,3:2:0:0:
241,184,150110,5,10,3:2:0:0:
234,150,150206,1,0,3:2:0:0:
249,118,150302,1,0,3:2:0:0:
282,104,150399,5,10,3:2:0:0:
248,111,150495,1,0,3:2:0:0:
216,97,150591,1,0,3:2:0:0:
187,77,150687,6,0,P|157:38|154:-4,2,85.0000032424928,14|0|0,3:2|3:2|3:2,0:0:0:0:
279,100,150976,6,0,P|318:70|360:67,2,85.0000032424928,10|0|0,3:2|3:2|3:2,0:0:0:0:
256,192,151264,6,0,P|286:231|289:273,2,85.0000032424928,10|0|0,3:2|3:2|3:2,0:0:0:0:
164,169,151553,6,0,P|125:199|83:202,2,85.0000032424928,10|0|0,3:2|3:2|3:2,0:0:0:0:
256,192,151841,6,0,L|198:163,3,63.7500024318696,10|0|10|0,3:2|3:2|3:2|3:2,0:0:0:0:
192,320,152130,5,10,3:2:0:0:
85,139,152274,1,10,3:2:0:0:
192,320,152418,6,0,L|169:342,1,31.8750012159348,14|0,3:2|3:2,0:0:0:0:
222,327,152490,6,0,L|210:356,1,31.8750012159348,0|0,3:2|3:2,0:0:0:0:
253,321,152562,6,0,L|253:352,1,31.8750012159348,10|10,3:2|3:2,0:0:0:0:
279,303,152634,6,0,L|279:334,1,31.8750012159348,0|0,3:2|3:2,0:0:0:0:
296,276,152706,5,10,3:2:0:0:
125,186,152851,6,0,P|165:140|256:130,1,127.500004863739,8|0,3:2|3:2,0:0:0:0:
387,198,153139,2,0,P|347:244|256:254,1,127.500004863739,8|0,3:2|3:2,0:0:0:0:
112,157,153428,2,0,P|162:122|253:136,1,127.500004863739,8|0,3:2|3:2,0:0:0:0:
73,236,153716,5,8,3:2:0:0:
228,346,153860,1,8,3:2:0:0:
112,157,154005,5,8,3:2:0:0:
296,178,154149,2,0,P|380:166|250:119,1,382.500014591218,14|0,3:2|3:2,0:0:0:0:
278,346,154726,5,8,3:2:0:0:
328,105,154870,1,8,3:2:0:0:
209,178,155015,6,0,P|103:74|252:79,1,382.500014591218,10|0,3:2|3:2,0:0:0:0:
184,257,155591,5,0,3:2:0:0:
323,280,155735,1,0,3:2:0:0:
355,141,155880,6,0,P|315:95|224:85,1,127.500004863739,10|0,3:1|3:1,0:0:0:0:
323,280,156168,2,0,P|361:233|355:141,1,127.500004863739,10|0,3:1|3:1,0:0:0:0:
180,273,156457,2,0,P|233:303|322:281,1,127.500004863739,10|0,3:1|3:1,0:0:0:0:
162,131,156745,2,0,P|142:189|179:273,1,127.500004863739,10|0,3:1|3:1,0:0:0:0:
254,193,157034,5,14,3:2:0:0:
152,126,157178,1,0,3:2:0:0:
331,303,157322,5,14,3:2:0:0:
72,15,157466,1,14,3:2:0:0:
166,229,157610,5,12,3:2:0:0:
213,247,157682,1,0,3:2:0:0:
260,228,157754,1,8,3:2:0:0:
282,183,157826,1,0,3:2:0:0:
269,135,157899,5,12,3:2:0:0:
227,162,157971,1,0,3:2:0:0:
179,148,158043,1,8,3:2:0:0:
158,103,158115,1,0,3:2:0:0:
177,58,158187,5,12,3:2:0:0:
159,105,158259,1,0,3:2:0:0:
121,138,158331,1,8,3:2:0:0:
71,149,158403,1,0,3:2:0:0:
25,135,158476,5,12,3:2:0:0:
46,314,158620,1,8,3:2:0:0:
184,181,158764,5,10,3:1:0:0:
46,314,158909,1,10,3:1:0:0:
226,140,159053,1,10,3:1:0:0:
226,140,159341,6,0,P|332:140|417:231,1,191.250007295609,14|0,3:2|3:2,0:0:0:0:
415,251,159630,5,12,3:2:0:0:
391,288,159702,1,0,3:2:0:0:
354,313,159774,1,8,3:2:0:0:
311,322,159846,1,0,3:2:0:0:
268,314,159918,1,12,3:2:0:0:
231,289,159990,1,0,3:2:0:0:
207,252,160062,1,8,3:2:0:0:
199,208,160134,1,0,3:2:0:0:
209,165,160207,5,14,3:2:0:0:
163,185,160279,1,0,3:2:0:0:
132,224,160351,1,10,3:2:0:0:
123,274,160423,1,0,3:2:0:0:
140,322,160495,5,14,3:2:0:0:
202,328,160567,1,0,3:2:0:0:
258,298,160639,1,10,3:2:0:0:
287,243,160711,1,0,3:2:0:0:
281,180,160784,6,0,P|235:138|55:132,1,191.250007295609,14|0,3:2|3:2,0:0:0:0:
51,274,161072,2,0,B|74:297|74:297|97:274|97:274|120:297|120:297|143:274|166:297|166:297|215:342|286:300,1,255.000009727478,10|2,3:2|3:2,0:0:0:0:
329,222,161505,5,8,3:2:0:0:
344,30,161649,1,12,3:2:0:0:
171,111,161793,1,0,3:2:0:0:
428,111,161937,5,14,3:2:0:0:
171,111,162082,1,0,3:2:0:0:
423,144,162226,5,14,3:2:0:0:
175,77,162371,1,0,3:2:0:0:
512,232,162514,5,14,3:2:0:0:
124,7,162659,1,14,3:2:0:0:
128,224,162803,5,10,0:0:0:0:
128,224,163668,5,8,0:0:0:0:
188,205,163956,1,0,0:0:0:0:
225,153,164245,1,0,0:0:0:0:
222,89,164534,1,8,0:0:0:0:
222,89,166264,5,4,3:2:0:0:
138,308,166409,1,0,3:2:0:0:
138,308,166697,5,0,3:2:0:0:
327,288,166841,1,0,3:2:0:0:
307,99,166985,1,0,3:2:0:0:
223,204,167130,5,8,3:3:0:0:
118,119,167274,2,0,L|259:82,1,127.500004863739,8|8,3:3|3:3,0:0:0:0:
189,327,167562,2,0,L|226:185,1,127.500004863739,0|8,3:3|3:3,0:0:0:0:
241,87,167995,5,4,3:2:0:0:
325,306,168140,1,0,3:2:0:0:
325,306,168428,5,0,3:2:0:0:
136,286,168572,1,0,3:2:0:0:
156,97,168716,1,0,3:2:0:0:
240,202,168861,5,8,3:3:0:0:
345,117,169005,2,0,L|203:80,1,127.500004863739,8|8,3:3|3:3,0:0:0:0:
274,325,169293,5,8,3:3:0:0:
240,201,169437,2,0,L|36:148,1,191.250007295609,8|0,3:3|3:3,0:0:0:0:
168,101,169726,6,0,P|252:79|327:117,1,127.500004863739,0|0,3:2|3:2,0:0:0:0:
240,201,170014,1,0,3:2:0:0:
389,17,170158,6,0,P|411:101|373:176,1,127.500004863739,0|0,3:2|3:2,0:0:0:0:
289,89,170446,1,0,3:2:0:0:
472,238,170591,6,0,P|388:260|313:222,1,127.500004863739,0|0,3:2|3:2,0:0:0:0:
400,138,170879,1,0,3:2:0:0:
250,321,171024,6,0,P|228:237|266:162,1,127.500004863739,0|0,3:2|3:2,0:0:0:0:
350,249,171312,1,0,3:2:0:0:
43,111,171456,6,0,P|102:88|165:99,1,127.500004863739,0|0,3:2|3:2,0:0:0:0:
116,210,171744,1,0,3:2:0:0:
165,100,171889,6,0,P|224:77|287:88,1,127.500004863739,0|0,3:2|3:2,0:0:0:0:
238,199,172177,1,0,3:2:0:0:
496,10,172322,5,12,3:2:0:0:
245,171,172466,1,4,3:2:0:0:
504,227,172611,5,12,3:2:0:0:
217,243,172755,1,4,3:2:0:0:
388,384,172899,5,12,3:2:0:0:
142,257,173043,1,12,3:2:0:0:
332,172,173187,5,4,3:2:0:0:
142,257,173332,1,0,3:2:0:0:
142,257,173620,5,0,3:2:0:0:
331,277,173764,1,0,3:2:0:0:
162,68,173908,1,0,3:2:0:0:
246,173,174053,5,8,3:3:0:0:
351,88,174197,2,0,L|209:51,1,127.500004863739,8|8,3:3|3:3,0:0:0:0:
280,296,174485,2,0,L|242:154,1,127.500004863739,0|8,3:3|3:3,0:0:0:0:
247,172,174918,5,4,3:2:0:0:
155,383,175063,1,0,3:2:0:0:
155,383,175351,5,0,3:2:0:0:
348,384,175495,1,0,3:2:0:0:
221,85,175639,1,0,3:2:0:0:
240,202,175784,5,8,3:3:0:0:
345,117,175928,2,0,L|203:80,1,127.500004863739,8|8,3:3|3:3,0:0:0:0:
274,325,176216,5,8,3:3:0:0:
240,201,176360,2,0,L|36:148,1,191.250007295609,8|0,3:3|3:3,0:0:0:0:
168,301,176649,6,0,P|252:323|327:285,1,127.500004863739,0|0,3:2|3:2,0:0:0:0:
240,201,176937,1,0,3:2:0:0:
174,98,177081,6,0,P|208:177|284:213,1,127.500004863739,0|0,3:2|3:2,0:0:0:0:
297,93,177369,1,0,3:2:0:0:
329,197,177514,6,0,P|287:273|306:355,1,127.500004863739,0|0,3:2|3:2,0:0:0:0:
408,290,177802,1,0,3:2:0:0:
329,197,177947,6,0,P|283:122|203:98,1,127.500004863739,0|0,3:2|3:2,0:0:0:0:
208,218,178235,1,0,3:2:0:0:
115,297,178380,6,0,P|189:251|213:171,1,127.500004863739,0|0,3:2|3:2,0:0:0:0:
94,176,178668,1,0,3:2:0:0:
397,297,178812,6,0,P|322:251|298:171,1,127.500004863739,0|0,3:2|3:2,0:0:0:0:
418,176,179100,1,0,3:2:0:0:
143,167,179245,5,12,3:2:0:0:
391,222,179389,1,12,3:2:0:0:
249,7,179534,5,12,3:2:0:0:
437,178,179678,1,12,3:2:0:0:
174,359,179822,5,14,3:2:0:0:
416,282,179966,1,14,3:2:0:0:
126,285,180110,6,0,P|200:239|224:159,1,127.500004863739,4|0,3:2|3:2,0:0:0:0:
105,164,180398,1,0,3:2:0:0:
218,205,180543,6,0,P|299:235|377:205,1,127.500004863739,0|0,3:2|3:2,0:0:0:0:
300,113,180831,1,0,3:2:0:0:
337,229,180976,6,0,P|362:311|434:355,1,127.500004863739,0|0,3:2|3:2,0:0:0:0:
459,236,181264,1,0,3:2:0:0:
337,229,181408,6,0,P|362:146|434:102,1,127.500004863739,0|0,3:2|3:2,0:0:0:0:
459,222,181696,1,0,0:0:0:0:
337,229,181841,6,0,P|311:146|239:102,1,127.500004863739,0|0,3:2|3:2,0:0:0:0:
215,222,182129,1,0,3:2:0:0:
147,323,182274,6,0,P|105:276|93:215,1,127.500004863739,0|0,3:2|3:2,0:0:0:0:
215,222,182562,1,0,3:2:0:0:
107,89,182707,5,14,3:2:0:0:
169,78,182779,1,0,3:2:0:0:
228,98,182851,1,10,3:2:0:0:
270,145,182923,1,0,3:2:0:0:
284,207,182995,5,14,3:2:0:0:
337,164,183067,1,0,3:2:0:0:
342,96,183139,1,10,3:2:0:0:
296,45,183211,1,0,3:2:0:0:
228,44,183284,5,14,3:2:0:0:
244,119,183356,1,10,3:2:0:0:
241,195,183428,1,14,3:2:0:0:
219,268,183500,1,10,3:2:0:0:
180,334,183555,5,14,3:1:0:0:
331,334,184655,5,0,0:0:0:0:
180,334,185867,5,0,0:0:0:0:
331,334,186485,5,0,0:0:0:0:
180,334,187151,5,0,0:0:0:0:
198,285,187510,1,0,0:0:0:0:
174,239,187865,1,0,0:0:0:0:
127,258,188220,1,0,0:0:0:0:
331,334,188872,5,0,0:0:0:0:
180,334,190894,5,0,0:0:0:0:
194,312,191063,1,0,0:0:0:0:
211,302,191231,1,0,0:0:0:0:
262,290,191659,1,0,0:0:0:0:
331,334,192069,5,0,0:0:0:0:
180,334,192595,5,0,0:0:0:0:
331,334,193515,5,0,0:0:0:0:
180,334,194978,5,0,0:0:0:0:
331,334,197200,5,0,0:0:0:0:
225,192,202147,6,0,P|256:146|286:192,1,127.5,0|0,0:0|0:0,0:0:0:0:
256,256,202785,1,0,0:0:0:0:
256,320,203244,1,0,0:0:0:0:
256,384,203703,1,0,0:0:0:0:
96,192,204315,5,0,0:0:0:0:
448,192,204621,5,0,0:0:0:0:
384,192,205081,1,0,0:0:0:0:
320,192,205540,1,0,0:0:0:0:
96,96,206152,5,0,0:0:0:0:
210,237,206458,5,0,0:0:0:0:
165,282,206917,1,0,0:0:0:0:
120,327,207377,1,0,0:0:0:0:
416,96,207989,5,0,0:0:0:0:
301,237,208295,5,0,0:0:0:0:
346,282,208754,1,0,0:0:0:0:
391,327,209214,1,0,0:0:0:0:
96,192,209825,5,0,0:0:0:0:
301,146,210131,5,0,0:0:0:0:
346,101,210590,1,0,0:0:0:0:
391,56,211050,1,0,0:0:0:0:
256,320,211662,5,0,0:0:0:0:
192,128,211968,5,0,0:0:0:0:
256,128,212427,1,0,0:0:0:0:
320,128,212887,1,0,0:0:0:0:
256,320,213193,5,0,0:0:0:0:
256,128,213499,1,0,0:0:0:0:
256,320,213805,5,0,0:0:0:0:
257,326,214417,6,0,B|188:304|169:240|169:240|94:207|16:240|16:240|42:158|16:80|16:80|103:103|176:80|176:80|153:165|162:195,1,722.5,8|0,0:0|0:0,0:0:0:0:
290,204,217172,5,0,0:0:0:0:
416,352,217478,5,0,0:0:0:0:
352,352,217938,1,0,0:0:0:0:
288,352,218397,1,0,0:0:0:0:
256,192,219009,5,0,0:0:0:0:
96,32,219315,5,0,0:0:0:0:
160,32,219775,1,0,0:0:0:0:
224,32,220234,1,0,0:0:0:0:
128,192,220846,5,0,0:0:0:0:
352,32,221152,5,0,0:0:0:0:
397,77,221611,1,0,0:0:0:0:
442,122,222071,1,0,0:0:0:0:
384,288,222682,5,0,0:0:0:0:
160,128,222988,5,0,0:0:0:0:
115,173,223447,1,0,0:0:0:0:
70,218,223907,1,0,0:0:0:0:
128,288,224519,5,0,0:0:0:0:
384,96,224825,5,0,0:0:0:0:
384,159,225284,1,0,0:0:0:0:
384,223,225744,1,0,0:0:0:0:
384,288,226356,5,0,0:0:0:0:
128,96,226662,5,0,0:0:0:0:
128,159,227121,1,0,0:0:0:0:
128,223,227581,5,0,0:0:0:0:
128,96,227887,1,0,0:0:0:0:
126,225,228516,6,0,B|146:306|200:353|363:258|349:136|302:89|256:57|256:57|207:89|160:136|146:258|309:353|363:306|383:225,1,850,8|0,0:0|0:0,0:0:0:0:
126,224,230246,6,0,P|5:120|10:35,1,255.000009727478,14|0,0:0|0:0,0:0:0:0:
386,225,230679,2,0,P|506:121|501:36,1,255.000009727478,8|0,0:0|0:0,0:0:0:0:
126,33,231112,6,0,L|126:257,1,191.250007295609,8|0,0:0|0:0,0:0:0:0:
256,352,231400,2,0,L|256:128,1,191.250007295609,0|0,0:0|0:0,0:0:0:0:
386,33,231689,2,0,L|386:257,1,191.250007295609,8|0,0:0|0:0,0:0:0:0:
166,141,231977,6,0,B|210:85|282:87|282:87|326:31|386:33,1,255.000009727478,14|0,0:0|0:0,0:0:0:0:
512,275,232410,2,0,B|468:331|396:329|396:329|352:385|292:383,1,255.000009727478,8|0,0:0|0:0,0:0:0:0:
166,141,232842,2,0,B|208:83|275:87|275:87|344:92|385:36,1,255.000009727478,10|2,0:0|0:0,0:0:0:0:
268,210,233275,5,0,0:0:0:0:
61,35,233419,1,8,0:0:0:0:
183,208,233564,1,0,0:0:0:0:
284,138,233708,6,0,B|241:80|174:84|174:84|105:89|64:33,1,255.000009727478,14|0,0:0|0:0,0:0:0:0:
65,382,234141,2,0,B|106:325|174:330|174:330|242:334|284:277,1,255.000009727478,8|0,0:0|0:0,0:0:0:0:
400,143,234573,6,0,P|366:230|285:276,1,191.250007295609,8|0,0:0|0:0,0:0:0:0:
455,233,234862,2,0,P|377:285|284:276,1,191.250007295609,0|0,0:0|0:0,0:0:0:0:
302,101,235150,2,0,P|325:191|284:276,1,191.250007295609,8|0,0:0|0:0,0:0:0:0:
16,198,235439,6,0,B|60:142|132:144|132:144|176:88|236:90,1,255.000009727478,14|0,0:0|0:0,0:0:0:0:
130,302,235871,2,0,P|149:152|67:95,1,255.000009727478,0|0,0:0|0:0,0:0:0:0:
245,59,236304,5,14,0:0:0:0:
44,215,236448,1,0,0:0:0:0:
398,262,236592,5,14,0:0:0:0:
245,59,236736,1,0,0:0:0:0:
220,237,236881,5,14,0:0:0:0:
220,237,237025,1,14,0:0:0:0:
158,10,237169,6,0,P|79:104|109:224,1,255.000009727478,14|10,0:0|0:0,0:0:0:0:
274,259,237602,2,0,P|352:164|324:44,1,255.000009727478,8|0,0:0|0:0,0:0:0:0:
111,345,238035,6,0,B|164:342|194:298|194:298|248:296|273:259,1,191.250007295609,8|0,0:0|0:0,0:0:0:0:
197,203,238323,2,0,B|167:158|114:154|114:154|86:108|41:105,1,191.250007295609,0|0,0:0|0:0,0:0:0:0:
32,200,238612,2,0,B|8:247|31:295|31:295|5:343|25:383,1,191.250007295609,8|0,0:0|0:0,0:0:0:0:
272,250,238900,6,0,B|314:192|381:196|381:196|450:201|491:145,1,255.000009727478,14|0,0:0|0:0,0:0:0:0:
374,320,239333,2,0,B|315:280|318:212|318:212|320:144|261:104,1,255.000009727478,8|0,0:0|0:0,0:0:0:0:
1,330,239765,6,0,P|109:305|153:234,1,191.250007295609,8|0,0:0|0:0,0:0:0:0:
318,199,240054,2,0,P|224:259|143:239,1,191.250007295609,8|0,0:0|0:0,0:0:0:0:
104,75,240342,2,0,P|198:15|279:35,1,191.250007295609,8|0,0:0|0:0,0:0:0:0:
34,0,240631,5,10,0:3:0:0:
8,215,240776,1,2,0:3:0:0:
176,88,240920,5,2,0:3:0:0:
262,285,241065,1,10,0:3:0:0:
341,90,241208,5,2,0:3:0:0:
512,219,241353,1,2,0:3:0:0:
486,4,241496,5,10,0:3:0:0:
512,219,241641,1,2,0:3:0:0:
348,88,241785,5,2,0:3:0:0:
262,285,241930,1,10,0:3:0:0:
179,86,242073,5,2,0:3:0:0:
8,215,242218,1,2,0:3:0:0:
179,86,242362,5,14,0:1:0:0:
332,290,242506,1,4,0:0:0:0:
0,135,242794,5,14,0:1:0:0:
449,81,242938,1,4,0:0:0:0:
346,38,243227,5,12,0:0:0:0:
295,235,243372,1,10,0:0:0:0:
336,56,243516,5,12,0:0:0:0:
305,211,243661,1,10,0:0:0:0:
325,70,243804,5,12,0:0:0:0:
321,193,243948,1,10,0:0:0:0:
426,256,244092,6,0,P|429:134|325:70,1,255.000009727478,14|0,0:0|0:0,0:0:0:0:
86,256,244525,2,0,P|82:134|186:70,1,255.000009727478,8|0,0:0|0:0,0:0:0:0:
426,256,244958,6,0,P|333:259|283:183,1,191.250007295609,8|0,0:0|0:0,0:0:0:0:
377,175,245247,2,0,P|420:93|511:87,1,191.250007295609,0|0,0:0|0:0,0:0:0:0:
472,174,245535,2,0,P|521:251|478:332,1,191.250007295609,8|0,0:0|0:0,0:0:0:0:
119,359,245823,6,0,B|76:317|84:247|84:247|32:197|40:127,1,255.000009727478,14|0,0:0|0:0,0:0:0:0:
250,65,246256,2,0,B|293:107|285:177|285:177|337:227|329:297,1,255.000009727478,8|0,0:0|0:0,0:0:0:0:
460,110,246689,6,0,B|418:166|350:161|350:161|282:157|240:214,1,255.000009727478,10|2,0:0|0:0,0:0:0:0:
359,40,247121,5,0,0:0:0:0:
343,284,247265,1,8,0:0:0:0:
252,11,247410,1,0,0:0:0:0:
227,320,247554,6,0,P|122:254|110:131,1,255.000009727478,14|0,0:0|0:0,0:0:0:0:
313,219,247987,2,0,P|190:225|110:131,1,255.000009727478,8|0,0:0|0:0,0:0:0:0:
226,361,248419,6,0,B|279:358|309:314|309:314|363:312|388:275,1,191.250007295609,8|0,0:0|0:0,0:0:0:0:
313,219,248707,2,0,B|352:183|347:129|347:129|386:93|382:48,1,191.250007295609,0|0,0:0|0:0,0:0:0:0:
252,146,248996,2,0,B|207:142|171:181|171:181|117:176|81:215,1,191.250007295609,8|0,0:0|0:0,0:0:0:0:
275,352,249285,6,0,P|154:376|62:295,1,255.000009727478,14|0,0:0|0:0,0:0:0:0:
251,145,249717,2,0,P|344:64|465:89,1,255.000009727478,0|0,0:0|0:0,0:0:0:0:
201,310,250150,5,14,0:0:0:0:
163,55,250294,1,0,0:0:0:0:
466,256,250438,5,14,0:0:0:0:
201,310,250583,1,0,0:0:0:0:
321,151,250727,5,14,0:0:0:0:
321,151,250871,1,14,0:0:0:0:
85,271,251015,6,0,P|176:190|291:228,1,255.000009727478,14|10,0:0|0:0,0:0:0:0:
481,1,251448,2,0,P|389:81|274:43,1,255.000009727478,8|0,0:0|0:0,0:0:0:0:
35,105,251881,6,0,B|33:150|75:183|75:183|73:237|116:270,1,191.250007295609,8|0,0:0|0:0,0:0:0:0:
80,89,252169,2,0,B|66:132|98:174|98:174|83:226|115:269,1,191.250007295609,0|0,0:0|0:0,0:0:0:0:
127,85,252458,2,0,B|103:123|123:172|123:172|94:218|114:268,1,191.250007295609,8|0,0:0|0:0,0:0:0:0:
467,143,252746,6,0,B|425:199|357:194|357:194|289:190|247:247,1,255.000009727478,14|0,0:0|0:0,0:0:0:0:
349,317,253179,2,0,B|294:270|303:203|303:203|313:136|259:90,1,255.000009727478,8|0,0:0|0:0,0:0:0:0:
349,317,253612,5,4,0:0:0:0:
375,274,253684,1,0,0:0:0:0:
374,223,253756,1,0,0:0:0:0:
347,181,253828,1,0,0:0:0:0:
302,159,253900,5,4,0:0:0:0:
297,209,253972,1,0,0:0:0:0:
320,253,254044,1,0,0:0:0:0:
365,276,254116,1,0,0:0:0:0:
415,270,254189,6,0,P|426:177|370:103,1,191.250007295609,4|0,0:0|0:0,0:0:0:0:
309,210,254477,6,0,P|216:130|101:171,1,255.000009727478,14|0,0:0|0:0,0:0:0:0:
194,252,254910,2,0,P|286:331|401:290,1,255.000009727478,8|0,0:0|0:0,0:0:0:0:
309,210,255342,6,0,B|351:195|368:145|368:145|420:127|437:77,1,191.250007295609,8|0,0:0|0:0,0:0:0:0:
277,121,255631,2,0,L|443:272,1,191.250007295609,0|0,0:0|0:0,0:0:0:0:
486,181,255919,2,0,L|319:29,1,191.250007295609,8|0,0:0|0:0,0:0:0:0:
19,384,256208,6,0,P|32:261|136:196,1,255.000009727478,14|0,0:0|0:0,0:0:0:0:
32,1,256640,2,0,P|132:73|136:196,1,255.000009727478,0|0,0:0|0:0,0:0:0:0:
338,40,257073,5,14,0:0:0:0:
136,196,257217,1,0,0:0:0:0:
491,243,257361,5,14,0:0:0:0:
338,40,257505,1,0,0:0:0:0:
313,218,257650,5,14,0:0:0:0:
313,218,257794,1,14,0:0:0:0:
181,58,257939,5,10,0:0:0:0:
111,221,258083,1,2,0:0:0:0:
261,126,258227,5,2,0:0:0:0:
139,256,258371,1,10,0:0:0:0:
313,218,258515,5,2,0:0:0:0:
154,298,258659,1,0,0:0:0:0:
231,105,258804,5,10,0:0:0:0:
139,256,258948,1,2,0:0:0:0:
128,80,259092,5,2,0:0:0:0:
94,255,259236,1,0,0:0:0:0:
22,92,259380,5,2,0:0:0:0:
52,268,259524,1,0,0:0:0:0:
231,105,259669,5,14,0:1:0:0:
52,268,259814,2,0,P|31:172|75:108,1,127.500004863739,4|0,0:0|0:0,0:0:0:0:
423,63,260102,5,14,0:1:0:0:
244,226,260247,2,0,P|223:130|267:66,1,127.500004863739,4|0,0:0|0:0,0:0:0:0:
388,88,260535,5,12,0:0:0:0:
401,136,260607,1,0,0:0:0:0:
397,187,260679,1,10,0:0:0:0:
374,232,260751,1,0,0:0:0:0:
331,259,260823,5,12,0:0:0:0:
293,225,260895,1,0,0:0:0:0:
270,179,260967,1,10,0:0:0:0:
265,129,261039,1,0,0:0:0:0:
279,80,261111,5,12,0:0:0:0:
245,133,261184,1,0,0:0:0:0:
192,168,261256,1,10,0:0:0:0:
130,179,261328,1,0,0:0:0:0:
69,164,261400,5,10,0:0:0:0:
139,299,261544,2,0,P|235:320|299:276,1,127.500004863739,10|0,0:0|0:0,0:0:0:0:
390,214,261833,5,12,0:0:0:0:
409,167,261905,1,0,0:0:0:0:
406,116,261977,1,10,0:0:0:0:
258,310,262121,1,8,0:0:0:0:
122,116,262265,5,12,0:0:0:0:
118,166,262337,1,0,0:0:0:0:
145,208,262409,1,8,0:0:0:0:
191,227,262481,1,0,0:0:0:0:
241,241,262554,5,12,0:0:0:0:
193,229,262626,1,0,0:0:0:0:
146,248,262698,1,8,0:0:0:0:
120,291,262770,1,0,0:0:0:0:
123,341,262842,6,0,P|219:362|283:318,1,127.500004863739,14|0,0:0|0:0,0:0:0:0:
390,214,263131,5,10,0:0:0:0:
183,118,263275,2,0,P|121:106|62:129,1,127.500004863739,10|0,0:0|0:0,0:0:0:0:
18,268,263564,5,12,0:0:0:0:
336,159,263708,1,10,0:0:0:0:
62,129,263852,1,8,0:0:0:0:
372,293,263996,5,12,0:0:0:0:
336,159,264140,1,8,0:0:0:0:
301,120,264213,1,0,0:0:0:0:
254,99,264285,1,12,0:0:0:0:
382,357,264429,5,8,0:0:0:0:
134,116,264573,2,0,P|241:94|280:114,1,127.500004863739,14|0,0:0|0:0,0:0:0:0:
329,286,264862,5,10,0:0:0:0:
399,123,265006,1,2,0:0:0:0:
249,218,265150,5,2,0:0:0:0:
371,88,265294,1,10,0:0:0:0:
197,126,265438,5,2,0:0:0:0:
356,46,265582,1,0,0:0:0:0:
289,277,265727,5,10,0:0:0:0:
197,126,265871,1,2,0:0:0:0:
186,302,266015,5,2,0:0:0:0:
152,127,266159,1,0,0:0:0:0:
80,290,266303,5,2,0:0:0:0:
110,114,266447,1,0,0:0:0:0:
289,277,266592,5,14,0:1:0:0:
110,114,266737,2,0,P|89:210|133:274,1,127.500004863739,4|0,0:0|0:0,0:0:0:0:
481,319,267025,5,14,0:1:0:0:
302,156,267170,2,0,P|281:252|325:316,1,127.500004863739,4|0,0:0|0:0,0:0:0:0:
428,70,267458,5,12,0:0:0:0:
239,95,267602,1,10,0:0:0:0:
332,18,267746,5,12,0:0:0:0:
361,229,267890,1,10,0:0:0:0:
428,70,268035,5,12,0:0:0:0:
234,319,268179,1,10,0:0:0:0:
277,128,268323,5,10,0:0:0:0:
114,307,268468,2,0,P|210:328|274:284,1,127.500004863739,10|0,0:0|0:0,0:0:0:0:
482,258,268756,5,12,0:0:0:0:
277,128,268901,1,10,0:0:0:0:
263,176,268973,1,0,0:0:0:0:
273,226,269045,1,8,0:0:0:0:
364,360,269189,5,12,0:0:0:0:
314,368,269261,1,0,0:0:0:0:
265,355,269333,1,8,0:0:0:0:
227,322,269405,1,0,0:0:0:0:
207,275,269477,5,12,0:0:0:0:
158,286,269549,1,0,0:0:0:0:
116,260,269621,1,8,0:0:0:0:
104,212,269693,1,0,0:0:0:0:
129,169,269765,2,0,P|211:186|206:277,1,191.250007295609,14|0,0:0|0:0,0:0:0:0:
92,351,270054,5,10,0:0:0:0:
151,110,270198,2,0,P|171:206|128:270,1,127.500004863739,10|0,0:0|0:0,0:0:0:0:
14,289,270487,5,12,0:0:0:0:
103,37,270631,1,10,0:0:0:0:
276,240,270775,1,8,0:0:0:0:
260,72,270919,5,12,0:0:0:0:
260,72,271064,1,8,0:0:0:0:
462,227,271208,5,12,0:0:0:0:
260,72,271352,1,8,0:0:0:0:
501,278,271497,5,14,0:0:0:0:
188,317,271641,1,0,0:0:0:0:
114,149,271785,6,0,P|146:112|188:103,2,85.0000032424928,14|0|0,0:1|0:0|0:0,0:0:0:0:
203,14,272073,6,0,P|244:40|261:78,2,85.0000032424928,10|0|0,0:0|0:0|0:0,0:0:0:0:
332,102,272362,6,0,P|372:115|398:149,2,85.0000032424928,10|0|0,0:0|0:0|0:0,0:0:0:0:
114,235,272650,6,0,P|146:272|188:281,2,85.0000032424928,14|0|0,0:1|0:0|0:0,0:0:0:0:
203,370,272938,6,0,P|244:344|261:306,2,85.0000032424928,10|0|0,0:0|0:0|0:0,0:0:0:0:
332,281,273227,6,0,P|372:268|398:235,2,85.0000032424928,10|0|0,0:0|0:0|0:0,0:0:0:0:
0,158,273515,6,0,P|32:121|74:112,2,85.0000032424928,14|0|0,0:1|0:0|0:0,0:0:0:0:
203,14,273803,6,0,P|244:40|261:78,2,85.0000032424928,10|0|0,0:0|0:0|0:0,0:0:0:0:
446,111,274092,6,0,P|486:124|512:158,2,85.0000032424928,10|0|0,0:0|0:0|0:0,0:0:0:0:
306,298,274381,5,14,0:1:0:0:
256,308,274477,1,8,0:0:0:0:
206,301,274573,1,8,0:0:0:0:
162,276,274669,5,10,0:0:0:0:
129,237,274765,1,8,0:0:0:0:
112,189,274861,1,8,0:0:0:0:
114,138,274957,5,10,0:0:0:0:
133,91,275054,1,8,0:0:0:0:
168,54,275150,1,8,0:0:0:0:
214,32,275246,5,14,0:0:0:0:
297,206,275390,1,0,0:0:0:0:
103,148,275535,1,10,0:0:0:0:
265,91,275679,5,10,0:0:0:0:
242,280,275823,1,0,0:0:0:0:
103,148,275967,1,10,0:0:0:0:
190,337,276112,5,10,0:0:0:0:
73,185,276256,1,0,0:0:0:0:
242,280,276400,1,10,0:0:0:0:
88,334,276544,5,10,0:0:0:0:
205,182,276688,1,0,0:0:0:0:
190,337,276832,1,10,0:0:0:0:
157,54,276977,5,14,0:0:0:0:
346,80,277121,2,0,P|437:140|450:181,1,127.500004863739,10|0,0:0|0:0,0:0:0:0:
256,200,277410,5,10,0:0:0:0:
157,54,277554,2,0,P|65:114|52:155,1,127.500004863739,10|0,0:0|0:0,0:0:0:0:
53,240,277842,5,12,0:0:0:0:
93,257,277914,1,0,0:0:0:0:
137,264,277986,1,8,0:0:0:0:
181,260,278058,1,0,0:0:0:0:
223,244,278131,5,12,0:0:0:0:
188,200,278203,1,0,0:0:0:0:
182,144,278275,1,8,0:0:0:0:
206,92,278347,1,0,0:0:0:0:
253,61,278419,6,0,P|324:126|312:254,1,191.250007295609,14|0,0:0|0:0,0:0:0:0:
222,295,278708,5,4,3:2:0:0:
138,76,278853,1,0,3:2:0:0:
138,76,279141,5,0,3:2:0:0:
327,96,279285,1,0,3:2:0:0:
307,285,279429,1,0,3:2:0:0:
223,180,279574,5,8,3:3:0:0:
118,265,279718,2,0,L|259:302,1,127.500004863739,8|8,3:3|3:3,0:0:0:0:
189,57,280006,2,0,L|226:199,1,127.500004863739,0|8,3:3|3:3,0:0:0:0:
241,297,280439,5,4,3:2:0:0:
325,78,280584,1,0,3:2:0:0:
325,78,280872,5,0,3:2:0:0:
136,98,281016,1,0,3:2:0:0:
156,287,281160,1,0,3:2:0:0:
240,182,281305,5,8,3:3:0:0:
345,267,281449,2,0,L|203:304,1,127.500004863739,8|8,3:3|3:3,0:0:0:0:
274,59,281737,5,8,3:3:0:0:
240,183,281881,1,8,3:3:0:0:
130,292,282170,5,0,3:2:0:0:
256,192,282241,12,0,300126,0:0:0:0:
