osu file format v14

[General]
AudioFilename: audio.mp3
AudioLeadIn: 0
PreviewTime: 103577
Countdown: 0
SampleSet: Soft
StackLeniency: 0.3
Mode: 0
LetterboxInBreaks: 0
WidescreenStoryboard: 0

[Editor]
DistanceSpacing: 0.6
BeatDivisor: 4
GridSize: 16
TimelineZoom: 2.64

[Metadata]
Title:If
TitleUnicode:If
Artist:Hanatan
ArtistUnicode:花たん
Creator:jimmy55555
Version:Unattainable ifs
Source:
Tags:YURiCa FLOWER ユリカ yurika 無力p muryokup vocaloid 巡音 Megurine Luka めぐりね ルカ
BeatmapID:1773576
BeatmapSetID:848121

[Difficulty]
HPDrainRate:3.5
CircleSize:4.1
OverallDifficulty:8.2
ApproachRate:9.6
SliderMultiplier:2.4
SliderTickRate:2

[Events]
//Background and Video events
0,0,"if(16bit).png",0,0
//Break Periods
//Storyboard Layer 0 (Background)
//Storyboard Layer 1 (Fail)
//Storyboard Layer 2 (Pass)
//Storyboard Layer 3 (Foreground)
//Storyboard Sound Samples

[TimingPoints]
174,504.201680672269,3,2,2,12,1,0
714,576.923076923077,3,2,2,12,1,0
1294,560.747663551402,3,2,2,12,1,0
2157,576.923076923077,3,2,2,12,1,0
3017,576.923076923077,3,2,2,12,1,0
3017,-125,3,2,2,12,0,0
3593,576.923076923077,3,2,2,12,1,0
4458,545.454545454546,3,2,2,12,1,0
4458,-125,3,2,2,12,0,0
4746,576.923076923077,3,2,2,12,1,0
5908,571.428571428571,3,2,2,12,1,0
7067,555.555555555556,3,2,2,12,1,0
7638,571.428571428571,3,2,2,12,1,0
9075,588.235294117647,3,2,2,12,1,0
9955,555.555555555556,3,2,2,12,1,0
9955,-125,3,2,2,12,0,0
10529,576.923076923077,3,2,2,12,1,0
10529,-125,3,2,2,12,0,0
11968,576.923076923077,3,2,2,12,1,0
13121,598.802395209581,3,2,2,12,1,0
13121,-100,3,2,2,12,0,0
14017,576.923076923077,3,2,1,65,1,0
14017,-71.4285714285714,3,2,1,65,0,0
20074,-1000,3,2,1,65,0,0
20940,-64.5161290322581,3,2,1,80,0,1
45170,573.613766730402,3,2,1,70,1,0
45170,-74.0740740740741,3,2,1,70,0,0
48611,580.27079303675,3,2,1,70,1,1
48611,-71.4285714285714,3,2,1,70,0,1
51222,579.710144927536,3,2,1,70,1,1
51222,-71.4285714285714,3,2,1,70,0,1
52092,573.613766730402,3,2,1,70,1,0
52092,-74.0740740740741,3,2,1,70,0,0
55532,580.27079303675,3,2,1,70,1,1
55532,-71.4285714285714,3,2,1,70,0,1
58143,579.710144927536,3,2,1,70,1,1
58143,-71.4285714285714,3,2,1,70,0,1
59004,1090.90909090909,3,2,2,18,1,0
59004,-71.4285714285714,3,2,2,18,0,0
59822,1224.48979591837,3,2,2,18,1,0
59822,-69.9300699300699,3,2,2,18,0,0
60422,1170.73170731707,3,2,2,18,1,0
60422,-70.4225352112676,3,2,2,18,0,0
60713,1165.04854368932,3,2,2,18,1,0
60713,-70.4225352112676,3,2,2,18,0,0
61575,1142.85714285714,3,2,2,18,1,0
61575,-70.9219858156028,3,2,2,18,0,0
62472,576.923076923077,3,2,1,40,1,0
62472,-100,3,2,1,40,0,0
90164,-86.9565217391304,3,2,4,50,0,0
102279,-71.4285714285714,3,2,1,70,0,0
104010,-64.5161290322581,3,2,1,80,0,1
128241,1111.11111111111,3,2,2,20,1,0
128241,-62.8930817610063,3,2,2,20,0,0
128519,1200,3,2,2,20,1,0
128519,-62.111801242236,3,2,2,20,0,0
128819,975.609756097561,3,2,2,20,1,0
128819,-65.359477124183,3,2,2,20,0,0
129062,1363.63636363636,3,2,2,20,1,0
129062,-60.9756097560976,3,2,2,20,0,0
129404,888.888888888889,3,2,2,20,1,0
129404,-66.6666666666667,3,2,2,20,0,0
129682,1081.08108108108,3,2,2,20,1,0
129682,-63.6942675159236,3,2,2,20,0,0
129952,1090.90909090909,3,2,2,20,1,0
129952,-62.8930817610063,3,2,2,20,0,0
130224,1311.47540983607,3,2,2,20,1,0
130224,-61.3496932515337,3,2,2,20,0,0
130553,1043.47826086957,3,2,2,20,1,0
130553,-63.6942675159236,3,2,2,20,0,0
130813,1276.59574468085,3,2,2,20,1,0
130813,-61.7283950617284,3,2,2,20,0,0
131132,1132.07547169811,3,2,2,20,1,0
131132,-62.5,3,2,2,20,0,0
131351,1481.48148148148,3,2,2,20,1,0
131351,-60.2409638554217,3,2,2,20,0,0
131673,1111.11111111111,3,2,2,20,1,0
131673,-62.8930817610063,3,2,2,20,0,0
131950,1403.50877192982,3,2,2,20,1,0
131950,-60.6060606060606,3,2,2,20,0,0
132233,1132.07547169811,3,2,2,20,1,0
132233,-62.5,3,2,2,20,0,0
132516,1200,3,2,2,20,1,0
132516,-62.111801242236,3,2,2,20,0,0
133116,1034.48275862069,3,2,2,20,1,0
133116,-63.6942675159236,3,2,2,20,0,0
133374,1250,3,2,2,20,1,0
133374,-61.7283950617284,3,2,2,20,0,0
133971,1200,3,2,2,20,1,0
133971,-62.111801242236,3,2,2,20,0,0
134271,1153.84615384615,3,2,2,20,1,0
134271,-62.5,3,2,2,20,0,0
134847,1224.48979591837,3,2,2,20,1,0
134847,-62.111801242236,3,2,2,20,0,0
135155,576.923076923077,3,2,1,70,1,0
135155,-71.4285714285714,3,2,1,70,0,0
137751,-68.9655172413793,3,2,1,70,0,0
139481,-66.6666666666667,3,2,1,70,0,0
142078,-66.6666666666667,3,2,1,70,0,1
155924,-58.8235294117647,3,2,1,85,0,1
159385,-57.1428571428571,3,2,1,85,0,1
161116,-54.054054054054,3,2,1,90,0,1
161981,-50,3,2,1,100,0,1
162847,563.380281690141,3,2,2,20,1,0
162847,-142.857142857143,3,2,2,20,0,0
166160,600,3,2,1,20,1,0
166310,576.368876080692,3,2,1,80,1,0
166310,-71.4285714285714,3,2,1,80,0,0
169768,577.478344562079,3,2,1,80,1,1
169768,-66.6666666666667,3,2,1,80,0,1
173232,576.368876080692,3,2,1,80,1,0
173232,-71.4285714285714,3,2,1,80,0,0
176690,577.478344562079,3,2,1,80,1,1
176690,-66.6666666666667,3,2,1,80,0,1
180154,-62.5,3,2,1,80,0,1
181021,-60.6060606060606,3,2,1,80,0,1
181887,-54.054054054054,3,2,1,80,0,1
182753,-52.6315789473684,3,2,1,80,0,1
183331,-50,3,2,1,100,0,1
183619,1102.94117647059,3,2,1,100,1,0
183619,-83.3333333333333,3,2,1,100,0,0
184722,1200,4,2,2,15,1,0
184722,-81.9672131147541,4,2,2,15,0,0
185922,1290.32258064516,4,2,2,15,1,0
185922,-80.6451612903226,4,2,2,15,0,0
187212,1428.57142857143,4,2,2,15,1,0
187212,-80,4,2,2,15,0,0
187569,716.845878136201,3,2,2,15,1,0
187569,-100,3,2,2,15,0,0
188285,618.556701030928,3,2,2,15,1,0
188285,-96.1538461538461,3,2,2,15,0,0
188594,681.818181818182,3,2,2,15,1,0
188594,-98.0392156862745,3,2,2,15,0,0
189275,670.391061452514,3,2,2,15,1,0
189275,-97.0873786407767,3,2,2,15,0,0
190950,-111.111111111111,3,2,2,15,0,0
191286,895.522388059701,3,2,2,15,1,0
191286,-125,3,2,2,15,0,0
191733,800,3,2,2,15,1,0
191733,-142.857142857143,3,2,2,15,0,0
192133,1052.63157894737,3,2,2,15,1,0
192133,-138.888888888889,3,2,2,15,0,0
192659,779.220779220779,3,2,2,15,1,0
192659,-166.666666666667,3,2,2,15,0,0
192853,742.574257425743,3,2,2,15,1,0
192853,-172.413793103448,3,2,2,15,0,0
193595,969.305331179321,3,2,2,12,1,0
193595,-161.290322580645,3,2,2,12,0,0
195050,1472.39263803681,3,2,2,10,1,0
195050,-111.111111111111,3,2,2,10,0,0
197258,1626.67751118341,3,2,2,20,1,0
197258,-109.89010989011,3,2,2,20,0,0
202138,674.157303370787,3,2,2,16,1,0
202138,-200,3,2,2,16,0,0
202836,612.244897959184,3,2,2,16,1,0
202836,-125,3,2,2,16,0,0
216585,408.163265306122,3,2,2,16,1,0
216585,-187.500000001172,3,2,2,16,0,0
216611,612.244897959184,3,2,2,16,1,0
216611,-125,3,2,2,16,0,0
217529,612.244897959184,3,2,2,16,1,0
217529,-125,3,2,2,16,0,0
226713,605.143721633888,3,2,2,16,1,0
226713,-125,3,2,2,16,0,0
227620,631.578947368421,3,2,2,20,1,0
228568,576.923076923077,3,2,1,75,1,0
228568,-64.5161290322581,3,2,1,75,0,0
230298,-57.1428571428571,3,2,1,90,0,1
254493,-57.1428571428571,3,2,1,90,0,0
254529,-54.054054054054,3,2,1,100,0,1
254565,-54.054054054054,3,2,1,90,0,1
255539,-54.054054054054,3,2,10,90,0,1
255683,-54.054054054054,3,2,1,90,0,1
255827,-54.054054054054,3,2,10,90,0,1
255971,-54.054054054054,3,2,1,90,0,1
257269,-54.054054054054,3,2,10,90,0,1
257414,-54.054054054054,3,2,1,90,0,1
257558,-54.054054054054,3,2,10,90,0,1
257702,-54.054054054054,3,2,1,90,0,1
259000,-54.054054054054,3,2,10,91,0,1
259144,-54.054054054054,3,2,1,92,0,1
259289,-54.054054054054,3,2,10,93,0,1
259433,-54.054054054054,3,2,1,94,0,1
259577,-54.054054054054,3,2,10,95,0,1
259866,-54.054054054054,3,2,1,94,0,1
260010,-54.054054054054,3,2,10,93,0,1
260154,-54.054054054054,3,2,1,92,0,1
260298,-54.054054054054,3,2,10,91,0,1
260442,-54.054054054054,3,2,1,90,0,1
260587,-54.054054054054,3,2,10,90,0,1
260659,-54.054054054054,3,2,1,90,0,1
260875,-54.054054054054,3,2,10,90,0,1
260947,-54.054054054054,3,2,1,90,0,1
262462,-54.054054054054,3,2,10,90,0,1
262606,-54.054054054054,3,2,1,90,0,1
262750,-54.054054054054,3,2,10,90,0,1
262822,-54.054054054054,3,2,1,90,0,1
264192,-54.054054054054,3,2,10,90,0,1
264265,-54.054054054054,3,2,1,90,0,1
264481,-54.054054054054,3,2,10,90,0,1
264625,-47.6190476190476,3,2,1,100,0,1
264914,-52.6315789473684,3,2,1,92,0,1
265923,-52.6315789473684,3,2,10,93,0,1
266067,-52.6315789473684,3,2,1,94,0,1
266212,-52.6315789473684,3,2,10,96,0,1
266356,-52.6315789473684,3,2,1,98,0,1
266500,-52.6315789473684,3,2,10,100,0,1
266789,-52.6315789473684,3,2,1,98,0,1
266933,-52.6315789473684,3,2,10,96,0,1
267077,-52.6315789473684,3,2,1,94,0,1
267221,-52.6315789473684,3,2,10,93,0,1
267366,-52.6315789473684,3,2,1,92,0,1
267510,-52.6315789473684,3,2,10,92,0,1
267654,-52.6315789473684,3,2,1,92,0,1
267798,-52.6315789473684,3,2,10,92,0,1
267942,-52.6315789473684,3,2,1,92,0,1
268087,-54.054054054054,3,2,1,90,0,1
269385,-54.054054054054,3,3,10,90,0,1
269457,-54.054054054054,3,2,1,90,0,1
269673,-54.054054054054,3,2,10,90,0,1
269817,-54.054054054054,3,2,1,90,0,1
269962,-54.054054054054,3,2,10,90,0,1
270106,-54.054054054054,3,2,1,90,0,1
270827,-54.054054054054,3,2,10,90,0,1
270971,-54.054054054054,3,2,1,90,0,1
271116,-54.054054054054,3,2,10,90,0,1
271260,-54.054054054054,3,2,1,90,0,1
271404,-54.054054054054,3,2,10,90,0,1
271548,-54.054054054054,3,2,1,90,0,1
271837,631.578947368421,3,2,1,90,1,1
271837,-54.054054054054,3,2,1,90,0,1
271995,-54.054054054054,3,2,10,90,0,1
272125,576.923076923077,3,2,1,90,1,1
272125,-54.054054054054,3,2,1,90,0,1
272701,638.297872340426,3,2,1,90,1,1
272701,-54.054054054054,3,2,1,90,0,1
272860,-54.054054054054,3,2,10,90,0,1
272990,576.923076923077,3,2,1,90,1,1
272990,-54.054054054054,3,2,1,90,0,1
273566,697.674418604651,3,2,1,100,1,1
273566,-54.054054054054,3,2,1,100,0,1
273741,-54.054054054054,3,2,10,100,0,1
273847,652.173913043478,3,2,1,100,1,1
273847,-52.6315789473684,3,2,1,100,0,1
274009,-54.054054054054,3,2,10,100,0,1
274124,697.674418604651,3,2,1,100,1,1
274124,-54.054054054054,3,2,1,100,0,1
274298,-54.054054054054,3,2,10,100,0,1
274433,576.923076923077,3,2,1,95,1,1
274433,-58.8235294117647,3,2,1,95,0,1
275298,-62.5,3,2,10,90,0,1
275442,-62.5,3,2,1,90,0,1
276164,-62.5,3,2,10,90,0,1
276308,-62.5,3,2,1,90,0,1
277462,-62.5,3,2,10,90,0,1
277606,-62.5,3,2,1,90,0,1
278760,-66.6666666666667,3,2,1,90,0,1
282221,594.795539033457,3,2,1,90,1,0
282221,-200,3,2,1,90,0,0
282295,-200,3,2,1,16,0,0
284748,-200,3,2,22,5,0,0
284900,547.945205479452,3,2,1,13,1,0
284900,-250,3,2,1,13,0,0
285584,-250,3,2,22,5,0,0
285723,625,3,2,1,10,1,0
285723,-263.157894736842,3,2,1,10,0,0
286504,-263.157894736842,3,2,22,5,0,0
286661,518.358531317495,3,2,1,10,1,0
286661,-250,3,2,1,10,0,0
286790,-250,3,2,1,10,0,0
288216,588.235294117647,3,2,1,10,1,0
288216,-166.666666666667,3,2,1,10,0,0
290863,600,3,2,1,10,1,0
290863,-151.515151515152,3,2,1,10,0,0
291763,535.714285714286,3,2,1,10,1,0
291763,-136.986301369863,3,2,1,10,0,0
292298,571.428571428571,3,2,1,10,1,0
292298,-125,3,2,1,10,0,0
292869,576.923076923077,3,2,2,18,1,0
292869,-111.111111111111,3,2,2,18,0,0
295248,-111.111111111111,3,2,1,5,0,0

[Colours]
Combo1 : 255,40,40
Combo2 : 162,162,162
Combo3 : 201,180,201
Combo4 : 255,181,255
Combo5 : 239,114,176
Combo6 : 190,125,255
Combo7 : 189,56,239
Combo8 : 254,41,174
SliderBorder : 255,255,255
SliderTrackOverride : 0,0,0

[HitObjects]
464,240,174,5,0,0:2:0:0:
435,154,426,1,2,0:2:0:0:
362,73,714,1,0,0:2:0:0:
256,32,1002,1,0,0:2:0:0:
347,208,1294,1,2,0:2:0:0:
146,160,1574,1,0,0:2:0:0:
347,208,2157,5,2,0:2:0:0:
146,160,2445,1,0,0:2:0:0:
347,208,3017,1,2,0:2:0:0:
288,123,3305,2,0,L|235:119,1,48,2|0,0:2|0:2,0:2:0:0:
146,160,3593,101,0,0:2:0:0:
179,246,3882,1,0,0:2:0:0:
155,344,4170,1,2,0:2:0:0:
262,298,4459,2,0,L|317:302,1,48,0|0,0:2|0:2,0:2:0:0:
179,246,5034,1,2,0:2:0:0:
380,198,5322,1,0,0:2:0:0:
380,198,5908,5,0,0:2:0:0:
179,246,6193,1,2,0:2:0:0:
380,198,6479,1,0,0:2:0:0:
127,157,6765,1,2,0:2:0:0:
269,301,7067,101,0,0:2:0:0:
273,208,7344,1,2,0:2:0:0:
333,120,7638,1,0,0:2:0:0:
454,77,7924,1,0,0:2:0:0:
257,54,8209,1,2,0:2:0:0:
384,215,8495,1,0,0:2:0:0:
257,54,9075,5,2,0:2:0:0:
384,215,9369,1,0,0:2:0:0:
257,54,9955,1,2,0:2:0:0:
201,152,10232,2,0,L|206:205,1,48,2|0,0:2|0:2,0:2:0:0:
275,277,10529,101,0,0:2:0:0:
366,248,10817,1,0,0:2:0:0:
424,163,11105,1,2,0:2:0:0:
463,266,11394,2,0,L|459:314,1,48,0|0,0:2|0:2,0:2:0:0:
275,303,11968,5,2,0:2:0:0:
424,163,12256,1,0,0:2:0:0:
424,163,12833,1,0,0:2:0:0:
275,303,13121,1,2,0:2:0:0:
425,290,13869,38,0,L|430:234,1,45,0|0,0:2|0:2,0:2:0:0:
448,202,14017,86,0,L|272:217,1,167.999994873047,6|0,0:2|0:2,0:2:0:0:
353,78,14449,1,2,0:2:0:0:
281,216,14593,1,8,0:2:0:0:
184,165,14738,1,2,0:2:0:0:
353,78,14882,2,0,P|400:96|434:138,1,83.9999974365235,8|2,0:2|0:2,0:2:0:0:
184,165,15170,2,0,P|136:146|102:104,1,83.9999974365235,8|2,0:2|0:2,0:2:0:0:
353,78,15459,1,8,0:2:0:0:
92,308,15747,22,0,L|269:323,1,167.999994873047,6|0,0:2|0:2,0:2:0:0:
100,354,16180,1,2,0:2:0:0:
72,197,16324,1,8,0:2:0:0:
180,177,16468,1,2,0:2:0:0:
100,354,16613,2,0,P|72:369|16:367,1,83.9999974365235,8|2,0:2|0:2,0:2:0:0:
180,177,16901,2,0,P|207:161|263:163,1,83.9999974365235,8|2,0:2|0:2,0:2:0:0:
100,354,17190,1,8,0:2:0:0:
411,264,17478,86,0,L|224:280,1,167.999994873047,6|0,0:2|0:2,0:2:0:0:
433,223,17911,1,2,0:2:0:0:
361,363,18055,1,8,0:2:0:0:
262,311,18199,1,2,0:2:0:0:
433,223,18343,2,0,P|468:228|514:260,1,83.9999974365235,8|2,0:2|0:2,0:2:0:0:
262,311,18632,2,0,P|226:305|180:273,1,83.9999974365235,8|2,0:2|0:2,0:2:0:0:
433,223,18920,1,8,0:2:0:0:
81,223,19209,22,0,L|257:238,1,167.999994873047,6|0,0:2|0:2,0:2:0:0:
61,178,19642,1,2,0:2:0:0:
123,327,19786,1,8,0:2:0:0:
229,281,19930,1,2,0:2:0:0:
81,223,20074,86,0,L|81:247,1,24,0|0,0:2|0:2,0:2:0:0:
139,122,20940,38,0,P|216:78|341:102,1,186.000001419067,6|0,0:2|0:2,0:2:0:0:
391,335,21372,2,0,P|347:347|275:327,1,93.0000007095337,2|0,0:2|0:2,0:2:0:0:
454,234,21661,1,2,0:2:0:0:
272,361,21805,2,0,P|230:333|203:283,1,93.0000007095337,10|0,0:2|0:2,0:2:0:0:
391,335,22093,2,0,P|347:347|275:327,1,93.0000007095337,2|0,0:2|0:2,0:2:0:0:
454,234,22382,2,0,P|428:284|374:309,1,93.0000007095337,2|0,0:2|0:2,0:2:0:0:
422,61,22670,102,0,P|457:18|512:7,1,93.0000007095337,6|2,0:2|0:2,0:2:0:0:
454,234,22959,1,0,0:2:0:0:
316,128,23103,2,0,P|306:79|330:24,1,93.0000007095337,2|0,0:2|0:2,0:2:0:0:
445,194,23392,1,2,0:2:0:0:
204,112,23536,2,0,B|158:154|161:223|161:223|130:193|133:155,1,186.000001419067,8|2,0:2|0:2,0:2:0:0:
445,194,24113,1,8,0:2:0:0:
467,97,24257,1,2,0:2:0:0:
350,223,24401,6,0,B|372:289|442:296|442:296|466:322|460:361,1,186.000001419067,4|0,0:2|0:2,0:2:0:0:
244,290,24834,2,0,P|241:235|266:191,1,93.0000007095337,2|0,0:2|0:2,0:2:0:0:
371,319,25122,1,2,0:2:0:0:
199,366,25267,2,0,P|155:333|136:272,1,93.0000007095337,8|0,0:2|0:2,0:2:0:0:
283,317,25555,1,2,0:2:0:0:
199,366,25699,1,2,0:2:0:0:
201,214,25843,2,0,B|218:205|239:206|239:206|209:157|141:161,1,139.500001064301,8|0,0:2|0:2,0:2:0:0:
111,269,26132,102,0,P|144:305|194:321,1,93.0000007095337,6|2,0:2|0:2,0:2:0:0:
176,110,26420,1,0,0:2:0:0:
31,201,26565,2,0,P|8:248|13:306,1,93.0000007095337,2|0,0:2|0:2,0:2:0:0:
201,214,26853,1,2,0:2:0:0:
31,201,26997,5,8,0:2:0:0:
111,269,27142,1,2,0:2:0:0:
176,110,27286,1,8,0:2:0:0:
201,214,27430,1,2,0:2:0:0:
70,103,27574,1,8,0:2:0:0:
235,21,27718,1,8,0:2:0:0:
201,214,27863,102,0,P|249:290|339:319,1,186.000001419067,4|0,0:2|0:2,0:2:0:0:
263,125,28295,2,0,P|221:105|175:109,1,93.0000007095337,2|0,0:2|0:2,0:2:0:0:
282,262,28584,1,2,0:2:0:0:
363,99,28728,2,0,P|407:72|462:77,1,93.0000007095337,8|0,0:2|0:2,0:2:0:0:
366,234,29017,2,0,P|322:261|267:256,1,93.0000007095337,2|0,0:2|0:2,0:2:0:0:
458,209,29305,2,0,P|459:260|427:305,1,93.0000007095337,2|0,0:2|0:2,0:2:0:0:
271,124,29593,6,0,P|269:72|301:27,1,93.0000007095337,6|0,0:2|0:2,0:2:0:0:
363,190,29882,1,0,0:2:0:0:
167,170,30026,2,0,P|140:125|145:71,1,93.0000007095337,2|0,0:2|0:2,0:2:0:0:
271,124,30315,1,2,0:2:0:0:
236,246,30459,2,0,P|192:272|137:268,1,93.0000007095337,8|0,0:2|0:2,0:2:0:0:
327,313,30747,2,0,P|302:358|252:381,1,93.0000007095337,8|0,0:2|0:2,0:2:0:0:
236,246,31036,1,8,0:2:0:0:
327,313,31180,1,2,0:2:0:0:
151,272,31324,101,6,0:2:0:0:
301,180,31468,1,8,0:2:0:0:
327,313,31613,1,0,0:2:0:0:
198,269,31757,1,2,0:2:0:0:
377,249,31901,1,0,0:2:0:0:
339,357,32045,1,2,0:2:0:0:
275,253,32190,5,8,0:2:0:0:
249,332,32334,1,0,0:2:0:0:
182,257,32478,101,2,0:2:0:0:
167,307,32622,1,2,0:2:0:0:
97,260,32767,5,8,0:2:0:0:
91,284,32911,1,0,0:2:0:0:
22,264,33055,101,12,0:2:0:0:
67,371,33199,1,2,0:2:0:0:
366,140,33488,5,12,0:2:0:0:
326,270,33632,1,2,0:2:0:0:
36,72,33920,101,12,0:2:0:0:
83,178,34065,1,2,0:2:0:0:
212,55,34209,1,8,0:2:0:0:
188,169,34353,1,2,0:2:0:0:
36,72,34497,2,0,P|20:143|62:223,1,139.500001064301,8|0,0:2|0:2,0:2:0:0:
188,169,34786,6,0,B|236:160|273:194|273:194|308:228|358:221,1,186.000001419067,4|0,0:2|0:2,0:2:0:0:
212,55,35218,2,0,L|230:161,1,93.0000007095337,2|0,0:2|0:2,0:2:0:0:
345,121,35507,1,2,0:2:0:0:
203,269,35651,2,0,L|219:360,1,93.0000007095337,8|0,0:2|0:2,0:2:0:0:
359,220,35940,2,0,L|350:320,1,93.0000007095337,2|0,0:2|0:2,0:2:0:0:
227,226,36228,2,0,L|186:92,1,139.500001064301,2|0,0:2|0:2,0:2:0:0:
307,31,36517,102,0,P|363:39|411:80,1,93.0000007095337,6|2,0:2|0:2,0:2:0:0:
359,220,36805,1,0,0:2:0:0:
221,114,36949,2,0,P|171:128|136:164,1,93.0000007095337,2|0,0:2|0:2,0:2:0:0:
343,174,37238,1,2,0:2:0:0:
129,40,37382,2,0,B|69:68|58:133|58:133|37:97|47:59,1,186.000001419067,8|2,0:2|0:2,0:2:0:0:
343,174,37959,1,8,0:2:0:0:
330,78,38103,1,2,0:2:0:0:
267,234,38247,6,0,B|307:285|375:268|375:268|341:298|343:348,1,186.000001419067,6|0,0:2|0:2,0:2:0:0:
431,185,38680,2,0,P|388:168|342:173,1,93.0000007095337,2|0,0:2|0:2,0:2:0:0:
464,287,38968,1,2,0:2:0:0:
267,234,39113,2,0,P|246:187|256:127,1,93.0000007095337,8|0,0:2|0:2,0:2:0:0:
431,185,39401,1,2,0:2:0:0:
344,295,39545,1,2,0:2:0:0:
341,116,39690,2,0,B|331:93|306:88|306:88|354:76|403:106,1,139.500001064301,8|0,0:2|0:2,0:2:0:0:
447,200,39978,102,0,P|446:257|486:304,1,93.0000007095337,6|2,0:2|0:2,0:2:0:0:
510,107,40267,1,0,0:2:0:0:
299,138,40411,2,0,P|268:176|261:237,1,93.0000007095337,2|0,0:2|0:2,0:2:0:0:
431,185,40699,1,2,0:2:0:0:
299,138,40843,5,8,0:2:0:0:
355,256,40988,1,2,0:2:0:0:
383,111,41132,1,8,0:2:0:0:
264,59,41276,1,2,0:2:0:0:
313,228,41420,1,8,0:2:0:0:
392,61,41565,1,8,0:2:0:0:
214,129,41709,102,0,B|164:126|136:84|136:84|109:42|59:40,1,186.000001419067,6|0,0:2|0:2,0:2:0:0:
203,229,42142,2,0,P|256:222|295:189,1,93.0000007095337,2|0,0:2|0:2,0:2:0:0:
187,89,42430,1,2,0:2:0:0:
115,264,42574,2,0,P|147:306|195:323,1,93.0000007095337,8|0,0:2|0:2,0:2:0:0:
40,205,42863,2,0,P|19:254|28:304,1,93.0000007095337,2|0,0:2|0:2,0:2:0:0:
133,151,43151,2,0,P|153:101|144:51,1,93.0000007095337,2|0,0:2|0:2,0:2:0:0:
203,229,43440,6,0,P|256:222|295:189,1,93.0000007095337,6|2,0:2|0:2,0:2:0:0:
133,151,43728,1,0,0:2:0:0:
366,146,43872,2,0,P|403:178|418:232,1,93.0000007095337,2|0,0:2|0:2,0:2:0:0:
203,229,44161,1,2,0:2:0:0:
381,238,44305,2,0,P|395:285|384:337,1,93.0000007095337,8|0,0:2|0:2,0:2:0:0:
284,92,44593,2,0,P|331:88|384:119,1,93.0000007095337,2|0,0:2|0:2,0:2:0:0:
203,229,44882,1,8,0:2:0:0:
264,139,45026,1,2,0:2:0:0:
243,293,45170,101,6,0:2:0:0:
163,165,45313,1,2,0:2:0:0:
163,165,45600,1,2,0:2:0:0:
203,229,45743,1,2,0:2:0:0:
243,293,45887,1,2,0:2:0:0:
163,165,46030,85,8,0:2:0:0:
132,362,46890,21,6,0:2:0:0:
203,229,47034,1,2,0:2:0:0:
203,229,47321,1,2,0:2:0:0:
168,296,47464,1,2,0:2:0:0:
132,362,47607,1,2,0:2:0:0:
203,229,47751,85,8,0:2:0:0:
111,139,48181,1,8,0:3:0:0:
123,162,48253,1,8,0:3:0:0:
134,183,48324,1,8,0:2:0:0:
146,206,48396,1,8,0:2:0:0:
158,228,48468,1,2,0:2:0:0:
169,250,48539,1,2,0:2:0:0:
180,272,48611,38,0,P|181:322|156:365,1,83.9999974365235,6|0,3:2|3:2,3:2:0:0:
83,295,48901,1,0,3:2:0:0:
256,212,49046,2,0,P|268:163|254:112,1,83.9999974365235,2|0,3:2|3:2,3:2:0:0:
168,161,49336,1,0,3:2:0:0:
264,326,49481,102,0,P|311:313|351:273,1,83.9999974365235,8|2,3:2|3:2,3:2:0:0:
352,143,49771,1,8,3:2:0:0:
331,145,49844,1,8,0:2:0:0:
312,151,49916,1,2,3:2:0:0:
293,162,49989,1,2,0:2:0:0:
278,176,50061,2,0,P|261:197|253:219,3,41.9999987182618,8|8|2|2,3:2|0:2|3:2|0:2,0:2:0:0:
361,254,50351,5,2,3:2:0:0:
447,129,50496,2,0,P|432:89|390:55,1,83.9999974365235,8|0,3:2|3:2,3:2:0:0:
361,254,50787,1,2,3:2:0:0:
295,118,50932,2,0,P|252:110|202:130,1,83.9999974365235,8|0,3:2|3:2,3:2:0:0:
272,318,51222,101,8,3:2:0:0:
328,150,51366,1,8,3:2:0:0:
184,252,51511,1,8,3:2:0:0:
361,254,51656,1,8,3:2:0:0:
218,148,51801,1,10,3:2:0:0:
272,318,51947,1,8,3:2:0:0:
328,150,52092,85,6,0:2:0:0:
189,216,52235,1,2,0:2:0:0:
189,216,52522,1,2,0:2:0:0:
258,183,52665,1,2,0:2:0:0:
328,150,52809,1,2,0:2:0:0:
189,216,52952,21,8,0:2:0:0:
169,353,53812,85,6,0:2:0:0:
29,291,53956,1,2,0:2:0:0:
29,291,54243,1,2,0:2:0:0:
100,321,54386,1,2,0:2:0:0:
169,353,54529,1,2,0:2:0:0:
29,291,54673,21,8,0:2:0:0:
235,205,55103,1,8,0:3:0:0:
228,181,55175,1,8,0:3:0:0:
222,156,55246,1,8,0:0:0:0:
215,132,55318,1,8,0:0:0:0:
209,108,55390,1,2,0:0:0:0:
202,84,55461,1,2,0:0:0:0:
196,59,55532,6,0,P|158:26|109:17,1,83.9999974365235,6|0,3:2|3:2,3:2:0:0:
118,113,55822,1,0,3:2:0:0:
307,63,55967,2,0,P|340:89|359:127,1,83.9999974365235,2|0,3:2|3:2,3:2:0:0:
257,158,56257,1,0,3:2:0:0:
338,23,56402,102,0,P|381:21|419:38,1,83.9999974365235,8|0,3:2|3:2,3:2:0:0:
440,181,56692,1,8,3:2:0:0:
426,197,56765,1,8,0:2:0:0:
410,210,56837,1,2,3:2:0:0:
391,219,56910,1,2,0:2:0:0:
370,223,56982,2,0,P|342:223|320:215,3,41.9999987182618,8|8|2|2,3:2|0:2|3:2|0:2,0:2:0:0:
358,125,57272,5,2,3:2:0:0:
228,219,57417,2,0,P|235:264|268:302,1,83.9999974365235,8|0,3:2|3:2,3:2:0:0:
358,125,57708,1,2,3:2:0:0:
199,125,57853,2,0,P|157:151|134:193,1,83.9999974365235,8|0,3:2|3:2,3:2:0:0:
329,220,58143,101,8,3:2:0:0:
279,68,58287,1,8,3:2:0:0:
228,219,58432,1,8,3:2:0:0:
358,125,58577,1,8,3:2:0:0:
199,125,58722,1,10,3:2:0:0:
329,220,58867,1,8,3:2:0:0:
243,54,59004,69,0,0:2:0:0:
243,54,59549,1,0,0:2:0:0:
168,203,60128,101,2,0:2:0:0:
243,54,60422,1,0,0:2:0:0:
168,203,60714,1,2,0:2:0:0:
243,54,61004,1,0,0:2:0:0:
243,54,61575,5,0,0:2:0:0:
168,203,61860,1,2,0:2:0:0:
243,54,62146,1,0,0:2:0:0:
168,203,62472,6,0,P|175:267|221:315,1,120,6|0,0:2|0:2,0:2:0:0:
247,149,62904,1,2,0:2:0:0:
163,107,63048,2,0,P|133:113|108:127,1,60,0|2,0:2|0:2,0:2:0:0:
243,54,63337,2,0,P|305:30|368:56,1,120,8|2,0:2|0:2,0:2:0:0:
354,323,63914,2,0,P|336:292|330:263,1,60,0|0,0:2|0:2,0:2:0:0:
373,187,64202,102,0,P|394:165|408:139,2,60,2|2|0,0:2|0:2|0:2,0:2:0:0:
277,189,64635,2,0,P|248:181|218:182,1,60,2|0,0:2|0:2,0:2:0:0:
330,268,64923,1,2,0:2:0:0:
319,104,65068,2,0,L|295:39,1,60,8|2,0:2|0:2,0:2:0:0:
217,83,65356,2,0,L|193:18,1,60,0|2,0:2|0:2,0:2:0:0:
141,149,65645,2,0,L|117:84,1,60,8|0,0:2|0:2,0:2:0:0:
65,215,65933,6,0,L|41:150,2,60,2|2|0,0:2|0:2|0:2,0:2:0:0:
160,246,66366,2,0,P|194:232|222:205,1,60,2|0,0:2|0:2,0:2:0:0:
141,149,66654,1,2,0:2:0:0:
94,312,66798,2,0,L|117:376,1,60,8|0,0:2|0:2,0:2:0:0:
160,246,67087,1,2,0:2:0:0:
343,102,67375,2,0,L|320:166,1,60,8|0,0:2|0:2,0:2:0:0:
277,36,67664,101,2,0:2:0:0:
409,168,67808,2,0,L|386:232,1,60,8|0,0:2|0:2,0:2:0:0:
343,102,68097,1,2,0:2:0:0:
475,234,68241,2,0,L|452:298,1,60,8|2,0:2|0:2,0:2:0:0:
359,313,68529,6,0,P|296:324|235:300,1,120,0|0,0:2|0:2,0:2:0:0:
176,222,68962,1,2,0:2:0:0:
307,206,69106,1,8,0:2:0:0:
244,306,69250,1,8,0:2:0:0:
234,153,69395,102,0,P|178:132|118:151,1,120,6|0,0:2|0:2,0:2:0:0:
176,222,69827,1,2,0:2:0:0:
307,206,69972,2,0,P|323:174|322:129,1,60,0|2,0:2|0:2,0:2:0:0:
438,228,70260,2,0,P|399:286|395:353,1,120,8|2,0:2|0:2,0:2:0:0:
421,117,70837,2,0,P|403:84|380:61,1,60,0|0,0:2|0:2,0:2:0:0:
251,91,71125,6,0,P|237:116|232:155,2,60,2|2|0,0:2|0:2|0:2,0:2:0:0:
325,150,71558,2,0,P|333:179|332:209,1,60,2|0,0:2|0:2,0:2:0:0:
253,261,71847,1,2,0:2:0:0:
419,233,71991,2,0,P|401:269|368:294,1,60,8|2,0:2|0:2,0:2:0:0:
253,261,72279,2,0,P|268:295|298:321,1,60,0|2,0:2|0:2,0:2:0:0:
325,150,72568,2,0,P|333:179|332:209,1,60,8|0,0:2|0:2,0:2:0:0:
210,125,72856,102,0,P|222:154|244:182,2,60,2|2|0,0:2|0:2|0:2,0:2:0:0:
153,43,73289,2,0,P|129:68|114:109,1,60,2|0,0:2|0:2,0:2:0:0:
210,125,73577,1,2,0:2:0:0:
22,96,73722,2,0,P|27:126|42:151,1,60,8|0,0:2|0:2,0:2:0:0:
133,188,74010,1,2,0:2:0:0:
407,116,74298,2,0,P|395:148|365:182,1,60,8|0,0:2|0:2,0:2:0:0:
314,100,74587,5,2,0:2:0:0:
443,237,74731,2,0,P|414:258|372:260,1,60,8|0,0:2|0:2,0:2:0:0:
380,168,75020,1,2,0:2:0:0:
375,353,75164,2,0,P|337:336|315:310,1,60,8|2,0:2|0:2,0:2:0:0:
268,212,75452,102,0,P|197:214|151:250,1,120,0|0,0:2|0:2,0:2:0:0:
248,363,75885,1,2,0:2:0:0:
268,212,76029,1,8,0:2:0:0:
161,326,76173,1,8,0:2:0:0:
324,323,76318,6,0,P|368:285|389:228,1,120,6|0,0:2|0:2,0:2:0:0:
368,103,76750,1,2,0:2:0:0:
278,154,76895,2,0,P|268:181|267:211,1,60,0|2,0:2|0:2,0:2:0:0:
165,135,77183,2,0,P|162:75|123:14,1,120,8|2,0:2|0:2,0:2:0:0:
129,302,77760,2,0,P|141:268|159:245,1,60,0|0,0:2|0:2,0:2:0:0:
283,302,78048,102,0,L|226:319,2,60,2|2|0,0:2|0:2|0:2,0:2:0:0:
213,232,78481,2,0,L|155:248,1,60,2|0,0:2|0:2,0:2:0:0:
283,302,78770,1,2,0:2:0:0:
299,174,78914,2,0,L|282:116,1,60,8|2,0:2|0:2,0:2:0:0:
196,174,79202,2,0,L|212:231,1,60,0|2,0:2|0:2,0:2:0:0:
93,174,79491,2,0,L|76:116,1,60,8|2,0:2|0:2,0:2:0:0:
143,45,79779,6,0,P|179:40|220:54,1,60,0|2,0:2|0:2,0:2:0:0:
341,116,80068,2,0,P|304:120|264:107,1,60,0|2,0:2|0:2,0:2:0:0:
402,48,80356,2,0,P|424:77|432:119,1,60,0|2,0:2|0:2,0:2:0:0:
330,315,80645,102,0,P|307:285|299:243,1,60,8|2,0:2|0:2,0:2:0:0:
391,247,80933,1,2,0:2:0:0:
201,44,81222,2,0,L|178:108,1,60,8|0,0:2|0:2,0:2:0:0:
109,2,81510,5,2,0:2:0:0:
88,142,81654,2,0,L|111:206,1,60,8|0,0:2|0:2,0:2:0:0:
180,100,81943,1,2,0:2:0:0:
200,240,82087,2,0,L|177:304,1,60,8|2,0:2|0:2,0:2:0:0:
284,194,82375,102,0,L|407:215,1,120,0|0,0:2|0:2,0:2:0:0:
418,69,82808,1,2,0:2:0:0:
284,194,82952,1,8,0:2:0:0:
402,214,83097,1,8,0:2:0:0:
327,90,83241,6,0,P|266:81|212:106,1,120,6|0,0:2|0:2,0:2:0:0:
284,194,83673,1,2,0:2:0:0:
171,209,83818,2,0,P|138:189|114:157,1,60,0|2,0:2|0:2,0:2:0:0:
15,277,84106,2,0,P|74:281|135:321,1,120,8|2,0:2|0:2,0:2:0:0:
354,323,84683,2,0,P|336:292|330:263,1,60,0|0,0:2|0:2,0:2:0:0:
441,206,84972,102,0,L|423:264,2,60,2|2|0,0:2|0:2|0:2,0:2:0:0:
369,134,85404,2,0,L|351:76,1,60,2|0,0:2|0:2,0:2:0:0:
245,46,85693,1,2,0:2:0:0:
197,183,85837,2,0,L|218:240,1,60,8|2,0:2|0:2,0:2:0:0:
306,277,86125,2,0,L|326:333,1,60,0|2,0:2|0:2,0:2:0:0:
441,206,86414,2,0,L|420:262,1,60,8|0,0:2|0:2,0:2:0:0:
369,134,86702,6,0,P|393:115|425:106,2,60,2|2|0,0:2|0:2|0:2,0:2:0:0:
271,161,87135,2,0,P|238:146|213:119,1,60,2|0,0:2|0:2,0:2:0:0:
297,62,87423,1,2,0:2:0:0:
344,233,87568,2,0,P|348:265|338:303,1,60,8|0,0:2|0:2,0:2:0:0:
245,260,87856,1,2,0:2:0:0:
53,94,88145,2,0,P|54:126|71:161,1,60,8|0,0:2|0:2,0:2:0:0:
160,64,88433,101,2,0:2:0:0:
154,183,88577,2,0,P|134:217|108:235,1,60,8|0,0:2|0:2,0:2:0:0:
64,151,88866,1,2,0:2:0:0:
39,282,89010,2,0,P|62:309|90:322,1,60,8|2,0:2|0:2,0:2:0:0:
204,267,89298,6,0,P|248:305|261:369,1,120,0|0,0:2|0:2,0:2:0:0:
83,320,89731,1,2,0:2:0:0:
154,183,89875,1,8,0:2:0:0:
168,355,90020,1,8,0:2:0:0:
71,229,90164,102,0,P|59:189|62:154,1,69.0000013160706,2|0,0:2|0:2,0:2:0:0:
176,84,90452,1,0,3:2:0:0:
178,101,90524,1,0,3:2:0:0:
178,119,90597,2,0,P|168:159|148:188,1,69.0000013160706,2|0,3:2|0:2,0:2:0:0:
71,229,90885,1,2,0:2:0:0:
178,119,91029,5,8,0:2:0:0:
326,361,91318,1,0,3:2:0:0:
327,343,91390,1,0,3:2:0:0:
332,327,91462,1,0,3:2:0:0:
340,311,91534,1,0,3:2:0:0:
350,297,91606,2,0,P|340:256|320:227,1,69.0000013160706,2|0,3:2|0:2,0:2:0:0:
206,199,91895,102,0,P|207:159|229:106,1,69.0000013160706,2|0,0:2|0:2,0:2:0:0:
376,45,92183,1,0,3:2:0:0:
392,51,92255,1,0,3:2:0:0:
406,61,92327,2,0,P|432:91|442:126,1,69.0000013160706,2|0,3:2|0:2,0:2:0:0:
352,133,92616,1,2,0:2:0:0:
216,132,92760,6,0,P|160:87|145:24,1,138.000002632141,8|0,0:2|0:2,0:2:0:0:
419,209,93337,1,8,0:2:0:0:
352,133,93481,1,2,0:2:0:0:
320,230,93625,102,0,P|339:272|372:300,1,69.0000013160706,0|0,0:2|0:2,0:2:0:0:
352,133,93914,1,0,3:2:0:0:
338,122,93986,1,0,3:2:0:0:
323,113,94058,2,0,P|273:103|228:116,1,69.0000013160706,2|0,3:2|0:2,0:2:0:0:
320,230,94347,1,2,0:2:0:0:
451,112,94491,5,8,0:2:0:0:
413,357,94779,1,0,3:2:0:0:
399,366,94851,1,0,3:2:0:0:
383,373,94923,1,0,3:2:0:0:
366,376,94996,1,0,3:2:0:0:
348,375,95068,2,0,P|316:354|272:350,1,69.0000013160706,0|0,3:2|0:2,0:2:0:0:
184,384,95356,101,2,0:2:0:0:
239,275,95500,1,0,3:2:0:0:
254,266,95572,1,0,3:2:0:0:
270,261,95645,1,0,3:2:0:0:
184,384,95789,2,0,P|150:377|122:357,1,69.0000013160706,0|0,0:2|0:2,0:2:0:0:
143,232,96077,1,2,0:2:0:0:
286,348,96222,6,0,P|327:329|353:290,1,69.0000013160706,8|0,0:2|0:2,0:2:0:0:
323,142,96510,2,0,P|341:174|341:219,1,69.0000013160706,0|0,0:2|0:2,0:2:0:0:
206,144,96798,2,0,P|221:174|247:196,1,69.0000013160706,0|0,0:2|0:2,0:2:0:0:
339,56,97087,102,0,P|358:89|355:142,1,69.0000013160706,2|0,0:2|0:2,0:2:0:0:
259,242,97375,1,0,3:2:0:0:
265,257,97447,1,0,3:2:0:0:
276,271,97520,2,0,P|310:293|367:296,1,69.0000013160706,2|0,3:2|0:2,0:2:0:0:
343,205,97808,1,0,0:2:0:0:
210,337,97952,5,8,0:2:0:0:
135,53,98241,1,0,3:2:0:0:
125,67,98313,1,0,3:2:0:0:
118,83,98385,1,0,3:2:0:0:
114,99,98457,1,0,3:2:0:0:
111,116,98529,2,0,P|114:154|132:189,1,69.0000013160706,0|0,3:2|0:2,0:2:0:0:
213,236,98818,101,2,0:2:0:0:
214,123,98962,1,0,3:2:0:0:
221,107,99034,1,0,3:2:0:0:
231,93,99106,1,0,3:2:0:0:
244,81,99178,1,0,3:2:0:0:
258,72,99250,2,0,P|298:60|343:68,1,69.0000013160706,2|0,3:2|0:2,0:2:0:0:
348,169,99539,1,2,0:2:0:0:
179,153,99683,6,0,P|146:88|156:21,1,138.000002632141,8|0,0:2|0:2,0:2:0:0:
380,272,100260,1,8,0:2:0:0:
275,249,100404,1,2,0:2:0:0:
348,169,100548,5,2,0:2:0:0:
288,122,102279,5,2,0:2:0:0:
444,141,102423,2,0,P|471:172|483:241,1,83.9999974365235,8|0,0:2|0:2,0:2:0:0:
300,213,102712,2,0,P|298:238|306:276,2,41.9999987182618,2|2|8,0:0|0:0|0:0,0:0:0:0:
439,95,103000,1,2,0:2:0:0:
439,230,103145,101,8,0:2:0:0:
435,250,103217,1,8,0:2:0:0:
427,269,103289,1,2,0:2:0:0:
414,286,103361,1,2,0:2:0:0:
398,300,103433,2,0,P|378:312|354:320,3,41.9999987182618,8|8|2|2,0:2|0:2|0:2|0:2,0:2:0:0:
368,147,103722,2,0,P|307:128|231:153,1,125.999996154785,8|0,0:2|0:2,0:2:0:0:
150,201,104010,22,0,P|199:121|302:103,1,186.000001419067,6|0,0:2|0:2,0:2:0:0:
123,242,104443,2,0,P|77:222|52:164,1,93.0000007095337,2|0,0:2|0:2,0:2:0:0:
248,141,104731,1,2,0:2:0:0:
197,318,104875,2,0,P|155:344|103:347,1,93.0000007095337,8|0,0:2|0:2,0:2:0:0:
267,234,105164,2,0,P|265:281|234:329,1,93.0000007095337,2|0,0:2|0:2,0:2:0:0:
153,123,105452,2,0,P|176:74|217:49,1,93.0000007095337,2|0,0:2|0:2,0:2:0:0:
197,318,105741,102,0,L|75:284,1,93.0000007095337,6|2,0:2|0:2,0:2:0:0:
194,146,106029,1,0,0:2:0:0:
320,277,106173,2,0,L|190:283,1,93.0000007095337,2|0,0:2|0:2,0:2:0:0:
194,146,106462,1,2,0:2:0:0:
355,309,106606,2,0,B|411:271|402:197|402:197|435:246,1,186.000001419067,8|2,0:2|0:2,0:2:0:0:
112,207,107183,1,8,0:2:0:0:
194,146,107327,1,2,0:2:0:0:
124,309,107472,6,0,B|89:287|82:236|82:236|88:218|88:218|84:172|34:136,1,186.000001419067,4|0,0:2|0:2,0:2:0:0:
205,247,107904,2,0,P|223:289|220:340,1,93.0000007095337,2|0,0:2|0:2,0:2:0:0:
112,207,108193,1,2,0:2:0:0:
258,365,108337,2,0,P|300:350|332:293,1,93.0000007095337,8|0,0:2|0:2,0:2:0:0:
236,233,108625,1,2,0:2:0:0:
221,335,108770,1,2,0:2:0:0:
341,280,108914,2,0,B|357:288|368:307|368:307|372:249|339:214,1,139.500001064301,8|0,0:2|0:2,0:2:0:0:
202,208,109202,102,0,P|206:158|239:112,1,93.0000007095337,6|2,0:2|0:2,0:2:0:0:
339,214,109491,1,0,0:2:0:0:
222,336,109635,2,0,P|175:318|136:268,1,93.0000007095337,2|0,0:2|0:2,0:2:0:0:
339,214,109923,1,2,0:2:0:0:
222,336,110068,5,8,0:2:0:0:
236,233,110212,1,2,0:2:0:0:
388,306,110356,1,8,0:2:0:0:
339,214,110500,1,2,0:2:0:0:
316,382,110645,1,8,0:2:0:0:
489,330,110789,1,8,0:2:0:0:
339,214,110933,102,0,P|329:125|382:43,1,186.000001419067,4|0,0:2|0:2,0:2:0:0:
204,133,111366,2,0,P|203:191|181:228,1,93.0000007095337,2|0,0:2|0:2,0:2:0:0:
113,82,111654,1,2,0:2:0:0:
212,262,111798,2,0,L|303:246,1,93.0000007095337,8|0,0:2|0:2,0:2:0:0:
169,351,112087,2,0,L|54:327,1,93.0000007095337,2|0,0:2|0:2,0:2:0:0:
301,294,112375,2,0,L|403:313,1,93.0000007095337,2|0,0:2|0:2,0:2:0:0:
239,176,112664,6,0,P|215:215|212:262,1,93.0000007095337,6|2,0:2|0:2,0:2:0:0:
347,153,112952,1,0,0:2:0:0:
171,240,113097,2,0,P|128:199|115:147,1,93.0000007095337,2|0,0:2|0:2,0:2:0:0:
303,245,113385,1,2,0:2:0:0:
128,120,113529,2,0,P|76:131|37:176,1,93.0000007095337,8|0,0:2|0:2,0:2:0:0:
211,261,113818,2,0,P|212:315|184:361,1,93.0000007095337,8|0,0:2|0:2,0:2:0:0:
31,198,114106,1,8,0:2:0:0:
171,240,114250,1,2,0:2:0:0:
34,321,114395,101,6,3:2:0:0:
116,168,114539,1,8,0:2:0:0:
173,286,114683,1,0,0:2:0:0:
74,183,114827,1,2,0:2:0:0:
211,261,114972,1,0,0:2:0:0:
90,273,115116,1,2,0:2:0:0:
232,185,115260,5,8,0:2:0:0:
146,194,115404,1,0,0:2:0:0:
250,116,115548,101,2,0:2:0:0:
196,122,115693,1,2,0:2:0:0:
266,55,115837,5,8,0:2:0:0:
240,58,115981,1,0,0:2:0:0:
283,5,116125,101,12,0:2:0:0:
329,115,116270,1,2,0:2:0:0:
463,343,116558,5,12,0:2:0:0:
512,223,116702,1,2,0:2:0:0:
210,99,116991,101,12,0:2:0:0:
256,209,117135,1,2,0:2:0:0:
395,85,117279,1,8,0:2:0:0:
367,201,117423,1,2,0:2:0:0:
210,99,117568,2,0,P|156:145|139:214,1,139.500001064301,8|0,0:2|0:2,0:2:0:0:
197,310,117856,6,0,B|263:315|263:315|314:303|314:303|380:309,1,186.000001419067,4|0,0:2|0:2,0:2:0:0:
214,210,118289,2,0,P|151:218|115:254,1,93.0000007095337,2|0,0:2|0:2,0:2:0:0:
268,353,118577,1,2,0:2:0:0:
330,167,118722,2,0,L|303:69,1,93.0000007095337,8|0,0:2|0:2,0:2:0:0:
395,265,119010,2,0,L|364:152,1,93.0000007095337,2|0,0:2|0:2,0:2:0:0:
268,353,119298,2,0,L|419:379,1,139.500001064301,2|0,0:2|0:2,0:2:0:0:
296,310,119587,102,0,L|195:327,1,93.0000007095337,6|2,0:2|0:2,0:2:0:0:
309,215,119875,1,0,0:2:0:0:
172,362,120020,2,0,L|57:341,1,93.0000007095337,2|0,0:2|0:2,0:2:0:0:
67,159,120308,1,2,0:2:0:0:
296,310,120452,2,0,B|365:317|400:251|400:251|387:317,1,186.000001419067,8|2,0:2|0:2,0:2:0:0:
159,204,121029,1,8,0:2:0:0:
75,261,121173,1,2,0:2:0:0:
151,102,121318,6,0,B|200:97|229:134|229:134|233:150|233:150|258:182|317:184,1,186.000001419067,6|0,0:2|0:2,0:2:0:0:
162,7,121750,2,0,P|115:12|79:40,1,93.0000007095337,2|0,0:2|0:2,0:2:0:0:
119,184,122039,1,2,0:2:0:0:
223,76,122183,2,0,P|272:63|322:79,1,93.0000007095337,8|0,0:2|0:2,0:2:0:0:
272,217,122472,1,2,0:2:0:0:
204,122,122616,1,2,0:2:0:0:
388,205,122760,2,0,B|392:223|388:246|388:246|428:205|413:147,1,139.500001064301,8|0,0:2|0:2,0:2:0:0:
493,220,123048,102,0,P|460:262|401:279,1,93.0000007095337,6|2,0:2|0:2,0:2:0:0:
454,127,123337,1,0,0:2:0:0:
388,307,123481,2,0,P|340:298|299:256,1,93.0000007095337,2|0,0:2|0:2,0:2:0:0:
331,122,123770,1,2,0:2:0:0:
424,277,123914,5,8,0:2:0:0:
302,225,124058,1,2,0:2:0:0:
493,220,124202,1,8,0:2:0:0:
470,351,124347,1,2,0:2:0:0:
378,203,124491,1,8,0:2:0:0:
512,336,124635,1,8,0:2:0:0:
307,269,124779,102,0,B|278:272|258:288|258:288|246:309|246:309|193:335|135:303,1,186.000001419067,6|0,0:2|0:2,0:2:0:0:
147,132,125212,2,0,P|180:167|190:239,1,93.0000007095337,2|0,0:2|0:2,0:2:0:0:
33,139,125500,1,2,0:2:0:0:
186,41,125645,2,0,P|231:47|270:72,1,93.0000007095337,8|0,0:2|0:2,0:2:0:0:
322,190,125933,2,0,P|374:194|418:163,1,93.0000007095337,2|0,0:2|0:2,0:2:0:0:
227,238,126222,2,0,P|264:278|323:292,1,93.0000007095337,2|0,0:2|0:2,0:2:0:0:
241,108,126510,6,0,P|190:103|144:126,1,93.0000007095337,6|2,0:2|0:2,0:2:0:0:
227,238,126798,1,0,0:2:0:0:
270,72,126943,2,0,P|231:47|186:41,1,93.0000007095337,2|0,0:2|0:2,0:2:0:0:
134,214,127231,1,2,0:2:0:0:
322,190,127375,2,0,P|360:150|373:105,1,93.0000007095337,8|0,0:2|0:2,0:2:0:0:
227,238,127664,2,0,P|263:280|307:297,1,93.0000007095337,2|0,0:2|0:2,0:2:0:0:
477,233,127952,1,8,0:2:0:0:
322,190,128097,1,2,0:2:0:0:
404,304,128241,53,0,0:2:0:0:
450,136,128519,1,2,0:2:0:0:
404,304,128819,1,0,0:2:0:0:
286,356,129062,1,0,0:2:0:0:
189,291,129404,2,0,L|185:242,1,45.5999994433594,0|0,0:2|0:2,0:2:0:0:
291,120,129682,1,2,0:2:0:0:
311,245,129952,101,0,0:2:0:0:
155,148,130224,1,2,0:2:0:0:
311,245,130553,1,0,0:2:0:0:
205,57,130813,1,2,0:2:0:0:
116,97,131132,2,0,L|111:150,1,48,0|0,0:2|0:2,0:2:0:0:
183,203,131351,2,0,L|189:272,1,49.8000007218933,0|0,0:2|0:2,0:2:0:0:
68,304,131673,5,2,0:2:0:0:
184,371,131950,2,0,L|233:366,1,49.5000004720688,0|0,0:2|0:2,0:2:0:0:
316,315,132233,1,0,0:2:0:0:
149,95,132516,1,2,0:2:0:0:
149,95,132816,1,2,0:2:0:0:
149,95,133116,1,2,0:2:0:0:
380,277,133374,101,0,0:2:0:0:
311,344,133686,2,0,L|263:340,1,48.6000011865235,0|0,0:2|0:2,0:2:0:0:
200,272,133971,2,0,L|143:276,1,48.3000000737,2|0,0:2|0:2,0:2:0:0:
77,337,134271,1,0,0:2:0:0:
165,36,134847,5,2,0:0:0:0:
99,277,135155,38,0,L|195:268,1,83.9999974365235,6|0,0:2|0:2,0:2:0:0:
76,137,135443,1,2,0:2:0:0:
226,187,135587,2,0,L|316:179,1,83.9999974365235,8|0,0:2|0:2,0:2:0:0:
203,47,135876,1,2,0:2:0:0:
342,208,136020,86,0,P|384:193|412:156,1,83.9999974365235,10|0,0:2|0:2,0:2:0:0:
182,269,136308,2,0,P|173:312|192:355,1,83.9999974365235,10|0,0:2|0:2,0:2:0:0:
209,99,136597,2,0,P|175:70|128:64,1,83.9999974365235,10|0,0:2|0:2,0:2:0:0:
125,203,136885,21,2,0:2:0:0:
297,203,137030,1,8,0:2:0:0:
182,137,137174,1,2,0:2:0:0:
182,269,137318,1,2,0:2:0:0:
268,120,137462,1,8,0:2:0:0:
268,285,137606,1,2,0:2:0:0:
162,94,137751,86,0,P|183:50|217:22,1,87.0000026550294,10|0,0:2|0:2,0:2:0:0:
160,315,138039,2,0,P|111:318|70:303,1,87.0000026550294,10|0,0:2|0:2,0:2:0:0:
353,207,138328,2,0,P|380:247|387:290,1,87.0000026550294,10|0,0:2|0:2,0:2:0:0:
182,137,138616,22,0,L|272:120,1,87.0000026550294,6|0,0:2|0:2,0:2:0:0:
194,285,138905,1,2,0:2:0:0:
353,207,139049,2,0,L|443:190,1,87.0000026550294,8|0,0:2|0:2,0:2:0:0:
325,338,139337,1,2,0:2:0:0:
349,80,139481,86,0,P|316:41|247:23,1,90.0000034332277,10|0,0:2|0:2,0:2:0:0:
310,371,139770,2,0,P|358:360|409:311,1,90.0000034332277,10|0,0:2|0:2,0:2:0:0:
78,191,140058,2,0,P|61:238|78:306,1,90.0000034332277,10|0,0:2|0:2,0:2:0:0:
199,135,140347,21,2,0:2:0:0:
21,85,140491,1,8,0:2:0:0:
123,186,140635,1,2,0:2:0:0:
160,47,140780,1,2,0:2:0:0:
32,176,140924,1,8,0:2:0:0:
77,11,141068,1,2,0:2:0:0:
123,186,141212,85,8,0:0:0:0:
134,210,141284,1,8,0:0:0:0:
151,230,141356,1,2,0:0:0:0:
173,246,141429,1,2,0:0:0:0:
207,239,141501,21,8,0:0:0:0:
225,257,141573,1,8,0:0:0:0:
250,264,141645,1,2,0:0:0:0:
276,265,141717,1,2,0:0:0:0:
298,239,141789,85,8,1:2:0:0:
322,246,141861,1,8,1:2:0:0:
349,244,141933,1,2,0:0:0:0:
375,237,142005,1,2,0:0:0:0:
381,202,142078,38,0,L|361:91,1,90.0000034332277,4|2,3:2|3:2,0:2:0:0:
484,236,142366,1,0,3:2:0:0:
278,168,142510,2,0,L|262:77,1,90.0000034332277,2|0,3:2|3:2,0:2:0:0:
381,202,142799,1,2,3:2:0:0:
220,61,142943,102,0,L|123:69,1,90.0000034332277,8|2,3:2|0:2,0:2:0:0:
381,202,143231,2,0,L|479:210,1,90.0000034332277,8|2,3:2|0:2,0:2:0:0:
211,242,143520,2,0,L|195:153,1,90.0000034332277,8|2,3:2|0:2,0:2:0:0:
356,247,143808,5,6,3:2:0:0:
245,240,143953,1,8,3:2:0:0:
304,144,144097,1,0,3:2:0:0:
279,333,144241,1,2,3:2:0:0:
211,242,144385,1,8,3:2:0:0:
323,228,144530,1,2,3:2:0:0:
177,325,144674,101,8,3:3:0:0:
150,320,144746,1,8,0:3:0:0:
126,307,144818,1,2,0:0:0:0:
107,288,144890,1,2,0:0:0:0:
129,263,144962,5,8,3:2:0:0:
136,234,145034,1,8,0:0:0:0:
135,204,145106,1,2,0:0:0:0:
124,175,145179,1,2,0:0:0:0:
165,175,145251,102,0,P|185:165|211:161,3,45.0000017166138,8|8|2|2,3:2|0:2|0:2|0:2,0:2:0:0:
330,329,145539,5,6,0:2:0:0:
211,242,145683,1,8,3:2:0:0:
382,249,145828,2,0,P|413:281|427:327,1,90.0000034332277,0|2,3:2|0:2,0:2:0:0:
173,316,146116,2,0,L|181:254,2,60.0000022888184,0|0|2,3:2|3:2|3:2,3:2:0:0:
278,168,146405,102,0,L|172:158,1,90.0000034332277,8|0,3:2|0:2,0:2:0:0:
424,134,146693,2,0,L|429:196,2,60.0000022888184,2|0|2,3:2|3:2|3:2,3:2:0:0:
331,257,146981,2,0,L|324:325,2,60.0000022888184,8|0|0,3:2|3:2|3:2,3:2:0:0:
415,349,147270,6,0,L|317:357,1,90.0000034332277,4|2,3:2|0:2,0:2:0:0:
108,298,147558,2,0,L|206:289,1,90.0000034332277,0|2,3:2|0:2,0:2:0:0:
33,146,147847,2,0,L|25:225,2,60.0000022888184,0|0|0,3:2|3:2|3:2,3:2:0:0:
135,62,148135,102,0,L|85:66,2,45.0000017166138,8|0|2,3:2|3:2|3:2,3:2:0:0:
160,73,148352,1,0,3:2:0:0:
185,84,148424,2,0,L|176:175,1,90.0000034332277,2|2,0:2|0:2,0:2:0:0:
358,115,148712,2,0,L|424:124,2,60.0000022888184,2|0|0,3:2|3:2|3:2,3:2:0:0:
254,12,149001,5,12,0:2:0:0:
354,137,149145,1,0,0:0:0:0:
350,159,149217,1,0,0:0:0:0:
346,181,149289,2,0,L|355:237,2,45.0000017166138,0|0|2,0:2|0:2|0:2,0:2:0:0:
323,201,149505,1,2,0:2:0:0:
300,221,149578,2,0,L|202:203,1,90.0000034332277,12|2,0:2|0:2,0:2:0:0:
232,49,149866,102,0,L|242:109,2,60.0000022888184,8|0|0,3:2|3:2|3:2,3:2:0:0:
115,140,150155,1,8,1:2:0:0:
111,162,150227,1,8,0:0:0:0:
107,184,150299,1,2,0:0:0:0:
103,206,150371,1,2,0:0:0:0:
99,229,150443,2,0,L|116:288,2,60.0000022888184,8|0|0,1:2|3:2|3:2,3:2:0:0:
233,384,150731,6,0,L|216:325,2,60.0000022888184,6|0|0,3:2|3:2|3:2,3:2:0:0:
293,233,151020,2,0,L|310:292,2,60.0000022888184,0|0|0,3:2|3:2|3:2,3:2:0:0:
418,345,151308,2,0,L|401:286,2,60.0000022888184,8|0|0,3:2|3:2|3:2,3:2:0:0:
482,237,151597,2,0,L|499:296,2,45.0000017166138,8|0|2,3:2|3:2|3:2,3:2:0:0:
493,217,151813,1,2,0:2:0:0:
504,197,151885,102,0,P|479:151|418:111,1,90.0000034332277,8|2,3:2|3:2,3:2:0:0:
363,261,152174,1,8,3:2:0:0:
437,89,152318,2,0,P|465:71|510:64,1,60.0000022888184,0|0,3:2|3:2,3:2:0:0:
374,170,152462,38,0,P|359:167|336:160,2,30.0000011444092,6|0|0,3:2|0:0|0:0,3:2:0:0:
256,117,152606,2,0,P|229:114|196:121,1,45.0000017166138,8|0,3:2|3:2,3:2:0:0:
135,181,152751,1,0,3:2:0:0:
291,88,152895,70,0,P|262:47|207:30,1,90.0000034332277,2|0,3:2|0:2,0:2:0:0:
135,181,153183,1,2,3:2:0:0:
291,88,153328,5,8,3:2:0:0:
106,152,153472,2,0,P|83:195|89:245,1,90.0000034332277,0|2,3:2|0:2,0:2:0:0:
211,116,153760,1,2,3:2:0:0:
56,74,153905,1,8,3:2:0:0:
164,210,154049,1,0,3:2:0:0:
185,19,154193,102,0,P|226:0|280:10,1,90.0000034332277,4|2,3:2|0:2,0:2:0:0:
297,170,154481,1,0,0:2:0:0:
211,116,154626,1,2,0:2:0:0:
396,57,154770,1,0,3:2:0:0:
263,198,154914,1,2,3:2:0:0:
159,34,155058,6,0,P|115:44|80:80,1,90.0000034332277,8|2,3:2|0:2,0:2:0:0:
253,99,155347,1,8,0:2:0:0:
74,38,155491,1,2,3:2:0:0:
51,46,155563,1,0,3:2:0:0:
33,61,155635,1,8,3:3:0:0:
19,81,155707,1,0,3:2:0:0:
7,105,155780,1,8,3:2:0:0:
3,131,155852,1,0,3:2:0:0:
6,158,155924,6,0,B|19:184|19:184|15:211|27:238|27:238|51:253,1,102.000001945496,6|0,3:2|0:2,0:2:0:0:
193,159,156212,1,8,3:2:0:0:
55,162,156356,1,2,0:2:0:0:
234,255,156501,1,8,3:2:0:0:
208,117,156645,1,2,0:2:0:0:
171,300,156789,101,8,3:2:0:0:
297,210,156933,1,2,0:2:0:0:
125,299,157078,1,8,3:2:0:0:
273,326,157222,1,2,0:2:0:0:
66,206,157366,1,8,3:2:0:0:
196,376,157510,1,8,0:2:0:0:
279,178,157655,5,8,0:2:0:0:
270,141,157727,1,8,0:2:0:0:
273,115,157799,1,2,0:2:0:0:
253,99,157871,1,2,0:2:0:0:
228,70,157943,101,8,0:2:0:0:
249,38,158015,1,8,0:2:0:0:
274,43,158087,1,2,0:2:0:0:
298,35,158159,1,2,0:2:0:0:
332,18,158231,5,8,3:2:0:0:
370,25,158304,1,8,3:2:0:0:
380,48,158376,1,2,0:2:0:0:
403,59,158448,1,2,0:2:0:0:
406,85,158520,102,0,B|410:112|421:126|421:126|421:154|421:154|418:165|418:165|424:202,1,102.000001945496,8|2,3:2|0:2,0:2:0:0:
500,70,158808,1,8,0:2:0:0:
325,149,158953,1,2,3:2:0:0:
510,228,159097,2,0,B|496:262|468:275|468:275|473:312|473:312|469:327|433:362,1,153.000002918243,0|0,3:2|0:2,3:2:0:0:
328,269,159385,6,0,B|332:231|332:231|345:210|345:210|347:176|335:148,1,105.000001001358,2|2,3:2|0:2,0:2:0:0:
263,328,159674,1,0,3:0:0:0:
281,351,159746,1,0,0:0:0:0:
310,351,159818,1,2,0:0:0:0:
338,357,159890,1,0,0:0:0:0:
370,349,159962,2,0,B|387:343|387:343|403:333|403:333|418:331|434:334,2,52.500000500679,0|0|2,3:0|0:0|0:0,0:0:0:0:
434,175,160251,101,8,0:2:0:0:
442,352,160395,1,2,0:2:0:0:
288,244,160539,1,8,0:2:0:0:
462,208,160683,1,2,0:2:0:0:
338,357,160828,2,0,B|309:371|269:358|269:358|254:346|254:346|212:355|212:355|196:351|184:338,1,157.500001502037,0|0,3:2|0:2,0:2:0:0:
127,200,161116,5,2,0:2:0:0:
329,260,161260,2,0,B|353:235|353:204|353:204|343:184|343:184|345:170|338:152,1,110.999999576569,12|0,0:2|0:2,0:2:0:0:
150,159,161549,1,2,0:2:0:0:
297,338,161693,1,8,1:2:0:0:
298,138,161837,1,2,0:2:0:0:
148,337,161981,5,8,1:2:0:0:
365,285,162126,1,2,1:2:0:0:
127,200,162270,1,8,1:2:0:0:
306,384,162414,1,8,1:2:0:0:
254,123,162558,1,8,1:2:0:0:
168,378,162703,1,8,1:2:0:0:
344,247,162847,21,0,0:2:0:0:
254,275,163692,101,0,0:0:0:0:
164,303,163973,1,0,0:0:0:0:
350,155,164255,1,2,0:0:0:0:
254,275,164537,6,0,L|256:296,1,13.9999995727539
164,129,166160,6,0,L|173:77,1,45,0|0,0:2|0:2,0:2:0:0:
159,41,166310,21,6,0:2:0:0:
331,94,166454,1,2,1:2:0:0:
331,94,166742,1,2,0:2:0:0:
193,168,166886,1,8,0:2:0:0:
331,94,167030,1,2,0:2:0:0:
290,222,167174,86,0,L|299:277,3,41.9999987182618,8|8|2|2,0:2|0:2|0:2|0:2,0:2:0:0:
455,176,167462,2,0,L|445:227,3,41.9999987182618,8|8|2|2,0:2|0:2|0:2|0:2,0:2:0:0:
331,94,167750,1,8,0:2:0:0:
345,273,167895,1,8,0:2:0:0:
249,139,168039,21,6,0:2:0:0:
411,187,168183,1,2,0:2:0:0:
411,187,168471,1,2,0:2:0:0:
333,51,168615,1,8,0:2:0:0:
411,187,168759,1,2,0:2:0:0:
249,139,168903,86,0,L|193:143,3,41.9999987182618,8|8|2|2,0:2|0:2|0:2|0:2,0:2:0:0:
136,258,169191,2,0,L|94:246,3,41.9999987182618,8|8|2|2,0:2|0:2|0:2|0:2,0:2:0:0:
60,108,169480,2,0,B|95:93|95:93|137:126|189:105,1,125.999996154785,2|0,0:2|0:2,0:2:0:0:
155,26,169768,37,6,3:2:0:0:
121,156,169912,1,0,3:2:0:0:
257,184,170056,1,0,3:2:0:0:
84,71,170201,1,2,3:2:0:0:
157,182,170345,1,0,3:2:0:0:
268,109,170489,1,2,3:2:0:0:
60,108,170634,101,8,3:2:0:0:
157,182,170778,1,2,3:2:0:0:
231,85,170922,1,8,3:2:0:0:
249,71,170995,1,8,0:0:0:0:
269,63,171067,1,2,3:2:0:0:
292,60,171139,1,2,0:0:0:0:
314,62,171211,2,0,P|338:69|358:85,3,45.0000017166138,8|8|2|2,3:2|0:2|3:2|0:2,0:2:0:0:
294,237,171500,5,2,3:2:0:0:
231,85,171644,1,8,3:2:0:0:
131,216,171789,1,8,3:2:0:0:
305,142,171933,1,2,3:2:0:0:
142,121,172077,1,8,3:2:0:0:
206,273,172222,1,2,3:2:0:0:
347,132,172366,101,8,3:2:0:0:
270,317,172511,1,8,3:2:0:0:
225,122,172655,1,8,3:2:0:0:
374,253,172799,1,8,3:2:0:0:
176,235,172944,1,8,3:2:0:0:
347,132,173088,1,8,3:2:0:0:
269,317,173232,85,6,0:2:0:0:
254,154,173376,1,2,1:2:0:0:
254,154,173664,1,2,0:2:0:0:
162,281,173808,1,8,0:2:0:0:
254,154,173952,1,2,0:2:0:0:
332,245,174096,22,0,L|376:252,3,41.9999987182618,8|8|2|2,0:2|0:2|0:2|0:2,0:2:0:0:
258,360,174384,2,0,L|300:359,3,41.9999987182618,8|8|2|2,0:2|0:2|0:2|0:2,0:2:0:0:
162,281,174672,1,8,0:2:0:0:
331,204,174817,1,8,0:2:0:0:
146,181,174961,85,6,0:2:0:0:
241,322,175105,1,2,0:2:0:0:
241,322,175393,1,2,0:2:0:0:
295,175,175537,1,8,0:2:0:0:
241,322,175681,1,2,0:2:0:0:
178,152,175825,22,0,L|187:95,3,41.9999987182618,8|8|2|2,0:2|0:2|0:2|0:2,0:2:0:0:
74,231,176113,2,0,L|62:172,3,41.9999987182618,8|8|2|2,0:2|0:2|0:2|0:2,0:2:0:0:
206,70,176402,2,0,B|241:62|241:62|275:103|333:99,1,125.999996154785,2|0,0:2|0:2,0:2:0:0:
319,0,176690,5,6,3:2:0:0:
435,107,176834,1,0,3:2:0:0:
316,195,176978,1,0,3:2:0:0:
410,16,177123,1,2,3:2:0:0:
431,149,177267,1,0,3:2:0:0:
284,168,177411,1,2,3:2:0:0:
435,107,177556,101,8,3:2:0:0:
396,224,177700,1,2,3:2:0:0:
284,168,177844,1,8,3:2:0:0:
261,166,177917,1,8,0:0:0:0:
239,170,177989,1,2,3:2:0:0:
219,179,178061,1,2,0:0:0:0:
201,193,178133,2,0,P|185:216|177:246,3,45.0000017166138,8|8|2|2,3:2|0:2|3:2|0:2,0:2:0:0:
292,87,178422,5,2,3:2:0:0:
264,253,178566,1,8,3:2:0:0:
134,145,178711,1,8,3:2:0:0:
325,177,178855,1,2,3:2:0:0:
195,69,178999,1,8,3:2:0:0:
167,236,179144,1,2,3:2:0:0:
360,267,179288,101,8,0:2:0:0:
170,330,179433,1,8,0:2:0:0:
287,168,179577,1,8,0:2:0:0:
287,367,179721,1,8,0:2:0:0:
171,207,179866,1,8,3:2:0:0:
377,310,180010,1,8,3:2:0:0:
130,317,180154,21,2,3:2:0:0:
325,177,180299,1,12,3:2:0:0:
287,367,180443,1,0,3:2:0:0:
263,129,180587,1,2,3:2:0:0:
170,330,180732,1,8,3:2:0:0:
87,177,180876,1,2,3:2:0:0:
247,354,181021,101,8,3:2:0:0:
175,135,181165,1,2,3:2:0:0:
193,108,181237,1,2,0:0:0:0:
220,88,181309,1,8,3:3:0:0:
251,77,181382,1,8,0:3:0:0:
284,76,181454,1,2,3:2:0:0:
316,86,181526,1,2,0:0:0:0:
343,105,181598,2,0,P|359:126|367:154,3,49.5000004720688,8|8|2|2,3:2|0:2|3:2|0:2,0:2:0:0:
247,354,181887,21,8,3:3:0:0:
211,366,181959,1,8,0:3:0:0:
173,360,182031,1,2,3:2:0:0:
141,338,182103,1,2,0:0:0:0:
125,304,182176,101,8,3:2:0:0:
129,264,182248,1,8,0:0:0:0:
149,229,182320,1,2,3:2:0:0:
182,208,182392,1,2,0:0:0:0:
222,212,182464,5,8,1:2:0:0:
256,235,182536,1,10,1:2:0:0:
297,238,182609,1,2,0:0:0:0:
333,217,182681,1,2,0:0:0:0:
355,181,182753,101,8,0:0:0:0:
344,139,182825,1,2,0:0:0:0:
313,110,182897,1,2,0:0:0:0:
269,108,182970,1,2,0:0:0:0:
229,132,183042,5,8,3:2:0:0:
215,178,183114,1,2,0:0:0:0:
234,222,183186,1,2,0:0:0:0:
277,246,183258,1,2,0:0:0:0:
326,240,183331,102,0,P|359:219|379:186,1,60,8|2,1:2|0:2,0:2:0:0:
343,0,183475,2,0,P|316:29|304:72,1,60,8|2,1:2|0:2,0:2:0:0:
413,319,183619,5,4,3:2:0:0:
326,240,184722,21,0,0:2:0:0:
120,58,185922,101,2,0:2:0:0:
176,276,186567,1,0,0:2:0:0:
368,84,187212,5,2,0:2:0:0:
368,352,187569,101,0,0:2:0:0:
288,288,187927,1,0,0:2:0:0:
192,256,188285,1,0,0:2:0:0:
144,144,188594,1,0,0:2:0:0:
304,192,188934,1,0,0:2:0:0:
464,64,189275,5,2,0:2:0:0:
464,64,189945,101,2,0:2:0:0:
144,144,190615,5,0,0:2:0:0:
296,233,190950,2,0,L|290:286,1,53.9999983520508,0|0,0:2|0:2,0:2:0:0:
224,352,191286,101,0,0:2:0:0:
128,320,191733,1,0,0:2:0:0:
64,193,192133,5,2,0:2:0:0:
185,240,192659,2,0,L|232:244,1,35.9999989013672,0|0,0:2|0:2,0:2:0:0:
336,96,193595,101,2,0:2:0:0:
176,112,195048,5,2,0:2:0:0:
496,16,197258,101,2,0:2:0:0:
189,154,202138,6,0,L|187:172,1,15,0|0,0:2|0:2,0:2:0:0:
233,68,202836,6,0,P|181:56|127:81,1,96,0|0,0:2|0:2,0:2:0:0:
285,149,203295,2,0,P|337:161|391:136,1,96,0|0,0:2|0:2,0:2:0:0:
332,59,203754,1,0,0:2:0:0:
189,154,204060,1,0,0:2:0:0:
233,68,204366,1,0,0:2:0:0:
343,231,204672,102,0,P|335:284|295:324,1,96,0|0,0:2|0:2,0:2:0:0:
387,145,205131,2,0,P|436:125|491:140,1,96,0|0,0:2|0:2,0:2:0:0:
495,304,205591,1,0,0:2:0:0:
396,313,205897,1,0,0:2:0:0:
343,231,206203,1,0,0:2:0:0:
256,186,206509,6,0,P|207:200|171:242,1,96,0|0,0:2|0:2,0:2:0:0:
338,133,206968,2,0,P|301:98|247:88,1,96,0|0,0:2|0:2,0:2:0:0:
256,186,207427,1,0,0:2:0:0:
343,231,207733,1,0,0:2:0:0:
338,133,208040,1,0,0:0:0:0:
261,284,208346,102,0,P|273:329|318:368,1,96,0|0,0:2|0:2,0:2:0:0:
174,239,208805,2,0,P|141:273|129:331,1,96,0|0,0:2|0:2,0:2:0:0:
261,284,209264,1,0,0:2:0:0:
256,186,209570,1,0,0:0:0:0:
174,239,209876,1,0,0:2:0:0:
261,284,210182,6,0,P|317:264|348:221,1,96,0|0,0:2|0:2,0:2:0:0:
169,141,210642,2,0,P|113:161|82:204,1,96,0|0,0:2|0:2,0:2:0:0:
256,186,211101,1,0,0:2:0:0:
251,88,211407,1,0,0:2:0:0:
165,44,211713,1,0,0:2:0:0:
256,186,212019,102,0,P|313:165|341:127,1,96,0|0,0:2|0:2,0:2:0:0:
170,142,212478,2,0,P|113:163|85:201,1,96,0|0,0:2|0:2,0:2:0:0:
261,284,212938,1,0,0:2:0:0:
256,186,213244,1,0,0:2:0:0:
170,142,213550,1,0,0:2:0:0:
175,240,213856,5,0,0:0:0:0:
424,47,214468,102,0,B|451:82|447:123|447:123|435:194,1,144,0|0,0:2|0:2,0:2:0:0:
342,230,215080,1,0,0:2:0:0:
256,186,215387,1,0,0:2:0:0:
424,47,215999,5,0,0:2:0:0:
328,58,216305,1,0,0:2:0:0:
232,69,216585,2,0,L|228:81,1,8,0|0,0:2|0:2,0:2:0:0:
174,243,217223,1,0,0:2:0:0:
226,327,217529,102,0,P|276:338|320:323,1,96,0|0,0:2|0:2,0:2:0:0:
174,243,217988,2,0,P|124:232|80:247,1,96,0|0,0:2|0:2,0:2:0:0:
226,327,218447,1,0,0:2:0:0:
220,155,218753,1,0,0:2:0:0:
174,243,219059,1,0,0:2:0:0:
320,151,219365,6,0,P|305:100|265:64,1,96,0|0,0:2|0:2,0:2:0:0:
174,243,219824,2,0,P|188:293|229:329,1,96,0|0,0:2|0:2,0:2:0:0:
373,235,220284,1,0,0:2:0:0:
320,151,220590,1,0,0:2:0:0:
231,104,220896,1,0,0:2:0:0:
130,107,221202,102,0,P|93:74|76:21,1,96,0|0,0:2|0:2,0:2:0:0:
184,193,221661,2,0,P|137:208|83:196,1,96,0|0,0:2|0:2,0:2:0:0:
231,104,222120,1,0,0:2:0:0:
331,100,222426,1,0,0:2:0:0:
384,184,222733,1,0,0:2:0:0:
231,104,223039,6,0,P|245:47|282:11,1,96
284,188,223498,2,0,P|270:245|233:281,1,96
331,100,223957,102,0,P|352:113|369:136,2,48,0|0|0,0:2|0:2|0:2,0:2:0:0:
113,354,224875,6,0,L|213:362,1,96,0|0,0:2|0:2,0:2:0:0:
120,243,225335,2,0,L|20:251,1,96,0|0,0:2|0:2,0:2:0:0:
133,147,225794,2,0,L|233:155,2,96,0|0|0,0:2|0:2|0:2,0:2:0:0:
44,28,226712,101,0,0:2:0:0:
480,16,227620,1,2,0:2:0:0:
156,140,228567,53,2,0:2:0:0:
87,289,228712,2,0,P|98:337|147:377,1,93.0000007095337,8|0,0:2|0:2,0:2:0:0:
235,237,229000,2,0,P|238:205|229:171,2,46.5000003547668,2|2|8,0:2|0:2|0:2,0:2:0:0:
111,256,229289,1,2,0:2:0:0:
266,340,229433,101,8,0:0:0:0:
287,331,229505,1,8,0:0:0:0:
306,318,229577,1,2,0:0:0:0:
321,300,229649,1,2,0:0:0:0:
332,279,229721,2,0,P|339:247|337:221,3,46.5000003547668,8|8|2|2,0:2|0:2|0:2|0:2,0:2:0:0:
257,116,230010,2,0,P|328:145|361:200,1,139.500001064301,8|0,0:2|0:2,0:2:0:0:
356,64,230298,22,0,P|251:68|148:164,1,210.000002002716,6|0,0:2|0:2,0:2:0:0:
359,196,230731,1,2,0:2:0:0:
196,53,230875,1,0,3:2:0:0:
255,204,231019,1,2,0:2:0:0:
318,39,231164,2,0,P|362:9|426:10,1,105.000001001358,8|0,0:2|0:2,0:2:0:0:
168,128,231452,2,0,P|110:120|71:84,1,105.000001001358,2|0,0:2|0:2,0:2:0:0:
356,64,231741,2,0,P|415:69|462:118,1,105.000001001358,2|0,0:2|0:2,0:2:0:0:
92,162,232029,102,0,P|59:129|45:54,1,105.000001001358,6|2,0:2|0:2,0:2:0:0:
168,128,232318,1,0,0:2:0:0:
4,144,232462,1,2,0:2:0:0:
194,91,232606,1,0,3:2:0:0:
66,199,232750,1,2,0:2:0:0:
283,6,232894,2,0,B|334:8|369:41|388:89|388:89|400:47|382:13,1,210.000002002716,8|2,0:2|0:2,0:2:0:0:
80,109,233471,1,8,0:2:0:0:
5,16,233616,1,2,0:2:0:0:
35,218,233760,5,4,0:2:0:0:
194,91,233904,2,0,P|176:40|138:4,1,105.000001001358,8|0,0:2|0:2,0:2:0:0:
76,206,234193,1,2,0:2:0:0:
225,59,234337,1,0,3:2:0:0:
80,109,234481,1,2,0:2:0:0:
297,131,234625,2,0,P|343:95|363:30,1,105.000001001358,8|0,0:2|0:2,0:2:0:0:
194,91,234914,1,2,0:2:0:0:
319,219,235058,1,2,0:2:0:0:
123,188,235202,2,0,B|95:193|76:206|76:206|139:217|173:262,1,157.500001502037,8|0,0:2|0:2,0:2:0:0:
281,326,235491,102,0,P|336:332|397:301,1,105.000001001358,6|0,0:2|0:2,0:2:0:0:
210,236,235779,1,0,0:2:0:0:
307,366,235923,1,2,0:2:0:0:
318,176,236068,1,0,3:2:0:0:
207,277,236212,1,2,0:2:0:0:
390,218,236356,5,8,0:2:0:0:
361,96,236500,1,2,0:2:0:0:
186,201,236644,1,8,0:2:0:0:
235,85,236789,1,2,0:2:0:0:
281,285,236933,1,8,0:2:0:0:
61,216,237077,1,8,0:2:0:0:
235,85,237221,102,0,B|267:71|305:92|305:92|320:82|328:62|328:62|376:36|426:69,1,210.000002002716,4|0,0:2|0:2,0:2:0:0:
327,276,237654,1,2,0:2:0:0:
354,97,237798,1,0,3:2:0:0:
495,209,237943,1,2,0:2:0:0:
327,276,238087,2,0,P|273:271|222:228,1,105.000001001358,8|0,0:2|0:2,0:2:0:0:
354,97,238375,2,0,P|407:92|465:126,1,105.000001001358,2|0,0:2|0:2,0:2:0:0:
216,74,238664,2,0,P|251:30|311:14,1,105.000001001358,2|0,0:2|0:2,0:2:0:0:
96,255,238952,6,0,P|74:209|77:148,1,105.000001001358,6|2,0:2|0:2,0:2:0:0:
229,279,239241,1,0,0:2:0:0:
96,255,239385,1,2,0:2:0:0:
283,200,239529,1,0,3:2:0:0:
209,319,239673,1,2,0:2:0:0:
226,118,239818,2,0,P|280:101|338:118,1,105.000001001358,8|0,0:2|0:2,0:2:0:0:
146,50,240106,2,0,P|97:30|30:49,1,105.000001001358,8|0,0:2|0:2,0:2:0:0:
204,155,240394,1,8,0:2:0:0:
171,13,240539,1,2,0:2:0:0:
139,210,240683,101,6,0:2:0:0:
326,111,240827,1,8,0:2:0:0:
123,126,240971,1,0,0:2:0:0:
279,223,241116,1,2,0:2:0:0:
129,87,241260,1,0,0:2:0:0:
169,241,241404,1,2,0:2:0:0:
250,118,241548,5,8,0:2:0:0:
279,223,241693,1,0,0:2:0:0:
352,144,241837,101,2,0:2:0:0:
372,207,241981,1,2,0:2:0:0:
436,165,242125,5,8,0:2:0:0:
448,194,242269,1,0,0:2:0:0:
508,184,242414,101,12,0:2:0:0:
476,315,242558,1,2,0:2:0:0:
439,0,242846,5,12,0:2:0:0:
395,143,242991,1,2,0:2:0:0:
125,54,243279,101,12,0:2:0:0:
179,193,243423,1,2,0:2:0:0:
336,43,243568,1,8,0:2:0:0:
298,188,243712,1,2,0:2:0:0:
125,54,243856,2,0,P|77:120|82:207,1,157.500001502037,8|0,0:2|0:2,0:2:0:0:
214,219,244144,6,0,B|247:284|213:352|213:352|255:336|271:300,1,210.000002002716,4|0,0:2|0:2,0:2:0:0:
105,283,244577,1,2,0:2:0:0:
303,333,244721,1,0,3:2:0:0:
174,210,244866,1,2,0:2:0:0:
317,373,245010,2,0,P|370:357|405:312,1,105.000001001358,8|0,0:2|0:2,0:2:0:0:
140,308,245298,2,0,P|87:324|52:369,1,105.000001001358,2|0,0:2|0:2,0:2:0:0:
303,333,245587,2,0,L|283:222,1,105.000001001358,2|0,0:2|0:2,0:2:0:0:
1,264,245875,102,0,L|110:283,1,105.000001001358,6|2,0:2|0:2,0:2:0:0:
177,129,246164,1,0,0:2:0:0:
36,233,246308,1,2,0:2:0:0:
243,212,246452,1,0,3:2:0:0:
35,186,246596,1,2,0:2:0:0:
336,302,246741,2,0,B|411:297|449:224|449:224|439:297,1,210.000002002716,8|2,0:2|0:2,0:2:0:0:
177,129,247318,1,8,0:2:0:0:
234,22,247462,1,2,0:2:0:0:
56,133,247606,6,0,B|52:184|91:220|91:220|72:258|72:258|60:352,1,210.000002002716,6|0,0:2|0:2,0:2:0:0:
16,197,248039,1,2,0:2:0:0:
187,305,248183,1,0,3:2:0:0:
33,307,248327,1,2,0:2:0:0:
211,262,248471,2,0,L|316:271,1,105.000001001358,8|0,0:2|0:2,0:2:0:0:
179,152,248760,1,2,0:2:0:0:
187,305,248904,1,2,0:2:0:0:
272,131,249048,2,0,B|253:26|253:26|207:-1,1,157.500001502037,8|0,0:2|0:2,0:2:0:0:
307,100,249337,102,0,L|413:109,1,105.000001001358,6|2,0:2|0:2,0:2:0:0:
235,219,249625,1,0,0:2:0:0:
307,100,249769,1,2,0:2:0:0:
315,270,249914,1,0,3:2:0:0:
207,186,250058,1,2,0:2:0:0:
399,276,250202,5,8,0:2:0:0:
282,357,250346,1,2,0:2:0:0:
405,229,250491,1,8,0:2:0:0:
512,323,250635,1,2,0:2:0:0:
385,187,250779,1,8,0:2:0:0:
366,363,250923,1,8,0:2:0:0:
472,166,251068,102,0,B|460:123|429:83|380:69|380:69|423:56|458:74,1,210.000002002716,6|0,0:2|0:2,0:2:0:0:
405,229,251500,1,2,0:2:0:0:
473,47,251644,1,0,3:2:0:0:
512,151,251789,1,2,0:2:0:0:
375,35,251933,2,0,P|315:39|268:80,1,105.000001001358,8|0,0:2|0:2,0:2:0:0:
486,253,252221,2,0,L|514:142,1,105.000001001358,2|0,0:2|0:2,0:2:0:0:
378,309,252510,2,0,P|408:348|463:374,1,105.000001001358,2|0,0:2|0:2,0:2:0:0:
311,93,252798,6,0,P|258:79|201:104,1,105.000001001358,6|2,0:2|0:2,0:2:0:0:
362,177,253087,1,0,0:2:0:0:
375,35,253231,1,2,0:2:0:0:
264,178,253375,1,8,3:2:0:0:
399,151,253519,1,2,0:2:0:0:
198,59,253664,101,8,0:0:0:0:
170,66,253736,1,8,0:0:0:0:
146,83,253808,1,2,0:0:0:0:
130,107,253880,1,2,0:0:0:0:
145,145,253952,5,8,0:0:0:0:
117,162,254024,1,8,0:0:0:0:
99,189,254096,1,2,0:0:0:0:
93,221,254168,1,2,0:0:0:0:
119,252,254241,101,8,0:0:0:0:
93,277,254313,1,8,0:0:0:0:
83,311,254385,1,2,0:0:0:0:
86,349,254457,1,2,0:0:0:0:
122,356,254529,22,0,B|155:356|181:371|181:371|192:350|222:338|222:338|268:370|334:345,1,221.999999153137,6|0,0:0|0:0,0:0:0:0:
377,113,254962,2,0,P|336:73|278:61,1,110.999999576569,2|0,0:2|0:2,0:2:0:0:
381,223,255250,1,2,3:2:0:0:
357,33,255394,101,8,3:2:0:0:
284,171,255539,1,0,3:2:0:0:
437,56,255683,1,2,3:2:0:0:
245,150,255827,1,0,3:2:0:0:
474,164,255971,2,0,P|491:226|468:290,1,110.999999576569,2|0,3:2|3:2,0:2:0:0:
377,113,256260,5,6,0:2:0:0:
349,260,256404,2,0,P|378:326|432:352,1,110.999999576569,8|0,0:2|0:2,0:2:0:0:
378,0,256693,2,0,P|430:14|468:54,1,110.999999576569,2|0,0:2|0:2,0:2:0:0:
349,260,256981,1,2,3:2:0:0:
281,49,257125,101,8,3:2:0:0:
380,227,257269,1,2,3:2:0:0:
237,62,257414,1,8,3:2:0:0:
396,184,257558,1,2,3:2:0:0:
207,96,257702,1,8,3:2:0:0:
396,138,257846,1,2,3:2:0:0:
167,194,257991,6,0,B|99:160|103:79|103:79|68:116|77:164,1,221.999999153137,4|0,0:2|0:2,0:2:0:0:
396,138,258423,2,0,P|381:79|337:39,1,110.999999576569,2|0,0:2|0:2,0:2:0:0:
167,194,258712,1,2,3:2:0:0:
357,161,258856,101,8,3:2:0:0:
207,96,259000,1,2,3:2:0:0:
317,231,259144,1,8,3:2:0:0:
237,62,259289,1,2,3:2:0:0:
281,255,259433,1,8,3:2:0:0:
237,62,259577,1,2,3:2:0:0:
252,287,259721,5,4,3:2:0:0:
310,97,259866,1,8,3:2:0:0:
180,253,260010,1,0,3:2:0:0:
346,169,260154,1,2,3:2:0:0:
144,181,260298,1,8,3:2:0:0:
321,246,260443,1,2,3:2:0:0:
169,104,260587,101,8,3:2:0:0:
136,99,260659,1,8,0:2:0:0:
104,109,260731,1,2,3:2:0:0:
79,131,260803,1,2,0:2:0:0:
66,161,260875,5,8,3:2:0:0:
65,194,260947,1,8,0:2:0:0:
77,225,261019,1,2,3:2:0:0:
100,249,261092,1,2,0:2:0:0:
131,261,261164,101,8,0:2:0:0:
164,258,261236,1,8,0:2:0:0:
194,244,261308,1,2,0:2:0:0:
215,218,261380,1,2,0:2:0:0:
227,187,261452,6,0,P|217:125|171:84,1,110.999999576569,12|2,0:2|0:2,3:2:0:0:
164,258,261741,1,0,3:2:0:0:
337,179,261885,1,2,3:2:0:0:
364,185,261957,1,2,0:2:0:0:
389,197,262029,2,0,P|430:234|447:295,1,110.999999576569,8|2,3:2|3:2,3:2:0:0:
236,148,262318,102,0,P|269:96|331:71,1,110.999999576569,8|2,3:2|3:2,3:2:0:0:
326,290,262606,1,8,3:2:0:0:
306,311,262678,1,8,0:2:0:0:
280,325,262750,1,2,3:2:0:0:
251,331,262822,1,2,0:2:0:0:
221,329,262894,2,0,P|168:301|136:252,1,110.999999576569,8|0,3:2|3:2,3:2:0:0:
326,290,263183,5,4,3:2:0:0:
154,153,263327,2,0,P|99:158|55:190,1,110.999999576569,8|0,0:2|3:2,3:2:0:0:
120,367,263616,1,8,3:2:0:0:
241,224,263760,1,8,3:2:0:0:
54,190,263904,1,8,3:2:0:0:
120,367,264048,101,8,3:2:0:0:
154,153,264193,1,2,3:2:0:0:
138,122,264265,1,2,0:0:0:0:
113,99,264337,1,8,0:0:0:0:
139,260,264481,1,2,3:2:0:0:
424,0,264625,2,0,B|451:9|468:34|468:34|464:50|462:67|462:67|501:100|500:179,1,188.999994232178,8|0,3:2|0:2,0:2:0:0:
431,242,264914,5,6,0:2:0:0:
357,81,265058,2,0,P|302:59|238:72,1,113.999996955872,8|0,0:2|0:2,0:2:0:0:
431,242,265346,2,0,P|435:300|399:362,1,113.999996955872,2|0,3:2|0:2,0:2:0:0:
255,182,265635,1,2,3:2:0:0:
431,242,265779,101,8,3:2:0:0:
245,258,265923,1,0,3:2:0:0:
445,168,266068,1,2,3:2:0:0:
276,328,266212,1,2,3:2:0:0:
415,98,266356,1,8,3:2:0:0:
339,372,266500,1,0,3:2:0:0:
352,54,266644,5,4,3:2:0:0:
512,15,266789,1,2,3:2:0:0:
295,105,266933,101,0,3:2:0:0:
445,168,267077,1,2,3:2:0:0:
223,120,267221,5,0,3:2:0:0:
315,247,267366,1,2,3:2:0:0:
151,106,267510,101,8,3:2:0:0:
151,251,267654,1,2,3:2:0:0:
100,54,267798,5,8,3:2:0:0:
23,168,267943,1,2,3:2:0:0:
201,14,268087,2,0,P|247:73|237:175,1,166.499999364853,8|0,3:2|0:2,3:2:0:0:
141,210,268375,101,6,0:2:0:0:
346,267,268519,2,0,P|365:325|353:375,1,110.999999576569,8|0,0:2|3:2,0:2:0:0:
229,240,268808,1,2,3:2:0:0:
420,194,268952,5,8,0:0:0:0:
432,168,269024,1,8,0:0:0:0:
438,140,269096,1,2,3:2:0:0:
436,111,269168,1,2,0:0:0:0:
431,82,269241,1,8,0:0:0:0:
418,56,269313,1,8,0:0:0:0:
399,35,269385,1,2,3:2:0:0:
372,23,269457,1,2,0:0:0:0:
344,15,269529,102,0,L|217:43,1,110.999999576569,2|2,3:2|3:2,3:2:0:0:
357,232,269818,2,0,L|332:123,1,110.999999576569,8|0,3:2|3:2,3:2:0:0:
319,327,270106,6,0,P|372:300|398:242,1,110.999999576569,6|2,3:2|3:2,3:2:0:0:
201,267,270394,1,0,3:2:0:0:
332,123,270539,2,0,P|397:128|440:161,1,110.999999576569,2|0,3:2|3:2,3:2:0:0:
253,192,270827,1,2,3:2:0:0:
423,109,270971,101,8,3:2:0:0:
357,232,271116,1,2,3:2:0:0:
315,83,271260,1,8,3:2:0:0:
465,121,271404,1,8,3:2:0:0:
357,232,271548,1,8,3:2:0:0:
341,47,271693,1,8,3:2:0:0:
401,220,271837,70,0,P|403:252|388:292,1,55.4999997882843,2|0,3:2|3:2,0:2:0:0:
315,83,271994,1,2,3:2:0:0:
475,165,272125,21,8,0:3:0:0:
488,189,272197,1,8,0:3:0:0:
493,217,272269,1,2,0:0:0:0:
490,244,272342,1,2,0:0:0:0:
479,270,272414,1,8,0:3:0:0:
460,291,272486,1,8,0:3:0:0:
437,306,272558,1,2,0:0:0:0:
410,312,272630,1,2,0:0:0:0:
382,311,272701,86,0,P|344:293|319:260,1,55.4999997882843,6|0,3:2|3:2,3:2:0:0:
508,298,272860,1,2,3:2:0:0:
322,380,272991,21,8,0:0:0:0:
293,371,273063,1,8,0:0:0:0:
269,354,273135,1,2,0:0:0:0:
250,331,273207,1,2,0:0:0:0:
240,304,273279,1,8,0:0:0:0:
238,274,273351,1,8,0:0:0:0:
245,245,273423,1,2,0:0:0:0:
260,220,273495,1,2,0:0:0:0:
282,201,273566,86,0,P|309:188|340:185,1,55.4999997882843,6|0,3:2|3:2,3:2:0:0:
269,354,273740,1,2,3:2:0:0:
205,138,273847,38,0,P|214:109|237:83,1,56.9999984779358,8|0,3:2|3:2,3:2:0:0:
334,283,274010,1,2,3:2:0:0:
122,196,274124,70,0,P|109:168|105:138,1,55.4999997882843,8|0,3:2|3:2,3:2:0:0:
282,201,274298,1,2,3:2:0:0:
116,301,274433,5,8,3:2:0:0:
84,294,274505,1,8,3:2:0:0:
58,279,274577,1,2,3:2:0:0:
30,281,274649,1,2,0:2:0:0:
9,294,274721,1,8,3:2:0:0:
0,315,274793,1,8,3:2:0:0:
3,334,274865,1,2,3:2:0:0:
16,347,274937,1,2,0:2:0:0:
34,352,275009,2,0,P|62:340|81:315,2,51.0000009727478,12|0|0,3:2|3:2|3:2,3:2:0:0:
274,139,275298,5,6,3:2:0:0:
177,96,275442,1,0,3:2:0:0:
92,159,275586,1,2,3:2:0:0:
247,166,275731,2,0,L|266:63,2,96,2|2|2,3:2|3:2|3:2,3:2:0:0:
303,291,276163,101,6,3:2:0:0:
400,334,276308,1,0,3:2:0:0:
485,271,276452,1,2,3:2:0:0:
333,267,276596,2,0,L|314:370,2,96,2|2|2,3:2|3:2|3:2,3:2:0:0:
294,113,277029,5,2,3:2:0:0:
189,96,277173,1,12,3:2:0:0:
123,179,277317,1,0,3:2:0:0:
236,171,277461,101,2,3:2:0:0:
163,86,277606,1,8,3:2:0:0:
57,122,277750,1,2,3:2:0:0:
236,171,277894,5,8,0:2:0:0:
238,189,277966,1,8,0:2:0:0:
292,172,278038,1,2,0:2:0:0:
287,189,278110,1,2,0:2:0:0:
343,189,278183,1,8,0:2:0:0:
345,207,278255,1,8,0:2:0:0:
398,188,278327,1,2,0:2:0:0:
393,205,278399,1,2,0:2:0:0:
449,207,278471,2,0,B|440:252|440:252|430:270|430:270|417:360,1,144,8|0,0:2|0:2,0:2:0:0:
320,334,278759,101,6,0:2:0:0:
477,281,278904,1,2,1:2:0:0:
477,281,279192,1,2,0:2:0:0:
320,334,279336,1,8,0:2:0:0:
477,281,279481,1,2,0:2:0:0:
314,227,279625,86,0,L|277:185,3,45.0000017166138,8|8|2|2,0:2|0:2|0:2|0:2,0:2:0:0:
359,93,279913,2,0,L|309:61,3,45.0000017166138,8|8|2|2,0:2|0:2|0:2|0:2,0:2:0:0:
192,173,280202,1,8,0:2:0:0:
362,214,280346,1,8,0:2:0:0:
252,110,280490,21,6,0:2:0:0:
207,270,280634,1,2,0:2:0:0:
207,270,280923,1,2,0:2:0:0:
252,110,281067,1,8,0:2:0:0:
207,270,281211,1,2,0:2:0:0:
102,176,281356,86,0,L|42:191,3,45.0000017166138,8|8|2|2,0:2|0:2|0:2|0:2,0:2:0:0:
56,59,281644,2,0,L|-13:58,3,45.0000017166138,8|8|2|2,0:2|0:2|0:2|0:2,0:2:0:0:
178,24,281933,2,0,L|117:11,3,45.0000017166138,8|8|2|2,0:2|0:2|0:2|0:2,0:2:0:0:
236,88,282221,38,0,B|272:151|344:165|344:165|293:188|239:174|239:174|201:235|114:256|114:256|179:277|229:242,1,510,4|0,0:0|0:0,0:0:0:0:
321,253,284900,102,0,P|279:287|206:289,1,120,0|0,0:2|0:2,0:2:0:0:
123,333,285723,86,0,P|170:344|239:325,1,113.999998608398,0|0,0:2|0:2,0:2:0:0:
321,355,286660,101,0,0:2:0:0:
256,192,286920,12,0,292298,0:2:0:0:
178,239,292869,101,0,0:2:0:0:
297,43,293157,1,2,0:2:0:0:
335,162,293445,1,0,0:2:0:0:
178,239,293734,5,0,0:2:0:0:
146,230,293878,1,0,0:2:0:0:
114,221,294022,1,0,0:2:0:0:
335,162,294311,2,0,P|399:167|451:201,1,107.999996704102,0|0,0:2|0:2,0:2:0:0:
368,344,294888,101,0,0:2:0:0:
440,48,295176,1,2,0:2:0:0:
256,192,295248,12,0,300152,0:2:0:0:
