osu file format v14

[General]
AudioFilename: If.mp3
AudioLeadIn: 0
PreviewTime: 104540
Countdown: 1
SampleSet: Normal
StackLeniency: 0.7
Mode: 0
LetterboxInBreaks: 1
WidescreenStoryboard: 0

[Editor]
Bookmarks: 150766,158915
DistanceSpacing: 0.9
BeatDivisor: 4
GridSize: 8
TimelineZoom: 1.200003

[Metadata]
Title:If
TitleUnicode:If
Artist:Hanatan
ArtistUnicode:花たん
Creator:Spring Roll
Version:Extra
Source:
Tags:Flower ユリカ YURiCa Yurika 無力P MuryokuP Vocaloid Megurine Luka harubilira lsahi
BeatmapID:957770
BeatmapSetID:445869

[Difficulty]
HPDrainRate:6
CircleSize:4.6
OverallDifficulty:9
ApproachRate:9.8
SliderMultiplier:1.6
SliderTickRate:1

[Events]
//Background and Video events
0,0,"8eba70d737.jpg",0,0
//Break Periods
2,129187,135545
2,184716,202162
//Storyboard Layer 0 (Background)
//Storyboard Layer 1 (Fail)
//Storyboard Layer 2 (Pass)
//Storyboard Layer 3 (Foreground)
//Storyboard Layer 4 (Overlay)
//Storyboard Sound Samples

[TimingPoints]
1055,576.923076923077,4,2,1,50,1,0
14901,288.461538461538,3,1,1,80,1,0
20958,-200,3,1,2,80,0,0
21535,-200,3,1,1,80,0,0
21824,-100,3,1,20,60,0,0
21896,-100,3,1,1,80,0,0
63362,-133.333333333333,3,1,1,50,0,0
91054,-133.333333333333,3,1,1,60,0,0
92208,-133.333333333333,3,2,1,60,0,0
92785,-133.333333333333,3,1,1,60,0,0
95670,-133.333333333333,3,2,1,60,0,0
96247,-133.333333333333,3,1,1,60,0,0
101439,-133.333333333333,3,1,2,80,0,0
101511,-133.333333333333,3,1,1,60,0,0
104612,-200,3,1,1,60,0,0
104900,-100,3,1,20,70,0,1
104973,-100,3,1,1,80,0,1
129131,-100,3,1,1,70,0,0
142977,-100,3,1,3,70,0,0
143050,-100,3,1,1,70,0,0
144708,-100,3,1,3,70,0,0
144780,-100,3,1,1,70,0,0
156824,-100,3,1,3,70,0,0
156896,-100,3,1,1,70,0,0
158554,-100,3,1,3,70,0,0
158626,-100,3,1,1,70,0,0
160285,-100,3,1,3,70,0,0
160357,-100,3,1,1,70,0,0
162016,-100,3,1,3,70,0,0
162088,-100,3,1,1,70,0,0
163747,-200,3,1,2,60,0,0
163819,-200,3,2,1,50,0,0
167208,-100,3,1,1,70,0,0
202671,618.556701030928,3,2,1,40,1,0
203399,618.556701030928,3,2,1,40,1,0
227522,-133.333333333333,3,2,1,40,0,0
228141,-200,3,2,1,30,0,0
229378,288.461538461538,3,1,1,70,1,0
230531,-100,3,1,1,60,0,0
231108,-90.9090909090909,3,1,20,80,0,1
231180,-90.9090909090909,3,1,1,80,0,1
255339,-90.9090909090909,3,1,3,80,0,1
255411,-90.9090909090909,3,1,1,80,0,1
272647,-90.9090909090909,3,1,1,70,0,0
279570,-133.333333333333,3,1,1,70,0,0
284762,-133.333333333333,3,1,1,60,0,0
286493,-133.333333333333,3,1,1,50,0,0
288224,-133.333333333333,3,1,1,40,0,0
289954,-133.333333333333,3,1,1,30,0,0
291685,-133.333333333333,3,1,1,20,0,0
295147,-133.333333333333,3,2,1,10,0,0

[Colours]
Combo1 : 255,255,128
Combo2 : 255,128,128
Combo3 : 0,255,255
Combo4 : 87,87,255

[HitObjects]
336,144,1055,6,0,P|352:192|336:256,1,80,2|0,0:0|0:0,0:0:0:0:
256,304,1631,1,2,0:0:0:0:
161,220,1920,2,0,P|161:181|176:144,2,80,2|0|2,0:0|0:0|0:0,0:0:0:0:
464,176,3074,5,0,0:0:0:0:
416,96,3363,1,0,0:0:0:0:
48,176,3939,5,0,0:0:0:0:
96,96,4228,1,2,0:0:0:0:
96,96,4372,1,2,0:0:0:0:
96,96,4516,2,0,P|144:88|192:96,1,80,2|2,0:0|0:0,0:0:0:0:
256,208,5093,1,0,0:0:0:0:
337,91,5381,2,0,P|376:88|416:96,2,80,2|2|0,0:0|0:0|0:0,0:0:0:0:
256,208,6247,1,0,0:0:0:0:
256,208,6824,1,0,0:0:0:0:
176,320,7112,2,0,B|136:312|136:312|88:272,2,80,0|2|0,0:0|0:0|0:0,0:0:0:0:
336,320,7978,6,0,B|376:312|376:312|424:272,1,80,2|2,0:0|0:0,0:0:0:0:
432,184,8555,1,2,0:0:0:0:
320,144,8843,2,0,P|320:104|344:64,2,80,2|0|2,0:0|0:0|0:0,0:0:0:0:
432,320,9997,5,0,0:0:0:0:
432,320,10285,1,0,0:0:0:0:
256,48,10862,5,0,0:0:0:0:
256,136,11151,2,0,L|256:184,1,40,2|2,0:0|0:0,0:0:0:0:
208,256,11439,2,0,P|160:272|104:264,1,80,2|2,0:0|0:0,0:0:0:0:
256,352,12016,1,0,0:0:0:0:
304,256,12305,2,0,P|341:270|380:271,2,80,2|2|0,0:0|0:0|0:0,0:0:0:0:
256,120,13170,1,0,0:0:0:0:
256,120,13747,1,0,0:0:0:0:
256,328,14035,1,0,0:0:0:0:
256,328,14901,6,0,P|176:344|104:304,1,160,4|0,0:0|0:0,0:0:0:0:
320,224,15333,1,0,0:0:0:0:
320,224,15477,2,0,L|416:232,1,80,8|0,0:0|0:0,0:0:0:0:
304,56,15766,2,0,L|272:136,1,80,8|0,0:0|0:0,0:0:0:0:
144,112,16054,2,0,L|184:208,1,80,8|0,0:0|0:0,0:0:0:0:
40,248,16343,2,0,L|128:288,1,80,8|0,0:0|0:0,0:0:0:0:
400,344,16631,6,0,P|456:288|440:192,1,160,4|0,0:0|0:0,0:0:0:0:
304,184,17064,1,0,0:0:0:0:
304,184,17208,2,0,P|280:224|280:272,1,80,8|0,0:0|0:0,0:0:0:0:
144,328,17497,2,0,L|32:328,1,80,8|0,0:0|0:0,0:0:0:0:
152,208,17785,2,0,L|64:184,1,80,8|0,0:0|0:0,0:0:0:0:
200,96,18074,2,0,L|128:48,1,80,8|0,0:0|0:0,0:0:0:0:
408,80,18362,6,0,B|448:104|448:104|376:136|312:96,1,160,4|0,0:0|0:0,0:0:0:0:
344,32,18795,1,0,0:0:0:0:
432,200,18939,2,0,P|432:248|424:296,1,80,8|0,0:0|0:0,0:0:0:0:
264,352,19227,2,0,L|280:264,1,80,8|0,0:0|0:0,0:0:0:0:
208,128,19516,2,0,L|193:206,1,80,8|0,0:0|0:0,0:0:0:0:
72,336,19804,2,0,L|88:248,1,80,8|0,0:0|0:0,0:0:0:0:
48,96,20093,6,0,B|120:88|120:88|136:96|136:96|208:88,1,160,4|0,0:0|0:0,0:0:0:0:
360,32,20525,1,0,0:0:0:0:
448,88,20670,2,0,P|464:136|448:192,1,80,8|0,0:0|0:0,0:0:0:0:
248,128,20958,6,2,P|208:160|152:120,1,120
154,116,21535,5,0,0:0:0:0:
336,176,21824,6,0,B|414:142|496:179|496:179|439:228,1,240,6|2,0:0|0:0,0:0:0:0:
356,260,22401,2,0,L|366:345,1,80,0|2,0:0|0:0,0:0:0:0:
465,273,22689,1,8,0:0:0:0:
269,230,22833,1,0,0:0:0:0:
407,97,22977,2,0,B|431:54|431:54|447:174,1,160,2|2,0:0|0:0,0:0:0:0:
465,273,23410,1,0,0:0:0:0:
232,216,23554,5,2,0:0:0:0:
320,304,23699,2,0,B|256:336|208:296|208:296|240:256,1,160,2|0,0:0|0:0,0:0:0:0:
328,168,24131,1,8,0:0:0:0:
104,200,24275,1,8,0:0:0:0:
165,22,24420,2,0,P|232:80|220:164,1,160,0|2,0:0|0:0,0:0:0:0:
168,320,24852,1,8,0:0:0:0:
48,192,24997,2,0,L|32:96,1,80,2|0,0:0|0:0,0:0:0:0:
32,296,25285,5,10,0:0:0:0:
272,240,25429,2,0,P|200:216|112:256,1,160,2|2,0:0|0:0,0:0:0:0:
256,336,25862,1,2,0:0:0:0:
360,160,26006,1,0,0:0:0:0:
408,256,26150,2,0,P|416:296|408:344,1,80,2|8,0:0|0:0,0:0:0:0:
272,240,26439,1,0,0:0:0:0:
448,176,26583,1,0,0:0:0:0:
264,224,26727,1,8,0:0:0:0:
440,192,26872,1,8,0:0:0:0:
256,128,27016,5,2,0:0:0:0:
432,208,27160,2,0,B|464:136|464:136|432:56,1,160,2|0,0:0|0:0,0:0:0:0:
296,24,27593,1,8,0:0:0:0:
168,128,27737,1,8,0:0:0:0:
328,120,27881,2,0,L|416:112,1,80,2|0,0:0|0:0,0:0:0:0:
160,224,28170,2,0,L|80:231,1,80,8|8,0:0|0:3,0:0:0:0:
280,288,28458,1,8,0:3:0:0:
352,152,28602,1,4,0:3:0:0:
208,64,28747,6,0,P|104:48|56:96,1,160,6|0,0:0|0:0,0:0:0:0:
256,192,29179,1,8,0:0:0:0:
312,24,29324,1,8,0:0:0:0:
352,152,29468,1,8,0:0:0:0:
304,24,29612,6,0,L|464:48,1,160,2|0,0:0|0:0,0:0:0:0:
336,256,30045,1,8,0:0:0:0:
208,64,30189,1,8,0:0:0:0:
352,152,30333,1,8,0:0:0:0:
96,264,30477,5,2,0:0:0:0:
96,264,30622,2,0,P|64:192|112:112,1,160,4|0,0:0|0:0,0:0:0:0:
264,248,31054,2,0,P|264:304|248:336,1,80,8|8,0:0|0:0,0:0:0:0:
232,152,31343,5,2,0:0:0:0:
232,152,31487,1,8,0:0:0:0:
408,256,31631,1,8,0:0:0:0:
408,256,31775,1,8,0:0:0:0:
176,224,31920,1,0,0:0:0:0:
176,224,32064,1,2,0:0:0:0:
320,56,32208,5,2,0:0:0:0:
429,123,32352,2,0,P|453:203|397:259,1,160,4|0,0:0|0:0,0:0:0:0:
304,336,32785,2,0,P|264:328|224:336,1,80,2|0,0:0|0:0,0:0:0:0:
56,296,33074,6,0,P|48:256|56:208,1,80,8|8,0:0|0:0,0:0:0:0:
144,32,33362,2,0,P|152:72|144:120,1,80,2|8,0:0|0:0,0:0:0:0:
248,256,33650,2,0,P|240:216|248:168,1,80,8|8,0:0|0:0,0:0:0:0:
296,88,33939,5,2,0:0:0:0:
464,208,34083,1,8,0:0:0:0:
472,200,34372,1,2,0:0:0:0:
200,160,34516,1,8,0:0:0:0:
192,152,34804,6,0,L|192:232,1,80,2|0,0:0|0:0,0:0:0:0:
288,368,35093,2,0,L|288:288,1,80,8|8,0:0|0:0,0:0:0:0:
304,160,35381,1,8,0:3:0:0:
392,272,35525,1,4,0:3:0:0:
136,328,35670,6,0,B|40:328|32:232|32:232|72:256|112:240,1,240,4|2,0:0|0:0,0:0:0:0:
216,280,36247,2,0,P|224:240|208:184,1,80,8|2,0:0|0:0,0:0:0:0:
88,144,36535,1,8,0:0:0:0:
360,344,36824,1,8,0:0:0:0:
336,40,37112,1,8,0:0:0:0:
360,344,37400,5,2,0:0:0:0:
458,264,37545,2,0,P|458:184|370:176,1,160,2|8,0:0|0:0,0:0:0:0:
297,255,37977,2,0,P|281:207|281:167,1,80,8|2,0:0|0:0,0:0:0:0:
232,336,38266,2,0,P|168:328|136:224,2,160,8|8|8,0:0|0:0|0:0,0:0:0:0:
360,344,38987,1,8,0:0:0:0:
400,144,39131,5,2,0:0:0:0:
312,256,39275,2,0,B|336:280|392:280|424:256|424:256|384:240,1,160,8|2,0:0|0:0,0:0:0:0:
240,184,39708,1,2,0:0:0:0:
360,344,39852,1,2,0:0:0:0:
512,192,39997,2,0,P|464:176|416:176,1,80,8|0,0:0|0:0,0:0:0:0:
328,48,40285,2,0,P|320:88|328:144,1,80,8|0,0:0|0:0,0:0:0:0:
307,334,40574,2,0,P|315:294|307:238,1,80,8|2,0:0|0:0,0:0:0:0:
176,112,40862,5,8,0:0:0:0:
80,176,41006,2,0,P|56:240|104:328,1,160,8|0,0:0|0:0,0:0:0:0:
216,200,41439,2,0,L|224:280,1,80,2|0,0:0|0:0,0:0:0:0:
304,120,41727,1,8,0:0:0:0:
304,120,41872,1,0,0:0:0:0:
416,280,42016,1,8,0:0:0:0:
416,280,42160,1,2,0:0:0:0:
472,136,42304,2,0,P|480:88|472:48,1,80,8|4,0:3|0:3,0:0:0:0:
504,232,42593,6,0,P|408:232|360:176,1,160,4|0,0:0|0:0,0:0:0:0:
336,48,43025,1,8,0:0:0:0:
264,232,43170,1,8,0:0:0:0:
232,120,43314,1,8,0:0:0:0:
112,224,43458,6,0,P|83:147|104:72,1,160,2|0,0:0|0:0,0:0:0:0:
248,16,43891,1,8,0:0:0:0:
384,160,44035,1,8,0:0:0:0:
232,120,44179,1,8,0:0:0:0:
456,80,44324,5,2,0:0:0:0:
384,160,44468,2,0,P|368:240|392:312,1,160,4|0,0:0|0:0,0:0:0:0:
256,224,44900,2,0,L|248:304,1,80,8|0,0:0|0:0,0:0:0:0:
160,128,45189,6,0,P|136:200|56:256,2,160,8|8|8,0:0|0:0|0:0,0:0:0:0:
112,40,45910,1,8,0:0:0:0:
64,112,46054,5,2,0:0:0:0:
272,80,46199,1,2,0:0:0:0:
280,72,46487,1,2,0:0:0:0:
312,232,46631,1,2,0:0:0:0:
376,96,46775,1,2,0:0:0:0:
224,192,46920,6,0,L|176:200,2,40,8|0|0,0:0|0:0|0:0,0:0:0:0:
408,232,47208,2,0,L|447:225,2,40,8|0|0,0:0|0:0|0:0,0:0:0:0:
344,328,47497,1,8,0:0:0:0:
344,328,47569,1,0,0:0:0:0:
344,328,47641,1,0,0:0:0:0:
168,288,47785,6,0,L|80:296,1,80,2|2,0:0|0:0,0:0:0:0:
151,312,48218,2,0,L|72:320,1,80,2|2,0:0|0:0,0:0:0:0:
32,184,48506,1,2,0:0:0:0:
160,56,48650,5,8,0:0:0:0:
165,71,48723,1,0,0:0:0:0:
170,86,48795,1,0,0:0:0:0:
268,81,48939,1,8,0:0:0:0:
269,96,49011,1,0,0:0:0:0:
270,111,49083,1,0,0:0:0:0:
372,115,49227,1,8,0:0:0:0:
369,130,49300,1,0,0:0:0:0:
366,145,49372,1,0,0:0:0:0:
327,263,49516,6,0,P|370:269|414:263,2,80,2|0|8,0:0|0:0|0:0,0:0:0:0:
162,251,49949,2,0,P|156:308|161:353,2,80,2|0|8,0:0|0:0|0:0,0:0:0:0:
62,114,50381,2,0,P|64:157|50:221,2,80,2|0|8,0:0|0:0|0:0,0:0:0:0:
206,36,50814,5,2,0:0:0:0:
233,43,50886,1,0,0:0:0:0:
260,45,50958,1,0,0:0:0:0:
287,38,51030,1,0,0:0:0:0:
314,32,51102,1,0,0:0:0:0:
342,34,51175,1,0,0:0:0:0:
369,41,51247,6,0,P|376:80|372:134,2,80,2|0|8,0:0|0:0|0:0,0:0:0:0:
283,331,51679,2,0,P|276:292|280:238,2,80,2|0|8,0:0|0:0|0:0,0:0:0:0:
152,151,52112,2,0,L|51:164,2,80,2|0|8,0:0|0:0|0:0,0:0:0:0:
415,214,52545,5,2,0:0:0:0:
256,319,52689,1,0,0:0:0:0:
239,119,52833,1,8,0:0:0:0:
415,214,52977,5,2,0:0:0:0:
283,246,53122,2,0,B|254:182|288:134|288:134|303:182,1,160,2|2,0:0|0:0,0:0:0:0:
344,328,53554,1,2,0:0:0:0:
200,232,53699,1,2,0:0:0:0:
397,243,53843,6,0,L|445:251,2,40,8|0|0,0:0|0:0|0:0,0:0:0:0:
353,136,54131,2,0,L|401:128,2,40,8|0|0,0:0|0:0|0:0,0:0:0:0:
131,176,54420,1,8,0:0:0:0:
131,176,54492,1,0,0:0:0:0:
131,176,54564,1,0,0:0:0:0:
310,239,54708,5,2,0:0:0:0:
124,266,54852,2,0,B|179:291|234:257|234:257|224:235|183:227,1,160,2|2,0:0|0:0,0:0:0:0:
271,339,55285,1,2,0:0:0:0:
353,136,55429,1,2,0:0:0:0:
380,323,55574,6,0,L|391:369,2,40,8|0|0,0:0|0:0|0:0,0:0:0:0:
411,200,55862,2,0,L|420:161,2,40,8|0|0,0:0|0:0|0:0,0:0:0:0:
387,214,56078,1,0,0:0:0:0:
359,219,56150,1,8,0:0:0:0:
330,216,56223,1,0,0:0:0:0:
304,204,56295,1,0,0:0:0:0:
284,184,56367,1,0,0:0:0:0:
272,158,56439,6,0,L|262:266,2,80,2|0|8,0:0|0:0|0:0,0:0:0:0:
150,185,56872,2,0,L|143:97,2,80,2|0|8,0:0|0:0|0:0,0:0:0:0:
115,318,57304,2,0,P|74:329|9:316,2,80,2|0|8,0:0|0:0|0:0,0:0:0:0:
238,342,57737,5,2,0:0:0:0:
263,329,57809,1,0,0:0:0:0:
290,323,57881,1,0,0:0:0:0:
317,321,57953,1,0,0:0:0:0:
344,324,58025,1,0,0:0:0:0:
371,331,58098,1,0,0:0:0:0:
395,345,58170,6,0,P|405:307|403:242,2,80,2|0|8,0:0|0:0|0:0,0:0:0:0:
353,96,58602,2,0,P|343:134|345:199,2,80,2|0|8,0:0|0:0|0:0,0:0:0:0:
224,239,59035,2,0,P|234:201|232:136,2,80,2|0|8,0:0|0:0|0:0,0:0:0:0:
124,282,59468,5,2,0:0:0:0:
24,209,59612,1,8,0:0:0:0:
81,97,59756,1,8,0:0:0:0:
89,196,63362,6,0,L|221:182,1,120.000004577637,4|0,0:0|0:0,0:0:0:0:
305,267,63795,1,2,0:0:0:0:
205,302,63939,1,0,0:0:0:0:
242,199,64083,1,0,0:0:0:0:
391,237,64227,2,0,L|395:315,1,60.0000022888184,8|2,0:0|0:0,0:0:0:0:
330,164,64516,2,0,P|322:114|329:40,1,120.000004577637
38,217,65093,5,2,0:0:0:0:
128,255,65237,2,0,P|143:188|137:117,1,120.000004577637,2|0,0:0|0:0,0:0:0:0:
458,171,65814,1,2,0:0:0:0:
391,237,65958,2,0,L|330:230,1,60.0000022888184,8|0,0:0|0:0,0:0:0:0:
216,193,66247,1,0,0:0:0:0:
319,135,66391,1,2,0:0:0:0:
299,237,66535,1,8,0:0:0:0:
301,257,66824,5,2,0:0:0:0:
224,331,66968,2,0,P|170:317|100:337,1,120.000004577637,2|0,0:0|0:0,0:0:0:0:
115,127,67400,2,0,P|131:168|133:201,1,60.0000022888184
1,278,67689,2,0,P|4:243|16:214,1,60.0000022888184,8|0,0:0|0:0,0:0:0:0:
179,268,67977,2,0,P|176:303|164:332,1,60.0000022888184
70,211,68266,1,8,0:0:0:0:
187,170,68410,1,2,0:0:0:0:
65,177,68554,5,2,0:0:0:0:
203,263,68699,2,0,P|260:236|281:167,1,120.000004577637,2|0,0:0|0:0,0:0:0:0:
210,33,69131,2,0,P|201:78|202:105,1,60.0000022888184
428,196,69420,2,0,P|426:157|414:122,1,60.0000022888184,8|0,0:0|0:0,0:0:0:0:
320,262,69708,2,0,P|312:295|311:329,1,60.0000022888184
251,151,69997,2,0,L|186:155,1,60.0000022888184
41,222,70285,5,2,0:0:0:0:
142,264,70429,2,0,P|163:212|130:137,1,120.000004577637,2|0,0:0|0:0,0:0:0:0:
58,64,70862,1,0,0:0:0:0:
126,169,71006,1,0,0:0:0:0:
0,139,71150,1,8,0:0:0:0:
170,81,71295,2,0,B|250:77|250:77|212:103,1,120.000004577637,2|0,0:0|0:0,0:0:0:0:
222,245,71727,2,0,P|212:198|217:166,1,60.0000022888184,8|0,0:0|0:0,0:0:0:0:
306,138,72016,5,0,0:0:0:0:
330,235,72160,2,0,P|390:254|456:220,1,120.000004577637,2|0,0:0|0:0,0:0:0:0:
485,140,72593,2,0,P|485:107|471:74,1,60.0000022888184
365,272,72881,2,0,P|356:314|361:344,1,60.0000022888184,8|0,0:0|0:0,0:0:0:0:
306,138,73170,2,0,P|276:124|232:127,1,60.0000022888184
134,150,73458,1,8,0:0:0:0:
214,214,73602,1,2,0:0:0:0:
114,159,73747,5,2,0:0:0:0:
232,205,73891,2,0,P|239:255|226:334,1,120.000004577637,2|0,0:0|0:0,0:0:0:0:
69,323,74324,2,0,P|65:282|70:246,1,60.0000022888184
152,67,74612,2,0,P|156:101|150:146,1,60.0000022888184,8|0,0:0|0:0,0:0:0:0:
280,233,74900,2,0,P|231:235|205:230,1,60.0000022888184
325,102,75189,2,0,P|359:100|397:103,1,60.0000022888184,8|0,0:0|0:0,0:0:0:0:
494,233,75477,5,2,0:0:0:0:
368,270,75622,2,0,P|312:238|314:175,1,120.000004577637,10|0,0:0|0:0,0:0:0:0:
421,125,76054,2,0,L|420:189,1,60.0000022888184,8|0,0:0|0:0,0:0:0:0:
424,351,76343,1,10,0:0:0:0:
413,355,76631,2,0,L|332:351,1,60.0000022888184
208,316,76920,2,0,L|133:319,1,60.0000022888184,8|8,0:0|0:0,0:0:0:0:
32,322,77208,6,0,B|63:253|30:201|30:201|13:240|23:267,1,180.000006866455,4|0,0:0|0:0,0:0:0:0:
118,176,77785,1,0,0:0:0:0:
13,115,77929,1,0,0:0:0:0:
145,66,78074,2,0,L|210:71,1,60.0000022888184,8|0,0:0|0:0,0:0:0:0:
246,183,78362,2,0,P|294:167|375:168,1,120.000004577637
484,191,78795,1,0,0:0:0:0:
354,242,78939,5,2,0:0:0:0:
503,208,79083,2,0,P|521:264|511:322,1,120.000004577637,2|0,0:0|0:0,0:0:0:0:
397,290,79516,2,0,P|392:324|399:357,1,60.0000022888184
256,251,79804,2,0,P|267:206|261:182,1,60.0000022888184,8|0,0:0|0:0,0:0:0:0:
154,82,80093,2,0,P|164:124|187:151,1,60.0000022888184
335,84,80381,2,0,P|295:77|264:86,1,60.0000022888184,8|0,0:0|0:0,0:0:0:0:
30,146,80670,5,2,0:0:0:0:
33,233,80814,2,0,P|96:245|152:234,1,120.000004577637,2|0,0:0|0:0,0:0:0:0:
211,324,81247,2,0,P|216:368|210:395,1,60.0000022888184
339,296,81535,2,0,P|386:302|418:297,1,60.0000022888184,8|0,0:0|0:0,0:0:0:0:
277,115,81824,2,0,P|270:153|274:178,1,60.0000022888184
456,139,82112,2,0,P|460:109|453:75,1,60.0000022888184,8|0,0:0|0:0,0:0:0:0:
219,23,82400,6,0,P|169:27|122:91,1,120.000004577637,2|0,0:0|0:0,0:0:0:0:
169,207,82833,2,0,P|238:225|296:192,1,120.000004577637,2|0,0:0|0:0,0:0:0:0:
456,140,83266,2,0,P|462:107|456:76,1,60.0000022888184,8|0,0:0|0:0,0:0:0:0:
412,232,83554,2,0,P|406:265|412:296,1,60.0000022888184
352,139,83843,1,0,0:0:0:0:
352,139,84131,5,2,0:0:0:0:
292,220,84275,2,0,P|237:236|174:209,1,120.000004577637,2|0,0:0|0:0,0:0:0:0:
43,141,84708,1,0,0:0:0:0:
156,111,84852,1,0,0:0:0:0:
62,159,84997,1,8,0:0:0:0:
213,175,85141,2,0,P|239:134|215:56,1,120.000004577637
125,208,85574,2,0,P|120:244|130:286,1,60.0000022888184,8|0,0:0|0:0,0:0:0:0:
221,341,85862,5,2,0:0:0:0:
328,332,86006,2,0,B|350:315|387:335|387:335|426:327|430:274,1,120.000004577637,2|0,0:0|0:0,0:0:0:0:
430,287,86583,1,0,0:0:0:0:
348,216,86727,2,0,P|337:163|342:136,1,60.0000022888184,8|0,0:0|0:0,0:0:0:0:
314,55,87016,2,0,P|264:65|234:56,1,60.0000022888184
97,151,87304,2,0,P|143:145|179:153,1,60.0000022888184,8|0,0:0|0:0,0:0:0:0:
236,240,87593,5,2,0:0:0:0:
145,315,87737,2,0,P|81:302|70:231,1,120.000004577637,2|0,0:0|0:0,0:0:0:0:
73,249,88314,1,0,0:0:0:0:
154,170,88458,2,0,P|157:129|150:97,1,60.0000022888184,8|0,0:0|0:0,0:0:0:0:
283,183,88747,2,0,P|321:186|350:182,1,60.0000022888184
392,67,89035,2,0,P|357:63|326:66,1,60.0000022888184,8|0,0:0|0:0,0:0:0:0:
214,108,89324,5,2,0:0:0:0:
304,247,89468,2,0,B|326:198|304:161|304:161|282:177|273:198,1,120.000004577637,10|0,0:0|0:0,0:0:0:0:
159,238,89900,2,0,P|194:244|226:235,1,60.0000022888184,8|0,0:0|0:0,0:0:0:0:
447,236,90189,2,0,P|457:277|456:309,1,60.0000022888184,8|0,0:0|0:0,0:0:0:0:
335,300,90477,2,0,P|332:332|322:362,1,60.0000022888184
216,358,90766,1,8,0:0:0:0:
155,145,90910,1,10,0:0:0:0:
58,164,91054,6,0,P|20:265|50:334,2,180.000006866455,2|2|8,0:0|0:0|0:0,0:0:0:0:
191,256,92208,1,2,0:0:0:0:
212,266,92280,1,2,0:0:0:0:
235,269,92352,1,2,0:0:0:0:
259,267,92425,1,2,0:0:0:0:
281,258,92497,1,2,0:0:0:0:
457,157,92785,6,0,L|443:282,1,120.000004577637,2|0,0:0|0:0,0:0:0:0:
363,180,93218,2,0,L|376:60,1,120.000004577637,2|0,0:0|0:0,0:0:0:0:
273,134,93650,1,8,0:0:0:0:
265,123,93939,2,0,L|195:126,1,60.0000022888184,2|0,0:0|0:0,0:0:0:0:
56,198,94227,2,0,L|115:195,1,60.0000022888184,2|0,0:0|0:0,0:0:0:0:
236,384,94516,6,0,P|273:332|231:222,2,180.000006866455,2|2|8,0:0|0:0|0:0,0:0:0:0:
67,347,95670,1,2,0:0:0:0:
50,329,95742,1,2,0:0:0:0:
45,305,95814,1,2,0:0:0:0:
51,282,95886,1,2,0:0:0:0:
67,264,95958,1,2,0:0:0:0:
143,84,96247,6,0,P|209:102|286:86,1,120.000004577637,2|0,0:0|0:0,0:0:0:0:
365,55,96679,2,0,P|383:117|372:188,1,120.000004577637,2|0,0:0|0:0,0:0:0:0:
221,316,97112,2,0,P|213:272|218:235,1,60.0000022888184,8|0,0:0|0:0,0:0:0:0:
426,293,97400,2,0,P|419:339|409:360,1,60.0000022888184
299,151,97689,2,0,P|328:143|379:147,1,60.0000022888184
323,305,97977,6,0,P|259:315|201:302,1,120.000004577637,2|0,0:0|0:0,0:0:0:0:
103,317,98410,1,2,0:0:0:0:
96,294,98699,1,0,0:0:0:0:
167,191,98843,2,0,P|181:133|166:58,2,120.000004577637,8|0|0,0:0|0:0|0:0,0:0:0:0:
258,350,99708,6,0,P|320:297|327:183,1,180.000006866455,2|0,0:0|0:0,0:0:0:0:
164,82,100285,2,0,L|84:70,1,60.0000022888184
298,93,100574,2,0,B|335:99|367:63|367:63|435:67|452:122,1,180.000006866455,8|0,0:0|0:0,0:0:0:0:
242,253,101150,1,0,0:0:0:0:
228,166,101295,1,0,0:0:0:0:
387,262,101439,1,4,0:0:0:0:
387,262,103170,6,0,L|312:266,1,60.0000022888184,0|2,0:0|0:0,0:0:0:0:
127,258,103458,2,0,L|186:254,1,60.0000022888184,0|2,0:0|0:0,0:0:0:0:
310,169,103747,1,0,0:0:0:0:
310,169,103819,1,0,0:0:0:0:
310,169,103891,1,2,0:0:0:0:
193,50,104035,5,0,0:0:0:0:
151,43,104107,1,0,0:0:0:0:
110,55,104179,1,0,0:0:0:0:
83,87,104251,1,0,0:0:0:0:
81,129,104324,1,0,0:0:0:0:
107,161,104396,1,0,0:0:0:0:
135,191,104468,1,0,0:0:0:0:
152,229,104540,1,0,0:0:0:0:
154,271,104612,6,0,P|150:305|139:330,1,60
98,348,104900,6,0,L|270:331,1,160,6|0,0:0|0:0,0:0:0:0:
396,215,105333,1,2,0:0:0:0:
444,337,105477,1,0,0:0:0:0:
242,250,105622,1,0,0:0:0:0:
405,111,105766,6,0,P|468:120|496:149,1,80,8|0,0:0|0:0,0:0:0:0:
318,266,106054,2,0,P|261:262|226:231,1,80,8|2,0:0|0:0,0:0:0:0:
83,140,106343,1,0,0:0:0:0:
218,45,106487,1,0,0:0:0:0:
142,284,106631,5,2,0:0:0:0:
65,137,106775,2,0,P|150:146|168:215,1,160
27,331,107208,2,0,P|16:286|25:228,1,80,8|0,0:0|0:0,0:0:0:0:
447,263,107497,6,0,P|396:302|293:255,1,160,8|2,0:0|0:0,0:0:0:0:
303,138,107929,1,0,0:0:0:0:
213,328,108074,1,8,0:0:0:0:
189,180,108218,1,0,0:0:0:0:
225,337,108362,5,2,0:0:0:0:
145,238,108506,2,0,B|170:201|233:209|259:229|259:229|213:251,1,160
355,346,108939,2,0,P|373:290|362:248,1,80,8|0,0:0|0:0,0:0:0:0:
337,53,109227,5,8,0:0:0:0:
337,53,109516,1,2,0:0:0:0:
185,89,109660,1,0,0:0:0:0:
295,163,109804,2,0,L|397:152,1,80,8|0,0:0|0:0,0:0:0:0:
199,244,110093,5,2,0:0:0:0:
264,350,110237,2,0,P|317:337|342:233,1,160
170,157,110670,2,0,P|128:165|74:151,1,80,8|0,0:0|0:0,0:0:0:0:
296,66,110958,6,0,P|302:121|296:172,1,80,8|0,0:0|0:0,0:0:0:0:
179,372,111247,2,0,P|173:317|179:266,1,80,2|8,0:0|0:3,0:0:0:0:
316,320,111535,1,8,0:3:0:0:
97,264,111679,1,4,0:3:0:0:
295,185,111824,6,0,P|373:187|428:276,1,160,4|0,0:0|0:0,0:0:0:0:
170,203,112256,2,0,P|138:132|165:42,1,160
287,35,112689,5,8,0:0:0:0:
388,198,112833,1,0,0:0:0:0:
242,120,112977,1,2,0:0:0:0:
434,113,113122,1,0,0:0:0:0:
293,202,113266,1,8,0:0:0:0:
383,32,113409,1,0,0:0:0:0:
388,198,113554,5,2,0:0:0:0:
285,311,113699,2,0,P|223:284|124:298,1,160
391,351,114131,2,0,P|436:318|460:275,1,80,8|0,0:0|0:0,0:0:0:0:
312,50,114420,6,0,P|296:102|301:142,1,80,8|0,0:0|0:0,0:0:0:0:
172,346,114708,2,0,P|157:295|126:261,1,80,2|0,0:0|0:0,0:0:0:0:
6,118,114997,2,0,L|115:115,1,80,8|0,0:0|0:0,0:0:0:0:
431,127,115285,6,0,P|448:193|442:242,1,80,2|0,0:0|0:0,0:0:0:0:
243,345,115574,2,0,L|260:250,1,80
161,49,115862,2,0,P|136:88|130:137,1,80,8|0,0:0|0:0,0:0:0:0:
361,298,116150,5,8,0:0:0:0:
260,92,116295,1,0,0:0:0:0:
156,275,116439,1,8,0:0:0:0:
396,283,116583,1,0,0:0:0:0:
252,77,116727,1,8,0:0:0:0:
145,300,116872,1,0,0:0:0:0:
382,137,117016,5,2,0:0:0:0:
237,177,117160,2,0,B|172:147|120:164|120:164|169:218,1,160,8|0,0:0|0:0,0:0:0:0:
307,356,117593,2,0,P|261:367|216:356,1,80
63,140,117881,6,0,L|157:129,1,80,8|0,0:0|0:0,0:0:0:0:
449,244,118170,2,0,L|355:255,1,80,8|0,0:0|0:0,0:0:0:0:
121,309,118458,1,8,0:3:0:0:
391,75,118602,1,4,0:3:0:0:
252,260,118747,6,0,P|201:194|217:101,1,160,4|0,0:0|0:0,0:0:0:0:
465,33,119179,2,0,P|516:99|500:192,1,160
403,353,119612,6,0,P|347:345|310:326,1,80,8|0,0:0|0:0,0:0:0:0:
51,261,119900,2,0,P|130:243|154:244,1,80,8|0,0:0|0:0,0:0:0:0:
329,67,120189,2,0,L|321:160,1,80
205,323,120477,5,2,0:0:0:0:
63,98,120622,2,0,P|112:49|227:71,1,160
305,201,121054,1,0,0:0:0:0:
130,231,121199,1,0,0:0:0:0:
327,95,121343,6,0,L|416:106,1,80,8|0,0:0|0:0,0:0:0:0:
158,63,121631,2,0,L|78:53,1,80,10|0,0:0|0:0,0:0:0:0:
225,270,121920,1,2,0:0:0:0:
241,30,122064,1,0,0:0:0:0:
350,252,122208,5,2,0:0:0:0:
172,166,122352,2,0,B|218:135|290:154|290:154|276:177|245:190,1,160
65,292,122785,2,0,P|47:242|51:200,1,80,8|0,0:0|0:0,0:0:0:0:
222,355,123074,5,8,0:0:0:0:
222,355,123362,2,0,P|247:288|241:253,1,80,2|0,0:0|0:0,0:0:0:0:
161,122,123650,1,0,0:0:0:0:
163,277,123795,1,0,0:0:0:0:
389,218,123939,5,2,0:0:0:0:
276,161,124083,2,0,P|186:142|101:175,1,160
291,266,124516,1,8,0:0:0:0:
386,106,124660,1,0,0:0:0:0:
487,205,124804,6,0,L|481:305,1,80,8|0,0:0|0:0,0:0:0:0:
299,169,125093,2,0,L|304:278,1,80,2|0,0:0|0:0,0:0:0:0:
494,137,125381,1,8,0:3:0:0:
317,201,125525,1,4,0:3:0:0:
446,49,125670,6,0,P|389:27|282:66,1,160,4|0,0:0|0:0,0:0:0:0:
195,153,126102,2,0,P|143:174|42:137,1,160
122,68,126535,5,8,0:0:0:0:
57,274,126679,1,0,0:0:0:0:
217,57,126824,1,8,0:0:0:0:
176,296,126968,1,0,0:0:0:0:
308,43,127112,1,8,0:0:0:0:
288,320,127256,1,0,0:0:0:0:
408,88,127400,5,2,0:0:0:0:
426,282,127545,2,0,P|350:236|348:146,1,160
408,88,127977,1,8,0:0:0:0:
185,153,128122,1,0,0:0:0:0:
248,56,128266,2,0,B|296:74|336:49|336:49|358:61|358:61|412:47,2,160,8|0|0,0:0|0:0|0:0,0:0:0:0:
120,40,128987,1,0,0:0:0:0:
137,84,136054,6,0,B|190:91|190:91|216:78|216:78|256:100|308:87,1,160,4|0,0:0|0:0,0:0:0:0:
375,300,136487,2,0,B|322:293|322:293|296:306|296:306|256:284|204:297,1,160,4|0,0:0|0:0,0:0:0:0:
76,208,136920,6,0,L|67:291,1,80,8|0,0:0|0:0,0:0:0:0:
270,127,137208,2,0,L|278:47,1,80,8|0,0:0|0:0,0:0:0:0:
98,241,137497,2,0,L|89:324,1,80,8|0,0:0|0:0,0:0:0:0:
301,222,137785,5,2,0:0:0:0:
141,69,137929,2,0,P|52:71|17:144,1,160,8|0,0:0|0:0,0:0:0:0:
212,243,138362,1,8,0:0:0:0:
256,102,138506,1,0,0:0:0:0:
264,79,138578,1,0,0:0:0:0:
273,56,138650,6,0,L|388:65,1,80,8|0,0:0|0:0,0:0:0:0:
476,256,138939,2,0,L|396:249,1,80,8|0,0:0|0:0,0:0:0:0:
169,126,139227,2,0,L|284:135,1,80,8|0,0:0|0:0,0:0:0:0:
268,329,139516,6,0,P|189:331|148:235,1,160,4|0,0:0|0:0,0:0:0:0:
273,56,139949,2,0,P|352:54|393:150,1,160,4|0,0:0|0:0,0:0:0:0:
152,193,140381,6,0,L|59:198,1,80,8|0,0:0|0:0,0:0:0:0:
314,224,140670,2,0,L|393:219,1,80,8|0,0:0|0:0,0:0:0:0:
198,313,140958,2,0,L|105:318,1,80,8|0,0:0|0:0,0:0:0:0:
223,147,141247,5,2,0:0:0:0:
314,224,141391,2,0,P|319:281|308:328,1,80,8|0,0:0|0:0,0:0:0:0:
56,227,141679,1,0,0:0:0:0:
143,150,141824,2,0,P|191:144|228:148,1,80,10|0,0:0|0:0,0:0:0:0:
340,62,142112,5,8,0:0:0:0:
339,93,142184,1,0,0:0:0:0:
353,121,142256,1,0,0:0:0:0:
374,144,142328,1,0,0:0:0:0:
402,158,142400,1,8,0:0:0:0:
413,188,142473,1,0,0:0:0:0:
416,219,142545,1,0,0:0:0:0:
408,249,142617,1,0,0:0:0:0:
392,276,142689,1,8,0:0:0:0:
365,293,142761,1,0,0:0:0:0:
333,296,142833,1,0,0:0:0:0:
302,286,142905,1,0,0:0:0:0:
281,261,142977,6,0,P|204:222|134:269,1,160,4|0,0:0|0:0,0:0:0:0:
31,311,143410,2,0,P|4:249|37:157,1,160,4|0,0:0|0:0,0:0:0:0:
198,121,143843,6,0,L|199:164,2,40,8|0|0,0:0|0:0|0:0,0:0:0:0:
163,369,144131,2,0,L|160:322,2,40,8|0|0,0:0|0:0|0:0,0:0:0:0:
259,303,144420,1,8,0:0:0:0:
83,197,144564,1,0,0:0:0:0:
310,206,144708,5,4,0:0:0:0:
96,287,144852,2,0,B|58:253|58:253|167:243,1,160
432,287,145285,2,0,L|337:295,1,80
204,194,145574,5,8,0:0:0:0:
184,156,145646,1,0,0:0:0:0:
180,113,145718,1,0,0:0:0:0:
195,72,145790,1,0,0:0:0:0:
224,41,145862,1,8,0:0:0:0:
264,24,145934,1,0,0:0:0:0:
307,25,146006,1,0,0:0:0:0:
346,43,146078,1,0,0:0:0:0:
374,76,146150,1,8,0:0:0:0:
387,117,146223,1,0,0:0:0:0:
381,160,146295,1,0,0:0:0:0:
360,197,146367,1,0,0:0:0:0:
324,221,146439,6,0,L|240:220,1,80,4|0,0:0|0:0,0:0:0:0:
125,321,146727,2,0,L|294:309,1,160,8|8,0:0|0:0,0:0:0:0:
321,309,147088,1,0,0:0:0:0:
355,317,147160,1,0,0:0:0:0:
383,338,147232,1,0,0:0:0:0:
392,372,147304,2,0,L|398:282,1,80,8|0,0:0|0:0,0:0:0:0:
387,117,147593,5,8,0:0:0:0:
353,129,147665,1,0,0:0:0:0:
318,119,147737,1,0,0:0:0:0:
300,87,147809,1,0,0:0:0:0:
303,51,147881,2,0,L|256:131,1,80,8|0,0:0|0:0,0:0:0:0:
201,174,148098,1,0,0:0:0:0:
179,145,148170,6,0,L|126:125,2,53.3333333333333,8|0|0,0:0|0:0|0:0,0:0:0:0:
82,208,148458,2,0,L|46:166,2,53.3333333333333,8|0|0,0:0|0:0|0:0,0:0:0:0:
43,285,148747,2,0,P|46:320|38:359,2,53.3333333333333,8|0|0,0:0|0:0|0:0,0:0:0:0:
157,326,149035,6,0,P|154:288|159:251,2,53.3333333333333,8|0|0,0:0|0:0|0:0,0:0:0:0:
268,286,149324,2,0,P|271:321|263:360,2,53.3333333333333,8|0|0,0:0|0:0|0:0,0:0:0:0:
386,329,149612,2,0,P|383:291|388:254,2,53.3333333333333,8|0|0,0:0|0:0|0:0,0:0:0:0:
364,160,149900,6,0,P|399:164|438:159,2,53.3333333333333,8|0|0,0:0|0:0|0:0,0:0:0:0:
249,112,150189,2,0,P|214:108|175:113,2,53.3333333333333,8|0|0,0:0|0:0|0:0,0:0:0:0:
350,64,150477,2,0,L|353:11,2,53.3333333333333,8|0|0,0:0|0:0|0:0,0:0:0:0:
272,208,150766,5,8,0:0:0:0:
232,234,150862,1,0,0:0:0:0:
184,226,150958,1,0,0:0:0:0:
109,151,151054,1,8,0:0:0:0:
135,111,151150,1,0,0:0:0:0:
183,106,151247,1,0,0:0:0:0:
293,118,151343,1,8,0:0:0:0:
333,143,151439,1,0,0:0:0:0:
377,125,151535,1,0,0:0:0:0:
470,184,151631,6,0,L|479:246,2,53.3333333333333,8|0|0,0:0|0:0|0:0,0:0:0:0:
386,249,151920,2,0,L|386:313,2,53.3333333333333,8|0|0,0:0|0:0|0:0,0:0:0:0:
273,257,152208,2,0,L|251:322,2,53.3333333333333,8|0|0,0:0|0:0|0:0,0:0:0:0:
145,205,152497,6,0,L|88:245,2,53.3333333333333,8|0|0,0:0|0:0|0:0,0:0:0:0:
259,141,152785,1,8,0:0:0:0:
57,139,152929,1,2,0:0:0:0:
228,227,153074,1,2,0:0:0:0:
374,18,153218,1,8,0:0:0:0:
401,125,153362,5,0,0:0:0:0:
408,152,153434,1,0,0:0:0:0:
415,179,153506,1,0,0:0:0:0:
422,206,153578,1,0,0:0:0:0:
429,233,153650,1,0,0:0:0:0:
469,358,153795,1,8,0:0:0:0:
298,276,153939,1,8,0:0:0:0:
429,233,154083,1,8,0:0:0:0:
336,378,154227,5,8,0:0:0:0:
245,177,154372,1,8,0:0:0:0:
220,339,154516,1,8,0:0:0:0:
271,177,154660,1,8,0:0:0:0:
106,254,154804,1,8,0:0:0:0:
354,349,154949,1,8,0:0:0:0:
399,111,155093,6,0,B|397:75|359:55|359:55|305:87|263:55,1,160,4|8,0:0|0:0,0:0:0:0:
252,47,155453,1,0,0:0:0:0:
224,42,155525,1,0,0:0:0:0:
196,48,155598,1,0,0:0:0:0:
176,67,155670,1,8,0:0:0:0:
165,93,155742,1,0,0:0:0:0:
172,119,155814,1,0,0:0:0:0:
189,141,155886,1,0,0:0:0:0:
215,149,155958,6,0,L|211:316,1,160,4|8,0:0|0:0,0:0:0:0:
225,284,156319,1,0,0:0:0:0:
245,264,156391,1,0,0:0:0:0:
269,251,156463,1,0,0:0:0:0:
296,251,156535,1,8,0:0:0:0:
322,258,156607,1,0,0:0:0:0:
344,274,156679,1,0,0:0:0:0:
357,298,156751,1,0,0:0:0:0:
362,325,156824,6,0,B|474:322|474:322|441:271,1,160,4|2,0:0|0:0,0:0:0:0:
360,102,157256,2,0,P|350:153|358:198,1,80,2|8,0:0|0:0,0:0:0:0:
285,329,157545,1,0,0:0:0:0:
123,195,157689,5,8,0:0:0:0:
257,175,157833,1,0,0:0:0:0:
106,171,157977,1,8,0:0:0:0:
240,151,158121,1,0,0:0:0:0:
89,148,158266,1,8,0:0:0:0:
223,128,158410,1,0,0:0:0:0:
358,251,158554,5,4,0:0:0:0:
272,336,158699,1,2,0:0:0:0:
236,337,158771,1,2,0:0:0:0:
205,318,158843,1,2,0:0:0:0:
184,288,158915,1,0,0:0:0:0:
208,261,158987,1,0,0:0:0:0:
241,247,159059,1,0,0:0:0:0:
276,241,159131,1,10,0:0:0:0:
311,240,159203,1,0,0:0:0:0:
346,246,159275,1,0,0:0:0:0:
379,260,159348,1,0,0:0:0:0:
405,283,159420,5,8,0:0:0:0:
318,379,159564,1,0,0:0:0:0:
346,246,159708,1,8,0:0:0:0:
329,379,159852,1,0,0:0:0:0:
276,246,159997,1,8,0:0:0:0:
340,378,160141,1,0,0:0:0:0:
417,177,160285,6,0,B|431:67|431:67|398:11,1,160,4|0,0:0|0:0,0:0:0:0:
287,86,160718,1,2,0:0:0:0:
287,86,160790,1,0,0:0:0:0:
287,86,160862,1,8,0:0:0:0:
150,49,161006,1,0,0:0:0:0:
150,49,161078,1,0,0:0:0:0:
150,49,161150,6,0,L|92:54,2,40,8|0|0,0:0|0:0|0:0,0:0:0:0:
110,160,161439,2,0,L|68:158,2,40,8|0|0,0:0|0:0|0:0,0:0:0:0:
186,301,161727,1,8,0:0:0:0:
213,324,161800,1,0,0:0:0:0:
248,331,161872,1,0,0:0:0:0:
283,332,161944,1,0,0:0:0:0:
316,319,162016,6,0,L|333:229,1,80,4|8,0:0|0:0,0:0:0:0:
265,46,162304,2,0,L|248:136,1,80,8|2,0:0|0:0,0:0:0:0:
95,238,162593,2,0,L|112:148,1,80,8|8,0:0|0:0,0:0:0:0:
392,120,162881,5,8,0:0:0:0:
395,143,162953,1,0,0:0:0:0:
398,166,163025,1,0,0:0:0:0:
178,120,163170,1,8,0:0:0:0:
175,143,163242,1,0,0:0:0:0:
172,166,163314,1,0,0:0:0:0:
427,209,163458,1,8,0:0:0:0:
139,209,163602,1,2,0:0:0:0:
284,266,163747,5,4,0:0:0:0:
284,266,164612,2,0,L|284:352,2,80,2|2|2,0:0|0:0|0:0,0:0:0:0:
284,111,165477,1,2,0:0:0:0:
284,111,167208,5,2,0:0:0:0:
93,178,167352,1,2,0:0:0:0:
84,167,167641,1,2,0:0:0:0:
222,276,167785,1,2,0:0:0:0:
77,278,167929,1,2,0:0:0:0:
155,76,168074,5,8,0:0:0:0:
183,97,168146,1,0,0:0:0:0:
217,106,168218,1,0,0:0:0:0:
252,106,168290,1,0,0:0:0:0:
283,89,168362,1,8,0:0:0:0:
313,69,168434,1,0,0:0:0:0:
347,57,168506,1,0,0:0:0:0:
381,65,168578,1,0,0:0:0:0:
413,79,168650,2,0,L|412:162,1,80,8|0,0:0|0:0,0:0:0:0:
350,242,168939,5,2,0:0:0:0:
167,222,169083,1,2,0:0:0:0:
152,208,169372,1,2,0:0:0:0:
229,368,169516,1,2,0:0:0:0:
260,178,169660,1,2,0:0:0:0:
77,145,169804,5,8,0:0:0:0:
46,162,169876,1,0,0:0:0:0:
25,191,169949,1,0,0:0:0:0:
14,225,170021,1,0,0:0:0:0:
15,260,170093,1,8,0:0:0:0:
29,292,170165,1,0,0:0:0:0:
52,319,170237,1,0,0:0:0:0:
85,330,170309,1,0,0:0:0:0:
120,328,170381,2,0,L|212:307,1,80,8|0,0:0|0:0,0:0:0:0:
270,57,170670,5,2,0:0:0:0:
342,235,170814,1,0,0:0:0:0:
152,208,170958,1,8,0:0:0:0:
234,35,171102,1,2,0:0:0:0:
344,192,171246,1,0,0:0:0:0:
152,208,171390,1,8,0:0:0:0:
299,85,171535,6,0,L|399:85,1,80,2|0,0:0|0:0,0:0:0:0:
168,103,171824,1,8,0:0:0:0:
130,90,171896,1,0,0:0:0:0:
90,97,171968,1,0,0:0:0:0:
57,120,172040,1,0,0:0:0:0:
38,155,172112,1,8,0:0:0:0:
37,194,172184,1,0,0:0:0:0:
51,231,172256,1,0,0:0:0:0:
81,257,172328,1,0,0:0:0:0:
119,266,172400,6,0,P|126:313|113:362,2,80,2|0|8,0:0|0:0|0:0,0:0:0:0:
168,103,172833,2,0,P|161:56|174:7,2,80,2|0|8,0:0|0:0|0:0,0:0:0:0:
268,315,173266,5,2,0:0:0:0:
373,134,173410,1,0,0:0:0:0:
215,225,173554,1,8,0:0:0:0:
425,225,173699,1,2,0:0:0:0:
268,134,173843,1,0,0:0:0:0:
373,315,173987,1,8,0:0:0:0:
373,134,174131,5,2,0:0:0:0:
268,315,174275,2,0,B|223:340|169:328|169:328|150:289|117:281,1,160,2|2,0:0|0:0,0:0:0:0:
21,317,174708,1,2,0:0:0:0:
21,317,174780,1,0,0:0:0:0:
21,317,174852,1,0,0:0:0:0:
50,170,174997,5,8,0:0:0:0:
77,182,175069,1,0,0:0:0:0:
106,182,175141,1,0,0:0:0:0:
134,171,175213,1,0,0:0:0:0:
154,149,175285,1,8,0:0:0:0:
163,120,175357,1,0,0:0:0:0:
161,91,175429,1,0,0:0:0:0:
146,65,175501,1,0,0:0:0:0:
122,47,175573,1,8,0:0:0:0:
223,211,175718,1,0,0:0:0:0:
275,77,175862,5,2,0:0:0:0:
345,248,176006,2,0,P|306:311|216:288,1,160,2|2,0:0|0:0,0:0:0:0:
347,137,176439,2,0,P|399:135|447:155,1,80,2|2,0:0|0:0,0:0:0:0:
225,169,176727,6,0,L|217:73,1,80,8|0,0:0|0:0,0:0:0:0:
58,267,177016,2,0,L|64:346,1,80,8|0,0:0|0:0,0:0:0:0:
104,110,177304,2,0,L|96:14,1,80,8|0,0:0|0:0,0:0:0:0:
160,255,177593,6,0,P|202:244|259:256,2,80,2|0|8,0:0|0:0|0:0,0:0:0:0:
367,54,178025,2,0,P|325:65|268:53,2,80,2|0|8,0:0|0:0|0:0,0:0:0:0:
465,315,178458,6,0,P|463:262|446:221,1,80,2|0,0:0|0:0,0:0:0:0:
451,107,178747,1,8,0:0:0:0:
427,139,178819,1,0,0:0:0:0:
389,153,178891,1,0,0:0:0:0:
349,154,178963,1,0,0:0:0:0:
313,136,179035,1,8,0:0:0:0:
283,109,179107,1,0,0:0:0:0:
246,92,179179,1,0,0:0:0:0:
206,90,179251,1,0,0:0:0:0:
169,106,179324,6,0,P|162:157|166:196,2,80,2|0|8,0:0|0:0|0:0,0:0:0:0:
258,349,179756,2,0,P|265:298|261:259,2,80,2|0|8,0:0|0:0|0:0,0:0:0:0:
169,280,180189,5,2,0:0:0:0:
360,229,180333,1,0,0:0:0:0:
192,182,180477,1,8,0:0:0:0:
370,322,180622,1,2,0:0:0:0:
103,215,180766,1,0,0:0:0:0:
388,146,180910,1,8,0:0:0:0:
184,95,181054,6,0,P|174:49|175:7,2,80,2|0|8,0:0|0:0|0:0,0:0:0:0:
260,289,181487,2,0,P|270:335|269:377,2,80,2|0|8,0:0|0:0|0:0,0:0:0:0:
330,69,181920,5,8,0:0:0:0:
316,93,181992,1,0,0:0:0:0:
313,120,182064,1,0,0:0:0:0:
316,147,182136,1,0,0:0:0:0:
326,172,182208,1,8,0:0:0:0:
345,192,182280,1,0,0:0:0:0:
369,205,182352,1,0,0:0:0:0:
396,210,182425,1,0,0:0:0:0:
423,203,182497,1,8,0:0:0:0:
444,185,182569,1,0,0:0:0:0:
449,157,182641,1,0,0:0:0:0:
431,135,182713,1,0,0:0:0:0:
403,133,182785,6,0,L|407:92,3,40,8|0|0|0,0:0|0:0|0:0|0:0,0:0:0:0:
313,120,183074,2,0,L|309:159,3,40,8|0|0|0,0:0|0:0|0:0|0:0,0:0:0:0:
227,124,183362,2,0,L|231:83,3,40,8|0|0|0,0:0|0:0|0:0|0:0,0:0:0:0:
241,206,183650,5,8,0:0:0:0:
238,242,183723,1,0,0:0:0:0:
215,269,183795,1,0,0:0:0:0:
182,285,183867,1,0,0:0:0:0:
146,287,183939,1,8,0:0:0:0:
113,271,184011,1,0,0:0:0:0:
90,242,184083,1,0,0:0:0:0:
87,206,184155,1,0,0:0:0:0:
104,174,184227,1,8,0:0:0:0:
126,145,184300,1,0,0:0:0:0:
130,109,184372,1,0,0:0:0:0:
116,75,184444,1,0,0:0:0:0:
83,60,184516,1,4,0:0:0:0:
155,289,202671,6,0,P|134:231|184:176,1,120,2|0,0:0|0:0,0:0:0:0:
305,185,203399,6,0,P|368:200|424:184,2,120,2|0|2,0:0|0:0|0:0,0:0:0:0:
268,285,204636,1,0,0:0:0:0:
219,87,204945,1,2,0:0:0:0:
128,252,205254,6,0,B|103:198|103:198|127:133,2,120,2|0|2,0:0|0:0|0:0,0:0:0:0:
199,336,206491,1,0,0:0:0:0:
363,231,206801,1,2,0:0:0:0:
336,136,207110,6,0,P|270:123|209:145,2,120,2|0|2,0:0|0:0|0:0,0:0:0:0:
457,258,208347,1,0,0:0:0:0:
283,269,208656,1,2,0:0:0:0:
432,152,208966,6,0,P|440:80|408:32,2,120,2|0|2,0:0|0:0|0:0,0:0:0:0:
335,248,210203,1,0,0:0:0:0:
310,106,210512,1,2,0:0:0:0:
243,183,210821,6,0,P|222:238|240:303,1,120,2|0,0:0|0:0,0:0:0:0:
310,106,211749,2,0,B|264:80|264:80|208:80|208:80|160:112,1,160,2|2,0:0|0:0,0:0:0:0:
166,316,212677,6,0,P|218:335|307:307,1,120,2|0,0:0|0:0,0:0:0:0:
434,240,213605,2,0,P|446:189|443:148,2,80,2|0|2,0:0|0:0|0:0,0:0:0:0:
467,355,214533,6,0,P|410:335|355:348,1,80,2|0,0:0|0:0,0:0:0:0:
211,224,215151,2,0,P|282:247|373:231,1,160,2|0,0:0|0:0,0:0:0:0:
403,147,216079,1,2,0:0:0:0:
309,152,216388,6,0,P|295:100|298:63,1,80,2|0,0:0|0:0,0:0:0:0:
381,29,217007,1,2,0:0:0:0:
469,84,217316,2,0,P|496:145|460:228,1,160,2|0,0:0|0:0,0:0:0:0:
336,312,218244,6,0,P|279:289|216:302,2,120,2|0|2,0:0|0:0|0:0,0:0:0:0:
439,331,219481,1,0,0:0:0:0:
332,174,219790,1,2,0:0:0:0:
220,171,220100,6,0,P|198:115|205:41,2,120,2|0|2,0:0|0:0|0:0,0:0:0:0:
284,244,221337,1,0,0:0:0:0:
383,60,221646,1,2,0:0:0:0:
285,30,221955,6,0,L|153:40,2,120,2|0|2,0:0|0:0|0:0,0:0:0:0:
306,118,223192,1,0,0:0:0:0:
475,57,223502,1,2,0:0:0:0:
444,146,223811,6,0,P|468:201|456:266,2,120,2|0|2,0:0|0:0|0:0,0:0:0:0:
366,91,225048,1,0,0:0:0:0:
272,234,225357,1,2,0:0:0:0:
163,203,225667,6,0,P|124:174|107:89,1,120,2|0,0:0|0:0,0:0:0:0:
346,33,226594,2,0,P|385:62|399:171,1,160,2|2,0:0|0:0,0:0:0:0:
294,211,227522,6,0,P|248:208|184:216,1,90.0000034332277,2|0,0:0|0:0,0:0:0:0:
389,316,228450,6,0,L|389:262,1,40,2|0,0:0|0:0,0:0:0:0:
388,234,229378,5,8,0:0:0:0:
277,288,229522,2,0,P|210:282|236:194,1,160,8|0,0:0|0:0,0:0:0:0:
229,189,229882,1,0,0:0:0:0:
229,189,229954,1,8,0:0:0:0:
388,234,230099,1,8,0:0:0:0:
354,107,230243,5,0,0:0:0:0:
330,80,230315,1,0,0:0:0:0:
299,61,230387,1,0,0:0:0:0:
263,57,230459,1,0,0:0:0:0:
230,72,230531,1,0,0:0:0:0:
205,98,230603,1,8,0:3:0:0:
177,122,230676,1,8,0:3:0:0:
142,132,230748,1,8,0:3:0:0:
106,132,230820,1,4,0:3:0:0:
72,118,230892,1,4,0:3:0:0:
51,88,230964,1,4,0:3:0:0:
47,52,231036,1,4,0:3:0:0:
61,19,231108,6,0,L|48:211,1,176.000005371094,6|0,0:0|0:0,0:0:0:0:
98,332,231541,1,8,0:0:0:0:
210,230,231685,1,8,0:0:0:0:
13,280,231829,1,8,0:0:0:0:
298,350,231974,6,0,P|374:327|369:219,1,176.000005371094,8|2,0:0|0:0,0:0:0:0:
341,149,232406,1,8,0:0:0:0:
210,230,232551,1,8,0:0:0:0:
454,205,232695,1,8,0:0:0:0:
176,108,232839,5,4,0:0:0:0:
310,43,232983,2,0,B|384:25|429:56|429:56|413:75|372:78,1,176.000005371094
301,239,233416,2,0,P|292:180|308:135,1,88.000002685547,8|0,0:0|0:0,0:0:0:0:
454,205,233704,6,0,P|463:264|447:309,1,88.000002685547,8|0,0:0|0:0,0:0:0:0:
388,71,233993,2,0,L|479:63,1,88.000002685547,8|0,0:0|0:0,0:0:0:0:
301,238,234281,1,2,0:0:0:0:
192,104,234426,1,0,0:0:0:0:
421,248,234570,5,4,0:0:0:0:
263,318,234714,2,0,B|263:197|263:197|313:251,1,176.000005371094,2|0,0:0|0:0,0:0:0:0:
112,236,235147,2,0,P|65:238|9:229,1,88.000002685547,8|0,0:0|0:0,0:0:0:0:
192,104,235435,5,8,0:0:0:0:
192,104,235724,1,8,0:0:0:0:
134,334,235868,1,0,0:0:0:0:
0,132,236012,2,0,P|47:130|103:139,1,88.000002685547,8|2,0:0|0:0,0:0:0:0:
313,167,236301,5,4,0:0:0:0:
192,104,236445,2,0,B|192:222|192:222|242:155,1,176.000005371094,8|0,0:0|0:0,0:0:0:0:
400,72,236878,2,0,L|303:75,1,88.000002685547,2|0,0:0|0:0,0:0:0:0:
409,332,237166,6,0,P|437:274|439:234,1,88.000002685547,8|0,0:0|0:0,0:0:0:0:
219,48,237454,2,0,L|228:148,1,88.000002685547,8|0,0:0|0:0,0:0:0:0:
145,345,237743,1,8,0:3:0:0:
75,222,237887,1,4,0:3:0:0:
256,280,238031,6,0,P|307:277|355:256,1,88.000002685547,4|0,0:0|0:0,0:0:0:0:
249,179,238320,2,0,L|233:378,1,176.000005371094,8|8,0:0|0:0,0:0:0:0:
75,222,238753,1,0,0:0:0:0:
155,69,238897,6,0,P|210:70|243:89,1,88.000002685547,8|0,0:0|0:0,0:0:0:0:
463,174,239185,2,0,P|394:206|356:202,1,88.000002685547,2|0,0:0|0:0,0:0:0:0:
131,311,239474,2,0,P|181:321|236:314,1,88.000002685547,8|8,0:0|0:0,0:0:0:0:
409,317,239762,5,4,0:0:0:0:
279,155,239906,2,0,P|243:232|278:311,1,176.000005371094
443,178,240339,2,0,P|450:130|443:88,1,88.000002685547,8|0,0:0|0:0,0:0:0:0:
279,51,240627,6,0,L|179:57,1,88.000002685547,8|0,0:0|0:0,0:0:0:0:
39,280,240916,2,0,L|126:274,1,88.000002685547,8|0,0:0|0:0,0:0:0:0:
330,281,241204,1,8,0:0:0:0:
89,151,241349,1,2,0:0:0:0:
316,175,241493,5,2,0:0:0:0:
181,237,241637,2,0,P|146:176|207:64,1,176.000005371094,4|0,0:0|0:0,0:0:0:0:
330,281,242070,2,0,P|275:344|150:331,1,176.000005371094,8|0,0:0|0:0,0:0:0:0:
57,306,242502,5,8,0:0:0:0:
248,192,242647,1,8,0:0:0:0:
42,264,242791,1,2,0:0:0:0:
226,322,242935,1,8,0:0:0:0:
103,122,243079,1,8,0:0:0:0:
189,339,243224,5,2,0:0:0:0:
332,178,243368,2,0,B|359:150|355:92|334:61|334:61|311:74|295:123,1,176.000005371094,8|0,0:0|0:0,0:0:0:0:
407,262,243801,1,10,0:0:0:0:
234,177,243945,1,10,0:0:0:0:
406,107,244089,6,0,P|457:104|489:122,1,88.000002685547,8|0,0:0|0:0,0:0:0:0:
234,177,244377,2,0,P|183:180|151:162,1,88.000002685547,0|10,0:0|0:3,0:0:0:0:
294,93,244666,1,8,0:3:0:0:
321,313,244810,1,4,0:3:0:0:
121,255,244954,6,0,P|227:212|289:246,1,176.000005371094,4|0,0:0|0:0,0:0:0:0:
424,315,245387,1,2,0:0:0:0:
224,331,245531,1,8,0:0:0:0:
379,231,245676,1,2,0:0:0:0:
312,336,245820,6,0,P|285:281|290:229,1,88.000002685547,8|0,0:0|0:0,0:0:0:0:
392,50,246108,2,0,L|391:142,1,88.000002685547,8|0,0:0|0:0,0:0:0:0:
134,144,246397,2,0,P|194:153|235:142,1,88.000002685547,8|0,0:0|0:0,0:0:0:0:
379,231,246685,5,4,0:0:0:0:
224,331,246829,2,0,P|141:294|55:319,1,176.000005371094
134,144,247262,2,0,P|118:92|123:51,1,88.000002685547,8|2,0:0|0:0,0:0:0:0:
390,49,247551,6,0,L|377:232,2,176.000005371094,8|8|8,0:0|0:0|0:0,0:0:0:0:
284,88,248272,1,2,0:0:0:0:
474,211,248416,5,4,0:0:0:0:
290,334,248560,2,0,P|244:283|280:185,1,176.000005371094,8|0,0:0|0:0,0:0:0:0:
168,113,248993,2,0,P|122:98|63:100,1,88.000002685547,2|0,0:0|0:0,0:0:0:0:
105,358,249281,6,0,P|118:310|118:264,1,88.000002685547,8|0,0:0|0:0,0:0:0:0:
281,37,249570,2,0,L|278:132,1,88.000002685547,8|0,0:0|0:0,0:0:0:0:
372,315,249858,1,8,0:0:0:0:
362,121,250002,1,0,0:0:0:0:
280,233,250147,5,4,0:0:0:0:
477,243,250291,2,0,B|365:218|365:218|425:194,1,176.000005371094
362,33,250724,2,0,P|366:77|361:124,1,88.000002685547,8|2,0:0|0:0,0:0:0:0:
135,274,251012,5,8,0:0:0:0:
171,83,251156,1,8,0:0:0:0:
361,120,251301,1,2,0:0:0:0:
325,310,251445,1,8,0:0:0:0:
135,274,251589,1,8,0:3:0:0:
171,83,251733,1,4,0:3:0:0:
361,120,251877,6,0,P|410:171|319:238,1,176.000005371094,4|0,0:0|0:0,0:0:0:0:
225,332,252310,1,2,0:0:0:0:
258,173,252454,1,8,0:0:0:0:
135,274,252599,1,8,0:0:0:0:
312,251,252743,6,0,B|388:242|388:242|422:259|422:259|490:248,2,176.000005371094,8|8|8,0:0|0:0|0:0,0:0:0:0:
135,274,253464,1,8,0:0:0:0:
25,140,253608,6,0,P|6:181|6:231,1,88.000002685547,4|0,0:0|0:0,0:0:0:0:
236,357,253897,2,0,L|237:257,1,88.000002685547,8|0,0:0|0:0,0:0:0:0:
380,47,254185,2,0,P|415:97|417:133,1,88.000002685547,8|8,0:0|0:0,0:0:0:0:
367,287,254474,5,8,0:0:0:0:
333,307,254546,1,0,0:0:0:0:
294,298,254618,1,0,0:0:0:0:
265,270,254690,1,0,0:0:0:0:
250,233,254762,1,8,0:0:0:0:
252,193,254834,1,0,0:0:0:0:
270,157,254906,1,0,0:0:0:0:
290,123,254978,1,0,0:0:0:0:
277,85,255051,1,8,0:0:0:0:
246,60,255123,1,0,0:0:0:0:
206,58,255195,1,8,0:0:0:0:
170,75,255267,1,0,0:0:0:0:
153,110,255339,6,0,P|168:177|276:136,1,176.000005371094,6|0,0:0|0:0,0:0:0:0:
344,44,255772,1,2,0:0:0:0:
396,248,255916,1,8,0:0:0:0:
459,90,256060,1,2,0:0:0:0:
246,150,256204,6,0,L|367:134,1,88.000002685547,8|0,0:0|0:0,0:0:0:0:
212,346,256493,2,0,P|199:283|205:234,1,88.000002685547,8|0,0:0|0:0,0:0:0:0:
396,248,256782,2,0,P|400:311|389:356,1,88.000002685547,8|0,0:0|0:0,0:0:0:0:
86,302,257070,5,4,0:0:0:0:
77,161,257214,2,0,B|146:132|146:132|268:153,1,176.000005371094,8|8,0:0|0:0,0:0:0:0:
453,77,257647,2,0,P|405:65|344:75,1,88.000002685547,8|0,0:0|0:0,0:0:0:0:
283,225,257935,5,2,0:0:0:0:
207,43,258079,1,8,0:0:0:0:
143,238,258224,2,0,P|138:283|142:335,1,88.000002685547,8|0,0:0|0:0,0:0:0:0:
386,329,258512,2,0,P|391:284|387:232,1,88.000002685547,0|8,0:0|0:0,0:0:0:0:
303,51,258801,5,4,0:0:0:0:
154,144,258945,2,0,B|112:166|112:166|247:161,1,176.000005371094
375,190,259377,1,8,0:0:0:0:
207,43,259522,1,2,0:0:0:0:
174,254,259666,6,0,P|173:303|183:343,1,88.000002685547,8|0,0:0|0:0,0:0:0:0:
302,142,259954,2,0,L|199:145,1,88.000002685547,8|0,0:0|0:0,0:0:0:0:
0,209,260243,2,0,L|103:206,1,88.000002685547,8|0,0:0|0:0,0:0:0:0:
312,285,260531,5,2,0:0:0:0:
480,213,260676,2,0,P|488:156|382:94,1,176.000005371094,4|8,0:0|0:0,0:0:0:0:
312,285,261108,2,0,P|322:243|311:173,1,88.000002685547,10|2,0:0|0:0,0:0:0:0:
185,126,261397,5,8,0:0:0:0:
149,118,261469,1,0,0:0:0:0:
113,124,261541,1,0,0:0:0:0:
81,143,261613,1,0,0:0:0:0:
59,172,261685,1,8,0:0:0:0:
48,206,261757,1,0,0:0:0:0:
50,243,261829,1,0,0:0:0:0:
65,276,261901,1,0,0:0:0:0:
91,302,261973,1,8,0:0:0:0:
124,316,262046,1,0,0:0:0:0:
161,318,262118,1,0,0:0:0:0:
195,307,262190,1,0,0:0:0:0:
224,284,262262,6,0,L|314:284,1,88.000002685547,4|0,0:0|0:0,0:0:0:0:
152,218,262551,1,8,0:0:0:0:
345,137,262695,1,2,0:0:0:0:
345,137,262767,1,0,0:0:0:0:
345,137,262839,1,8,0:0:0:0:
304,24,262983,1,0,0:0:0:0:
469,100,263127,5,8,0:0:0:0:
489,134,263200,1,0,0:0:0:0:
494,173,263272,1,0,0:0:0:0:
481,210,263344,1,0,0:0:0:0:
452,236,263416,1,8,0:0:0:0:
413,244,263488,1,0,0:0:0:0:
374,235,263560,1,0,0:0:0:0:
341,212,263632,1,0,0:0:0:0:
303,198,263704,1,8,0:0:0:0:
263,201,263777,1,0,0:0:0:0:
226,216,263849,1,0,0:0:0:0:
202,247,263921,1,0,0:0:0:0:
193,285,263993,5,4,0:0:0:0:
91,225,264137,2,0,P|39:199|49:87,1,176.000005371094,8|8,0:0|0:0,0:0:0:0:
266,69,264570,1,8,0:0:0:0:
122,27,264714,1,2,0:0:0:0:
263,201,264858,5,0,0:0:0:0:
394,64,265002,1,0,0:0:0:0:
402,48,265075,1,0,0:0:0:0:
410,32,265147,1,8,0:0:0:0:
266,69,265291,1,0,0:0:0:0:
440,243,265435,1,8,0:0:0:0:
493,88,265579,1,0,0:0:0:0:
341,246,265724,5,4,0:0:0:0:
291,66,265868,2,0,B|251:113|251:113|390:103,1,176.000005371094,8|0,0:0|0:0,0:0:0:0:
132,74,266301,2,0,L|24:83,1,88.000002685547,8|0,0:0|0:0,0:0:0:0:
125,298,266589,6,0,P|131:247|126:198,1,88.000002685547,2|0,0:0|0:0,0:0:0:0:
341,246,266877,2,0,P|334:300|337:347,1,88.000002685547,8|0,0:0|0:0,0:0:0:0:
121,200,267166,1,8,0:0:0:0:
353,203,267310,1,0,0:0:0:0:
199,257,267454,5,4,0:0:0:0:
261,98,267599,2,0,B|332:75|385:100|385:100|365:123|326:111,1,176.000005371094,0|8,0:0|0:0,0:0:0:0:
226,280,268031,2,0,P|212:228|221:180,1,88.000002685547,8|0,0:0|0:0,0:0:0:0:
421,324,268320,5,8,0:0:0:0:
421,324,268464,1,0,0:0:0:0:
103,295,268608,1,8,0:0:0:0:
103,295,268752,1,2,0:0:0:0:
374,155,268897,1,8,0:3:0:0:
176,174,269041,1,4,0:3:0:0:
326,240,269185,5,4,0:0:0:0:
200,93,269329,2,0,B|168:51|168:51|177:192,1,176.000005371094
190,335,269762,1,8,0:0:0:0:
193,317,269834,1,0,0:0:0:0:
196,299,269906,1,0,0:0:0:0:
338,304,270051,5,8,0:0:0:0:
334,286,270123,1,0,0:0:0:0:
330,268,270195,1,0,0:0:0:0:
147,200,270339,1,2,0:0:0:0:
350,144,270483,1,8,0:0:0:0:
163,89,270627,2,0,P|120:86|68:89,1,88.000002685547,8|0,0:0|0:0,0:0:0:0:
189,198,270916,5,4,0:0:0:0:
287,130,271060,2,0,B|387:84|387:84|473:130,1,176.000005371094,8|0,0:0|0:0,0:0:0:0:
327,229,271493,1,8,0:0:0:0:
252,36,271637,1,0,0:0:0:0:
189,198,271781,6,0,L|179:256,2,44.0000013427735,8|0|0,0:0|0:0|0:0,0:0:0:0:
120,77,272070,1,8,0:0:0:0:
80,281,272214,1,2,0:0:0:0:
237,66,272358,1,8,0:0:0:0:
312,259,272502,1,0,0:0:0:0:
123,108,272647,5,2,0:0:0:0:
341,157,272791,1,2,0:0:0:0:
60,204,272935,1,2,0:0:0:0:
323,162,273079,1,2,0:0:0:0:
425,288,273224,1,8,0:0:0:0:
450,263,273296,1,0,0:0:0:0:
462,230,273368,1,0,0:0:0:0:
459,194,273440,1,0,0:0:0:0:
444,161,273512,5,2,0:0:0:0:
219,178,273656,1,2,0:0:0:0:
401,60,273801,1,2,0:0:0:0:
312,259,273945,1,2,0:0:0:0:
276,49,274089,1,8,0:0:0:0:
253,75,274161,1,0,0:0:0:0:
220,88,274233,1,0,0:0:0:0:
184,85,274305,1,0,0:0:0:0:
151,70,274377,6,0,L|145:22,2,44.0000013427735,2|0|0,0:0|0:0|0:0,0:0:0:0:
79,244,274666,2,0,L|72:291,2,44.0000013427735,2|0|0,0:0|0:0|0:0,0:0:0:0:
43,125,274954,1,8,0:0:0:0:
43,125,275027,1,0,0:0:0:0:
43,125,275099,1,0,0:0:0:0:
192,229,275243,5,2,0:0:0:0:
218,205,275315,1,0,0:0:0:0:
251,195,275387,1,0,0:0:0:0:
286,197,275459,1,0,0:0:0:0:
317,211,275531,1,2,0:0:0:0:
343,233,275603,1,0,0:0:0:0:
376,244,275676,1,0,0:0:0:0:
410,240,275748,1,0,0:0:0:0:
436,217,275820,2,0,L|432:174,3,44.0000013427735,8|0|0|0,0:0|0:0|0:0|0:0,0:0:0:0:
415,86,276108,5,2,0:0:0:0:
376,244,276252,1,2,0:0:0:0:
306,48,276397,1,2,0:0:0:0:
295,241,276541,1,2,0:0:0:0:
181,48,276685,1,2,0:0:0:0:
206,254,276829,1,2,0:0:0:0:
87,111,276974,6,0,B|76:184|76:184|91:220|91:220|79:311,1,176.000005371094,8|2,0:0|0:0,0:0:0:0:
225,145,277406,1,2,0:0:0:0:
0,237,277551,1,2,0:0:0:0:
184,340,277695,1,0,0:0:0:0:
145,125,277839,5,2,0:0:0:0:
353,127,277983,2,0,B|371:163|413:172|413:172|431:233|382:273,1,176.000005371094,8|0,0:0|0:0,0:0:0:0:
243,281,278416,2,0,P|184:286|139:274,1,88.000002685547,8|0,0:0|0:0,0:0:0:0:
40,162,278704,5,2,0:0:0:0:
44,140,278777,1,0,0:0:0:0:
48,118,278849,1,0,0:0:0:0:
181,131,278993,1,2,0:0:0:0:
181,109,279065,1,0,0:0:0:0:
181,87,279137,1,0,0:0:0:0:
128,258,279281,2,0,P|219:264|254:178,1,176.000005371094,8|2,0:0|0:0,0:0:0:0:
427,172,279714,6,0,P|456:254|438:288,1,120.000004577637,2|2,0:0|0:0,0:0:0:0:
356,329,280147,1,2,0:0:0:0:
298,131,280291,1,2,0:0:0:0:
236,301,280435,5,8,0:0:0:0:
210,321,280507,1,0,0:0:0:0:
177,325,280579,1,0,0:0:0:0:
147,308,280652,1,0,0:0:0:0:
129,279,280724,1,8,0:0:0:0:
124,246,280796,1,0,0:0:0:0:
137,216,280868,1,0,0:0:0:0:
164,197,280940,1,0,0:0:0:0:
192,180,281012,1,8,0:0:0:0:
212,154,281084,1,0,0:0:0:0:
218,121,281156,1,0,0:0:0:0:
209,89,281228,1,0,0:0:0:0:
181,70,281301,5,2,0:0:0:0:
308,144,281445,2,0,L|432:138,1,120.000004577637,2|2,0:0|0:0,0:0:0:0:
390,229,281877,1,2,0:0:0:0:
329,44,282022,1,2,0:0:0:0:
181,70,282166,5,8,0:0:0:0:
149,61,282238,1,0,0:0:0:0:
117,69,282310,1,0,0:0:0:0:
96,94,282382,1,0,0:0:0:0:
92,126,282454,1,8,0:0:0:0:
106,156,282527,1,0,0:0:0:0:
132,175,282599,1,0,0:0:0:0:
164,176,282671,1,0,0:0:0:0:
195,166,282743,1,8,0:0:0:0:
223,149,282815,1,0,0:0:0:0:
253,136,282887,1,0,0:0:0:0:
285,135,282959,1,0,0:0:0:0:
316,145,283031,1,4,0:0:0:0:
256,192,283103,12,0,296012,0:0:0:0:
