osu file format v14

[General]
AudioFilename: audio.mp3
AudioLeadIn: 0
PreviewTime: 233966
Countdown: 0
SampleSet: None
StackLeniency: 0.4
Mode: 0
LetterboxInBreaks: 0
WidescreenStoryboard: 1

[Editor]
DistanceSpacing: 2.2
BeatDivisor: 8
GridSize: 32
TimelineZoom: 2.3

[Metadata]
Title:Haikei, Natsu ni Oboreru
TitleUnicode:背景、夏に溺れる
Artist:Hanatan
ArtistUnicode:花たん
Creator:tatemae
Version:The Chorus of Cicadas
Source:
Tags:utaite yurica cordelia nabuna2 loreley anishina kodoku
BeatmapID:2200190
BeatmapSetID:1052829

[Difficulty]
HPDrainRate:5
CircleSize:4.2
OverallDifficulty:8
ApproachRate:9
SliderMultiplier:3.11
SliderTickRate:1

[Events]
//Background and Video events
0,0,"voice of God.jpg",0,0
//Break Periods
2,165735,186112
//Storyboard Layer 0 (Background)
//Storyboard Layer 1 (Fail)
//Storyboard Layer 2 (Pass)
//Storyboard Layer 3 (Foreground)
//Storyboard Layer 4 (Overlay)
//Storyboard Sound Samples

[TimingPoints]
19943,705.882352941176,4,2,1,50,1,0
19943,-66.6666666666667,4,2,1,50,0,0
20295,-100,4,2,1,50,0,0
20648,-66.6666666666667,4,2,1,50,0,0
21001,-100,4,2,1,50,0,0
21354,-66.6666666666667,4,2,1,50,0,0
21707,-100,4,2,1,50,0,0
22060,-66.6666666666667,4,2,1,50,0,0
23119,-100,4,2,1,50,0,0
23472,-66.6666666666667,4,2,1,50,0,0
23825,-100,4,2,1,50,0,0
24001,-66.6666666666667,4,2,1,50,0,0
24531,-100,4,2,1,50,0,0
24884,-66.6666666666667,4,2,1,50,0,0
25942,-100,4,2,1,50,0,0
26295,-66.6666666666667,4,2,1,50,0,0
26648,-100,4,2,1,50,0,0
27001,-66.6666666666667,4,2,1,50,0,0
27707,-55.5555555555556,4,2,1,50,0,0
28413,-66.6666666666667,4,2,1,50,0,0
28766,-100,4,2,1,50,0,0
29119,-66.6666666666667,4,2,1,50,0,0
30178,-100,4,2,1,50,0,0
30531,-66.6666666666667,4,2,1,50,0,0
31590,-100,4,2,1,50,0,0
31942,-66.6666666666667,4,2,1,50,0,0
34413,-100,4,2,1,50,0,0
34766,-66.6666666666667,4,2,1,50,0,0
37237,-100,4,2,1,50,0,0
37590,-66.6666666666667,4,2,1,50,0,0
39707,-66.6666666666667,4,2,1,50,0,0
40060,-100,4,2,1,50,0,0
40413,-66.6666666666667,4,2,1,50,0,0
40766,-100,4,2,1,50,0,0
41119,-66.6666666666667,4,2,1,50,0,0
42531,704.638872577804,4,2,1,50,1,0
42531,-100,4,2,1,50,0,0
50282,-142.857142857143,4,2,1,50,0,0
50634,-100,4,2,1,50,0,0
50986,-66.6666666666667,4,2,1,50,0,0
51338,-100,4,2,1,50,0,0
60851,-83.3333333333333,4,2,1,50,0,0
61203,-71.4285714285714,4,2,1,50,0,0
61556,-100,4,2,1,50,0,0
62260,-66.6666666666667,4,2,1,50,0,0
62613,-100,4,2,1,50,0,0
64374,-83.3333333333333,4,2,1,50,0,0
64550,-100,4,2,1,50,0,0
64727,-66.6666666666667,4,2,1,50,0,0
65079,-100,4,2,1,50,0,0
68602,-76.9230769230769,4,2,1,50,0,0
68954,-100,4,2,1,50,0,0
76001,-500,4,2,1,50,0,0
76353,-250,4,2,1,50,0,0
77939,-133.333333333333,4,2,1,50,0,0
78643,-100,4,2,1,50,0,0
79524,-133.333333333333,4,2,1,50,0,0
80053,-71.4285714285714,4,2,1,50,0,0
82343,-133.333333333333,4,2,1,50,0,0
82959,-71.4285714285714,4,2,1,50,0,0
85161,-133.333333333333,4,2,1,50,0,0
85690,-71.4285714285714,4,2,1,50,0,0
87980,-133.333333333333,4,2,1,50,0,0
88684,-71.4285714285714,4,2,1,50,0,0
90798,-133.333333333333,4,2,1,50,0,0
91327,-71.4285714285714,4,2,1,50,0,0
93617,-133.333333333333,4,2,1,50,0,0
94321,-71.4285714285714,4,2,1,50,0,0
96435,-133.333333333333,4,2,1,50,0,0
97052,-71.4285714285714,4,2,1,50,0,0
99254,-133.333333333333,4,2,1,50,0,0
99959,-71.4285714285714,4,2,1,50,0,0
101314,705.882352941176,4,2,1,50,1,0
102108,705.882352941176,4,2,1,50,1,0
104931,-100,4,2,1,50,0,0
116225,-86.9565217391304,4,2,1,50,0,0
127464,704.638872577804,4,2,1,50,1,0
129225,-500,4,2,1,50,0,0
129577,-100,4,2,1,50,0,0
134686,-66.6666666666667,4,2,1,50,0,0
134862,-500,4,2,1,50,0,0
135038,-66.6666666666667,4,2,1,50,0,0
135215,-100,4,2,1,50,0,0
135391,-500,4,2,1,50,0,0
135743,-66.6666666666667,4,2,1,50,0,0
135919,-500,4,2,1,50,0,0
136448,-66.6666666666667,4,2,1,50,0,0
136624,-500,4,2,1,50,0,0
136976,-66.6666666666667,4,2,1,50,0,0
137152,-500,4,2,1,50,0,0
137505,-66.6666666666667,4,2,1,50,0,0
137681,-500,4,2,1,50,0,0
138209,-66.6666666666667,4,2,1,50,0,0
138385,-500,4,2,1,50,0,0
138562,-133.333333333333,4,2,1,50,0,0
138738,-133.333333333333,4,2,1,50,0,0
140852,-76.9230769230769,4,2,1,50,0,0
141556,-133.333333333333,4,2,1,50,0,0
142085,-71.4285714285714,4,2,1,50,0,0
144375,-133.333333333333,4,2,1,50,0,0
145079,-71.4285714285714,4,2,1,50,0,0
147193,-133.333333333333,4,2,1,50,0,0
147810,-71.4285714285714,4,2,1,50,0,0
150012,-133.333333333333,4,2,1,50,0,0
150717,-71.4285714285714,4,2,1,50,0,0
152830,-133.333333333333,4,2,1,50,0,0
153447,-71.4285714285714,4,2,1,50,0,0
155649,-133.333333333333,4,2,1,50,0,0
156354,-71.4285714285714,4,2,1,50,0,0
158468,-133.333333333333,4,2,1,50,0,0
158996,-71.4285714285714,4,2,1,50,0,0
161286,-133.333333333333,4,2,1,50,0,0
161991,-71.4285714285714,4,2,1,50,0,0
164124,705.882352941176,4,2,1,50,1,0
164124,-200,4,2,1,50,0,0
165535,-100,4,2,1,50,0,0
186712,-111.111111111111,4,2,1,50,0,0
209300,-83.3333333333333,4,2,1,50,0,0
209653,-71.4285714285714,4,2,1,50,0,0
210006,-62.5,4,2,1,50,0,0
210359,-55.5555555555556,4,2,1,50,0,0
210712,-50,4,2,1,50,0,0
211771,-45.4545454545455,4,2,1,50,0,0
212123,704.638872577804,4,2,1,50,1,0
212123,-500.000000000003,4,2,1,50,0,0
223397,-133.333333333333,4,2,1,50,0,0
232909,-111.111111111111,4,2,1,50,0,0
233262,-133.333333333333,4,2,1,50,0,0
234671,-58.8235294117647,4,2,1,50,0,0
237489,-33.3333333333333,4,2,1,50,0,0
238194,-58.8235294117647,4,2,1,50,0,0
240308,-33.3333333333333,4,2,1,50,0,0
241013,-58.8235294117647,4,2,1,50,0,0
243127,-33.3333333333333,4,2,1,50,0,0
243831,-58.8235294117647,4,2,1,50,0,0
245945,-50,4,2,1,50,0,0
258629,-50,4,2,1,50,0,0
259686,-500,4,2,1,50,0,0
260038,-33.3333333333333,4,2,1,50,0,0
260743,-58.8235294117647,4,2,1,50,0,0
262856,705.882352941176,4,2,1,50,1,0

[Colours]
Combo1 : 255,225,225
Combo2 : 240,204,183
Combo3 : 175,221,254

[HitObjects]
148,112,19943,6,0,B|106:94|87:50|87:50|94:100|63:140,1,174.937506673336
0,166,20295,2,0,P|24:196|61:206,1,77.75
174,210,20560,1,0,0:0:0:0:
174,210,20648,2,0,P|176:124|231:58,1,174.937506673336
307,34,21001,2,0,P|317:70|303:106,1,77.75
289,120,21266,1,0,0:0:0:0:
289,120,21354,6,0,P|371:93|491:97,1,174.937506673336
482,166,21707,2,0,P|409:157|391:109,1,116.625
458,91,22060,6,0,P|444:135|431:209,1,116.625004448891
347,381,22413,2,0,P|361:337|374:263,1,116.625004448891
271,297,22766,6,0,P|189:316|135:254,1,174.937506673336
134,253,23119,2,0,P|160:241|140:259,1,77.75
60,300,23472,2,0,P|55:216|126:160,1,174.937506673336
120,161,23825,2,0,P|139:158|170:162,2,38.875
34,207,24178,6,0,P|18:124|-1:33,1,174.937506673336
0,35,24531,2,0,L|99:42,1,77.75
214,292,24884,6,0,P|229:209|249:118,1,174.937506673336
248,120,25237,2,0,L|189:114,1,58.3125022244454
391,133,25413,2,0,L|332:127,1,58.3125022244454
475,86,25590,6,0,B|442:95|442:95|423:203|423:203|386:225,1,174.937506673336
357,285,25942,2,0,P|329:258|320:221,1,77.75
470,300,26207,1,0,0:0:0:0:
470,300,26295,2,0,P|405:298|324:379,1,174.937506673336
327,368,26648,2,0,P|289:358|251:350,1,77.75
75,300,27001,6,0,B|52:286|60:267|84:270|77:299,1,58.3125022244454
38,187,27354,2,0,B|15:173|23:154|47:157|40:186,1,58.3125022244454
197,233,27707,6,0,B|195:215|195:215|213:215|213:215|215:234|215:234|193:235,1,69.9749978645325
175,56,28060,2,0,B|173:38|173:38|191:38|191:38|193:57|193:57|171:58,1,69.9749978645325
91,0,28413,6,0,P|127:59|150:178,1,174.937506673336
89,212,28766,2,0,P|72:177|72:138,1,77.75
226,220,29119,6,0,B|209:194|207:170|207:170|104:195|98:296,1,233.250008897782
37,371,29648,1,0,0:0:0:0:
0,297,29825,2,0,P|83:305|119:380,1,174.937506673336
119,380,30178,2,0,L|217:371,1,77.75
360,353,30442,1,0,0:0:0:0:
360,353,30531,6,0,P|376:331|370:291,1,58.3125022244454
378,217,30707,2,0,L|323:159,1,58.3125022244454
506,284,30884,6,0,P|478:281|452:250,1,58.3125022244454
378,217,31060,2,0,L|371:137,1,58.3125022244454
455,51,31237,6,0,P|512:114|509:199,1,174.937506673336
440,367,31590,2,0,L|345:355,1,77.75
158,240,31942,2,0,B|263:211|263:211|276:241|319:257,1,174.937506673336
376,133,32295,2,0,P|351:148|337:173,1,58.3125022244454
255,355,32472,2,0,P|254:326|238:301,1,58.3125022244454
194,139,32648,6,0,L|28:83,1,174.937506673336
123,195,33001,2,0,L|89:24,1,174.937506673336
171,51,33354,2,0,L|40:167,1,174.937506673336
28,83,33707,2,0,L|194:139,1,174.937506673336
264,82,34060,6,0,P|229:162|215:248,1,174.937506673336
272,304,34413,2,0,P|301:264|273:218,1,77.75
389,368,34766,2,0,P|326:272|215:248,1,233.250008897782
104,188,35295,1,0,0:0:0:0:
98,339,35472,6,0,P|33:362|64:301,1,174.937506673336
135,269,35825,1,0,0:0:0:0:
453,229,36090,1,0,0:0:0:0:
453,229,36178,1,0,0:0:0:0:
359,233,36354,1,0,0:0:0:0:
355,140,36531,1,0,0:0:0:0:
447,128,36707,1,0,0:0:0:0:
335,310,36884,6,0,B|265:306|302:230|245:206|199:213,1,174.937506673336
132,172,37237,2,0,P|132:210|126:249,1,77.75
216,299,37501,1,0,0:0:0:0:
216,299,37590,2,0,P|226:226|232:99,1,174.937506673336
201,50,37942,5,0,0:0:0:0:
353,146,38119,1,0,0:0:0:0:
393,81,38295,5,0,0:0:0:0:
478,287,38648,1,0,0:0:0:0:
471,9,39001,5,0,0:0:0:0:
423,365,39354,1,0,0:0:0:0:
284,268,39707,6,0,B|151:281|151:281|175:274|197:244,1,174.937506673336
185,258,40060,2,0,P|210:288|217:354,1,77.75
51,353,40413,2,0,P|86:312|105:183,1,174.937506673336
115,118,40766,2,0,B|78:108|78:108|52:138,1,77.75
68,270,41031,1,0,0:0:0:0:
68,270,41119,6,0,B|125:276|170:320|170:320|159:258|193:189,1,233.250008897782
436,35,41737,1,0,0:0:0:0:
436,35,41825,2,0,P|402:35|375:68,1,58.3125022244454
499,93,42001,2,0,P|497:125|465:152,1,58.3125022244454
311,27,42178,2,0,P|294:55|308:95,1,58.3125022244454
504,219,42354,2,0,P|474:234|434:220,1,58.3125022244454
326,154,42531,6,0,P|269:104|159:91,2,155.5
294,228,43587,1,0,0:0:0:0:
60,120,43940,1,0,0:0:0:0:
140,98,44116,1,0,0:0:0:0:
60,120,44292,1,0,0:0:0:0:
487,259,44644,5,0,0:0:0:0:
309,313,44997,1,0,0:0:0:0:
399,361,45173,1,0,0:0:0:0:
399,361,45261,1,0,0:0:0:0:
399,361,45349,6,0,P|397:320|403:186,2,155.5
132,241,46406,2,0,P|105:237|75:192,1,77.75
81,313,46758,2,0,P|148:277|226:274,1,155.5
296,326,47287,1,0,0:0:0:0:
296,326,47375,1,0,0:0:0:0:
296,326,47463,2,0,L|294:374,1,38.875
217,353,47639,1,0,0:0:0:0:
254,187,47815,1,0,0:0:0:0:
508,357,48168,6,0,P|477:288|404:275,1,155.5
352,364,48784,1,0,0:0:0:0:
352,364,48872,2,0,P|357:319|342:197,1,155.5
305,48,49401,1,0,0:0:0:0:
356,107,49577,2,0,P|316:129|266:113,1,77.75
462,61,49929,2,0,P|444:26|410:9,1,77.75
433,150,50282,6,0,P|435:192|444:257,1,81.6374975086213
466,309,50634,5,0,0:0:0:0:
474,303,50722,1,0,0:0:0:0:
467,303,50810,1,0,0:0:0:0:
473,310,50898,1,0,0:0:0:0:
496,378,50986,6,0,P|455:339|398:337,2,116.625004448891
311,299,51515,5,0,0:0:0:0:
252,371,51691,2,0,P|263:330|258:199,1,155.5
73,185,52219,1,0,0:0:0:0:
61,105,52395,2,0,B|44:87|44:87|96:98,1,77.75
185,74,52748,2,0,B|237:84|237:84|220:67,1,77.75
126,25,53012,1,0,0:0:0:0:
126,25,53100,2,0,L|34:6,1,77.75
311,24,53452,6,0,B|300:44|300:44|305:67,1,38.875
287,177,53629,2,0,B|298:157|298:157|293:134,1,38.875
385,109,53805,6,0,B|481:87|481:87|493:65|471:25,1,155.5
433,173,54509,1,0,0:0:0:0:
391,22,54862,1,0,0:0:0:0:
512,192,55214,2,0,P|437:208|384:263,1,155.5
414,351,55919,5,0,0:0:0:0:
257,236,56271,1,0,0:0:0:0:
185,291,56447,1,0,0:0:0:0:
185,291,56535,1,0,0:0:0:0:
185,291,56623,6,0,P|179:335|175:377,1,77.75
79,309,56976,2,0,B|56:316|38:307|38:307|57:291|79:310,1,77.75
74,197,57328,2,0,B|87:183|71:164|71:164|62:182|69:205,1,77.75
263,262,57680,2,0,P|239:230|151:209,1,116.625
74,197,58033,6,0,P|148:181|126:89,1,155.5
59,48,58561,1,0,0:0:0:0:
59,48,58649,1,0,0:0:0:0:
59,48,58737,2,0,P|54:68|82:101,1,38.875
152,112,58913,6,0,P|170:101|190:122,1,38.875
258,99,59090,2,0,P|276:88|296:109,1,38.875
507,353,59442,6,0,B|530:338|530:338|531:238|531:238|493:220,1,155.5
298,297,60058,1,0,0:0:0:0:
298,297,60146,2,0,P|349:283|464:291,1,155.5
428,167,60675,1,0,0:0:0:0:
353,100,60851,6,0,P|345:145|343:192,1,93.29999715271
491,28,61203,6,0,P|500:82|502:137,1,108.849996678162
479,217,61556,6,0,P|438:195|431:145,1,77.75
400,21,61908,5,0,0:0:0:0:
408,15,61996,1,0,0:0:0:0:
401,15,62084,1,0,0:0:0:0:
407,22,62172,1,0,0:0:0:0:
430,90,62260,6,0,P|389:51|332:49,2,116.625004448891
266,104,62789,5,0,0:0:0:0:
204,162,62965,2,0,P|233:114|230:9,1,155.5
18,102,63494,1,0,0:0:0:0:
36,28,63670,2,0,P|101:11|130:94,1,155.5
113,250,64198,5,0,0:0:0:0:
113,250,64286,1,0,0:0:0:0:
113,250,64374,2,0,P|74:210|67:159,1,93.29999715271
378,65,64727,6,0,B|365:38|365:38|348:61,1,58.3125022244454
486,78,64903,2,0,B|473:51|473:51|456:74,1,58.3125022244454
494,168,65079,6,0,B|456:165|456:165|434:149|434:149|374:143|374:143|338:178,1,155.5
405,348,65784,2,0,B|421:327|421:327|322:327,1,116.625
330,327,66136,1,0,0:0:0:0:
400,232,66312,1,0,0:0:0:0:
266,276,66488,2,0,P|250:314|250:369,2,77.75
46,56,67193,2,0,P|64:107|70:224,1,155.5
17,260,67721,1,0,0:0:0:0:
72,366,67897,6,0,P|146:341|139:268,1,155.5
143,274,68602,6,0,B|263:241|230:332|335:302,1,202.149990746308
301,230,69131,1,0,0:0:0:0:
393,358,69307,2,0,P|415:326|408:289,1,77.75
315,161,69659,2,0,P|293:192|300:229,1,77.75
300,380,70011,2,0,P|348:342|446:328,1,155.5
512,360,70540,1,0,0:0:0:0:
500,231,70716,6,0,B|518:215|518:215|496:166|496:166|451:184|451:184|450:217,1,155.5
300,245,71421,2,0,B|371:278|371:278|346:314|359:352,1,155.5
439,326,71861,1,0,0:0:0:0:
439,326,71949,2,0,P|444:307|456:292,1,38.875
345,346,72125,6,0,P|306:349|270:363,2,77.75
108,59,72830,2,0,P|86:133|84:211,1,155.5
0,167,73358,1,0,0:0:0:0:
63,287,73535,6,0,B|85:216|145:219|145:219|161:259,1,155.5
180,381,74151,1,0,0:0:0:0:
180,381,74239,2,0,P|96:372|18:369,1,155.5
272,349,74768,1,0,0:0:0:0:
270,270,74944,6,0,B|251:269|233:278|233:278|237:259|235:236,1,77.75
407,223,75296,2,0,B|425:221|445:224|445:224|435:207|433:187,1,77.75
277,46,75649,6,0,L|288:85,1,38.875
311,156,75825,2,0,L|322:195,1,38.875
351,290,76001,6,0,L|344:269,1,15.55
176,374,76353,6,0,P|160:286|120:129,1,248.8
46,86,77939,6,0,B|63:45|127:51|127:51|72:52|38:115,1,204.093757785559
9,189,78643,6,0,P|58:111|233:74,1,272.125
224,71,79524,6,0,P|253:152|246:247,1,174.937506673336
277,319,80141,1,0,0:0:0:0:
277,319,80229,2,0,P|218:317|167:270,1,108.849996678162
0,284,80581,2,0,P|44:254|98:253,1,108.849996678162
277,319,80933,6,0,P|339:272|337:193,1,163.274995017243
422,191,81286,2,0,P|429:137|411:87,1,108.849996678162
337,193,81638,2,0,P|318:142|326:89,1,108.849996678162
494,52,81990,2,0,P|533:120|504:194,1,163.274995017243
507,270,82343,6,0,P|483:234|323:196,1,204.093757785559
365,270,83047,2,0,P|311:268|269:236,1,108.849996678162
264,29,83400,2,0,P|288:76|282:129,2,108.849996678162
106,243,84104,6,0,P|134:197|184:177,1,108.849996678162
194,180,84368,1,0,0:0:0:0:
203,185,84457,1,0,0:0:0:0:
259,251,84633,1,0,0:0:0:0:
239,335,84809,1,0,0:0:0:0:
154,354,84985,1,0,0:0:0:0:
80,314,85161,6,0,P|47:251|79:137,1,174.937506673336
54,73,85778,1,0,0:0:0:0:
54,73,85866,2,0,P|110:86|146:160,1,108.849996678162
311,173,86218,2,0,P|255:160|219:86,1,108.849996678162
201,0,86570,6,0,P|203:78|140:125,1,163.274995017243
66,152,86923,2,0,P|68:97|117:53,1,108.849996678162
230,219,87275,2,0,P|246:269|292:297,1,108.849996678162
366,116,87627,2,0,P|401:44|478:26,1,163.274995017243
468,100,87980,6,0,P|371:71|277:104,1,204.093757785559
205,71,88684,2,0,P|202:124|232:169,1,108.849996678162
144,334,89037,2,0,P|168:286|215:261,1,108.849996678162
438,297,89389,2,0,P|384:299|304:209,1,163.274995017243
269,159,89741,6,0,P|322:150|369:176,1,108.849996678162
373,185,90005,1,0,0:0:0:0:
375,196,90094,1,0,0:0:0:0:
360,280,90270,1,0,0:0:0:0:
283,319,90446,1,0,0:0:0:0:
213,267,90622,1,0,0:0:0:0:
197,183,90798,6,0,P|274:156|340:67,1,174.937506673336
279,33,91415,1,0,0:0:0:0:
279,33,91503,2,0,P|220:31|169:-16,1,108.849996678162
0,36,91855,2,0,P|44:6|98:5,1,108.849996678162
279,33,92207,6,0,P|351:60|417:17,1,163.274995017243
417,16,92560,2,0,P|435:66|428:120,1,108.849996678162
310,248,92912,2,0,P|291:197|299:144,1,108.849996678162
501,353,93264,2,0,P|530:279|497:202,1,163.274995017243
450,271,93617,6,0,P|409:256|258:322,1,204.093757785559
288,381,94321,2,0,P|234:379|196:338,1,108.849996678162
285,139,94674,2,0,P|310:186|293:240,2,108.849996678162
68,259,95378,6,0,P|96:213|151:200,1,108.849996678162
156,206,95643,1,0,0:0:0:0:
162,214,95731,1,0,0:0:0:0:
238,255,95907,1,0,0:0:0:0:
319,225,96083,1,0,0:0:0:0:
334,139,96259,1,0,0:0:0:0:
297,60,96435,6,0,P|211:65|147:122,1,174.937506673336
140,204,97052,1,0,0:0:0:0:
140,204,97140,2,0,P|83:212|13:175,1,108.849996678162
147,122,97492,2,0,P|96:104|43:113,1,108.849996678162
139,351,97844,6,0,P|185:280|262:256,1,163.274995017243
297,192,98197,2,0,P|332:231|333:285,1,108.849996678162
224,324,98549,2,0,P|188:284|187:230,1,108.849996678162
403,192,98901,2,0,P|426:116|383:51,1,163.274995017243
476,45,99254,6,0,P|379:16|285:49,1,204.093757785559
235,116,99959,2,0,P|205:71|207:17,1,108.849996678162
299,249,100311,2,0,P|328:204|326:150,1,108.849996678162
122,89,100663,6,0,P|70:149|77:228,1,163.274995017243
33,305,101016,2,0,P|85:314|135:294,1,108.849996678162
200,241,101314,5,0,0:0:0:0:
313,300,101490,5,0,0:0:0:0:
313,300,101578,1,0,0:0:0:0:
381,218,101755,5,0,0:0:0:0:
457,267,101931,5,0,0:0:0:0:
509,211,102108,5,0,0:0:0:0:
350,28,102460,5,0,0:0:0:0:
326,140,102637,1,0,0:0:0:0:
326,140,102725,1,0,0:0:0:0:
326,140,102813,1,0,0:0:0:0:
95,70,103166,5,0,0:0:0:0:
173,112,103343,1,0,0:0:0:0:
145,263,103519,2,0,B|96:244|96:244|70:164|70:164|81:146|81:146|69:71|69:71|32:49|32:49|5:69,1,311
8,74,104578,1,0,0:0:0:0:
447,340,104931,6,0,B|419:294|419:294|460:200,2,155.5
508,289,105990,1,0,0:0:0:0:
266,339,106343,1,0,0:0:0:0:
280,261,106519,1,0,0:0:0:0:
90,354,106696,5,0,0:0:0:0:
59,255,106872,1,0,0:0:0:0:
27,154,107049,1,0,0:0:0:0:
426,120,107402,5,0,0:0:0:0:
426,120,107578,1,0,0:0:0:0:
363,16,107755,6,0,B|373:73|325:77|322:139|353:174,2,155.5
244,87,108813,2,0,P|207:97|174:80,1,77.75
202,8,109166,2,0,P|254:55|232:163,1,155.5
214,209,109696,2,0,P|197:199|184:184,2,38.875
305,206,110049,1,0,0:0:0:0:
248,370,110225,1,0,0:0:0:0:
34,62,110578,5,0,0:0:0:0:
125,16,110931,1,0,0:0:0:0:
127,19,111108,1,0,0:0:0:0:
128,22,111284,1,0,0:0:0:0:
15,137,111637,5,0,0:0:0:0:
143,163,111813,1,0,0:0:0:0:
66,213,111990,1,0,0:0:0:0:
83,342,112343,2,0,P|140:291|216:287,1,155.5
367,241,113049,5,0,0:0:0:0:
363,255,113137,1,0,0:0:0:0:
353,244,113225,1,0,0:0:0:0:
349,243,113313,1,0,0:0:0:0:
375,252,113402,5,0,0:0:0:0:
397,362,113578,1,0,0:0:0:0:
330,322,113755,1,0,0:0:0:0:
502,352,113931,5,0,0:0:0:0:
506,338,114108,1,0,0:0:0:0:
382,176,114460,1,0,0:0:0:0:
400,251,114637,1,0,0:0:0:0:
464,118,114813,1,0,0:0:0:0:
464,118,114990,1,0,0:0:0:0:
484,39,115166,1,0,0:0:0:0:
401,9,115343,1,0,0:0:0:0:
401,9,115431,1,0,0:0:0:0:
401,9,115519,1,0,0:0:0:0:
286,81,115696,5,0,0:0:0:0:
375,192,115872,5,0,0:0:0:0:
309,351,116049,5,0,0:0:0:0:
207,382,116225,6,0,P|189:326|69:253,2,178.825003410816
116,383,117284,2,0,P|140:346|147:302,1,89.4125017054081
137,147,117637,1,0,0:0:0:0:
63,104,117813,1,0,0:0:0:0:
63,189,117990,1,0,0:0:0:0:
219,180,118166,1,0,0:0:0:0:
263,20,118343,1,0,0:0:0:0:
219,180,118696,5,0,0:0:0:0:
276,106,118872,1,0,0:0:0:0:
276,106,118960,1,0,0:0:0:0:
276,106,119049,6,0,P|381:100|463:109,2,178.825003410816
24,79,120107,2,0,P|45:42|88:42,1,89.4125017054081
93,123,120460,2,0,P|49:200|38:288,1,178.825003410816
6,214,120990,1,0,0:0:0:0:
6,214,121078,1,0,0:0:0:0:
6,214,121166,1,0,0:0:0:0:
128,257,121343,5,0,0:0:0:0:
3,364,121519,1,0,0:0:0:0:
432,349,121872,6,0,B|422:318|422:318|515:274|515:274|495:212,1,178.825003410816
326,210,122402,1,0,0:0:0:0:
326,210,122490,1,0,0:0:0:0:
326,210,122578,2,0,L|429:224,1,89.4125017054081
252,353,122931,1,0,0:0:0:0:
326,317,123107,1,0,0:0:0:0:
170,247,123284,5,0,0:0:0:0:
170,247,123460,1,0,0:0:0:0:
370,145,123637,5,0,0:0:0:0:
370,145,123813,1,0,0:0:0:0:
106,28,123990,5,0,0:0:0:0:
108,135,124343,5,0,0:0:0:0:
104,149,124431,1,0,0:0:0:0:
94,138,124519,1,0,0:0:0:0:
90,137,124607,1,0,0:0:0:0:
116,146,124696,5,0,0:0:0:0:
199,134,124872,1,0,0:0:0:0:
172,207,125049,1,0,0:0:0:0:
68,275,125225,5,0,0:0:0:0:
54,274,125402,1,0,0:0:0:0:
316,370,125755,1,0,0:0:0:0:
233,382,125932,1,0,0:0:0:0:
394,357,126108,1,0,0:0:0:0:
392,353,126284,1,0,0:0:0:0:
391,350,126460,1,0,0:0:0:0:
245,276,126638,1,0,0:0:0:0:
245,276,126726,1,0,0:0:0:0:
245,276,126814,1,0,0:0:0:0:
63,118,126991,5,0,0:0:0:0:
147,231,127167,5,0,0:0:0:0:
318,209,127344,5,0,0:0:0:0:
354,35,127464,6,0,P|299:42|242:138,2,155.5
58,244,128520,2,0,B|39:237|39:237|24:247,1,38.875
142,273,128697,2,0,L|152:321,1,38.875
142,273,128873,2,0,L|130:187,1,77.75
27,130,129225,6,0,L|33:166,1,31.1
35,164,129754,1,0,0:0:0:0:
23,334,129930,6,0,P|42:335|61:330,1,38.875
142,273,130106,1,0,0:0:0:0:
292,326,130282,6,0,B|281:280|229:273|229:273|228:313|199:335,1,155.5
0,195,130987,2,0,P|63:202|195:161,1,194.375
196,158,131515,1,0,0:0:0:0:
99,113,131691,5,0,0:0:0:0:
206,68,131867,1,0,0:0:0:0:
307,126,132044,1,0,0:0:0:0:
289,47,132220,5,0,0:0:0:0:
261,203,132396,1,0,0:0:0:0:
8,37,132572,1,0,0:0:0:0:
121,16,132748,1,0,0:0:0:0:
121,16,132924,1,0,0:0:0:0:
178,196,133101,5,0,0:0:0:0:
219,123,133453,5,0,0:0:0:0:
231,309,133629,1,0,0:0:0:0:
407,341,133805,1,0,0:0:0:0:
421,260,133981,1,0,0:0:0:0:
281,378,134158,5,0,0:0:0:0:
296,248,134334,1,0,0:0:0:0:
365,195,134510,1,0,0:0:0:0:
164,64,134686,6,0,P|163:48|180:65,1,58.3125022244454
158,147,134862,6,0,L|157:159,1,7.775
147,233,135038,6,0,L|137:302,1,58.3125022244454
128,365,135215,1,0,0:0:0:0:
365,195,135391,6,0,L|365:207,1,7.775
381,278,135567,1,0,0:0:0:0:
365,195,135743,6,0,L|355:137,1,58.3125022244454
396,61,135919,6,0,L|408:58,1,7.775
298,76,136095,2,0,L|290:77,1,7.775
336,8,136271,1,0,0:0:0:0:
188,164,136448,6,0,P|159:156|134:141,1,58.3125022244454
114,65,136624,6,0,L|106:54,1,7.775
59,125,136800,2,0,L|51:114,1,7.775
41,328,136976,6,0,P|69:320|94:305,1,58.3125022244454
115,229,137152,6,0,L|122:218,1,7.775
170,289,137328,2,0,L|177:278,1,7.775
248,382,137505,6,0,P|258:354|260:325,1,58.3125022244454
249,250,137681,6,0,L|240:241,1,7.775
334,282,137857,2,0,L|325:273,1,7.775
316,197,138033,2,0,L|307:188,1,7.775
442,333,138209,6,0,P|432:305|415:281,1,58.3125022244454
429,208,138385,6,0,L|431:195,1,7.775
434,123,138562,2,0,L|432:98,2,14.5781255561114
482,42,138738,6,0,P|367:59|341:58,2,116.625004448891
489,45,139795,1,0,0:0:0:0:
420,241,140147,6,0,P|367:218|347:165,1,116.625004448891
482,175,140675,1,0,0:0:0:0:
482,175,140764,1,0,0:0:0:0:
482,175,140852,6,0,P|455:238|434:355,2,168.458325621923
493,38,141556,6,0,B|423:60|423:60|415:77|415:77|326:101,1,174.937506673336
334,179,142173,1,0,0:0:0:0:
334,179,142261,2,0,B|292:168|292:168|285:155|285:155|218:139,1,108.849996678162
332,21,142613,2,0,B|282:32|282:32|275:45|275:45|233:56,1,108.849996678162
200,263,142965,6,0,B|169:258|169:258|129:129,1,163.274995017243
129,131,143318,2,0,B|101:177|101:177|27:177,1,108.849996678162
93,61,143670,2,0,B|39:61|39:61|11:107,1,108.849996678162
298,270,144023,2,0,B|358:252|358:252|392:266|392:266|473:243,1,163.274995017243
453,248,144375,6,0,B|461:276|461:276|323:312|323:312|333:358,1,204.093757785559
329,342,145079,2,0,B|405:326|405:326|428:291,1,108.849996678162
285,77,145432,2,0,B|294:128|294:128|285:142|285:142|295:201,2,108.849996678162
69,222,146136,6,0,B|91:172|91:172|142:156,1,108.849996678162
152,162,146401,1,0,0:0:0:0:
161,167,146489,1,0,0:0:0:0:
217,233,146665,1,0,0:0:0:0:
197,317,146841,1,0,0:0:0:0:
112,336,147017,1,0,0:0:0:0:
38,296,147193,6,0,B|15:163|15:163|38:110,1,174.937506673336
58,45,147810,1,0,0:0:0:0:
58,45,147898,2,0,B|104:104|104:104|157:123,1,108.849996678162
110,248,148250,2,0,B|154:190|154:190|189:180,1,108.849996678162
400,89,148602,6,0,B|421:68|421:68|283:46,1,163.274995017243
267,157,148955,2,0,B|306:178|306:178|274:121,1,108.849996678162
436,230,149307,2,0,B|436:284|436:284|389:311,1,108.849996678162
200,363,149659,2,0,B|145:368|145:368|76:286,1,163.274995017243
75,286,150012,6,0,B|194:277|194:277|132:318,1,174.937506673336
309,376,150717,2,0,B|282:341|282:341|290:276,1,108.849996678162
386,162,151069,2,0,B|344:111|344:111|277:111,1,108.849996678162
5,123,151421,2,0,B|138:111|138:111|149:56,1,163.274995017243
144,82,151774,6,0,B|127:145|127:145|155:210,1,108.849996678162
151,191,152039,1,0,0:0:0:0:
159,198,152127,1,0,0:0:0:0:
242,222,152303,1,0,0:0:0:0:
310,170,152479,1,0,0:0:0:0:
293,84,152655,1,0,0:0:0:0:
229,33,152831,6,0,B|132:30|184:112|59:114,1,174.937506673336
87,195,153447,1,0,0:0:0:0:
87,195,153535,2,0,B|116:236|151:209|195:247,1,108.849996678162
28,346,153887,2,0,B|57:304|92:331|136:293,1,108.849996678162
431,263,154239,6,0,B|371:252|397:180|310:158,1,163.274995017243
313,159,154592,2,0,B|334:231|309:220|323:278,1,108.849996678162
446,172,154944,2,0,B|425:100|450:110|436:53,1,108.849996678162
196,31,155297,2,0,B|214:106|174:88|208:206,1,163.274995017243
178,273,155649,6,0,B|94:288|87:186|-2:188,1,204.093757785559
1,187,156354,2,0,B|73:200|62:164|106:174,1,108.849996678162
338,326,156706,2,0,B|313:256|287:283|274:240,2,108.849996678162
280,0,157411,6,0,B|232:55|268:64|237:97,1,108.849996678162
243,108,157675,1,0,0:0:0:0:
249,116,157763,1,0,0:0:0:0:
325,157,157939,1,0,0:0:0:0:
406,127,158115,1,0,0:0:0:0:
421,41,158291,1,0,0:0:0:0:
336,0,158468,6,0,B|282:59|229:-17|166:67,1,174.937506673336
193,135,159084,1,0,0:0:0:0:
193,135,159172,2,0,B|159:147|135:107|66:106,1,108.849996678162
103,21,159525,2,0,B|69:9|45:49|-24:50,1,108.849996678162
20,330,159876,6,0,B|64:286|44:217|144:201,1,163.274995017243
118,206,160229,2,0,B|153:245|106:296|149:309,1,108.849996678162
237,365,160582,2,0,B|202:326|249:275|206:262,1,108.849996678162
310,109,160933,2,0,B|334:220|298:168|325:270,1,163.274995017243
325,289,161286,6,0,B|271:171|374:196|302:76,1,204.093757785559
400,85,161991,2,0,B|455:77|449:109|505:102,1,108.849996678162
231,147,162343,6,0,B|175:139|181:171|125:164,1,108.849996678162
162,64,162607,1,0,0:0:0:0:
162,64,162695,2,0,B|183:115|208:94|230:146,1,108.849996678162
180,334,163048,6,0,B|158:282|133:303|111:251,1,108.849996678162
217,232,163312,1,0,0:0:0:0:
217,232,163400,2,0,B|183:276|214:287|179:332,1,108.849996678162
96,354,163664,5,0,0:0:0:0:
96,354,163752,1,0,0:0:0:0:
11,368,163929,1,0,0:0:0:0:
484,347,164124,6,0,B|490:340|490:340|492:331|492:331|502:332|502:332|512:316|512:316|502:316|502:316|493:313|493:313|484:317|484:317|479:305|479:305|473:299|473:299|461:306|461:306|462:315|462:315|473:334|473:334|470:348,2,155.5
428,346,186712,6,0,B|461:344|461:344|462:308|462:308|428:307|428:307|427:346,1,139.949995729065
196,228,187241,5,0,0:0:0:0:
119,236,187329,1,0,0:0:0:0:
65,296,187418,2,0,B|31:297|31:297|30:333|30:333|64:334|64:334|66:296,1,139.949995729065
47,319,187947,1,0,0:0:0:0:
349,197,188124,6,0,B|382:198|382:198|383:234|383:234|349:235|349:235|348:197,1,139.949995729065
367,220,188653,1,0,0:0:0:0:
171,89,188829,6,0,B|137:90|137:90|136:126|136:126|170:127|170:127|172:89,1,139.949995729065
300,49,189535,6,0,B|299:12|299:12|265:13|265:13|266:49|266:49|300:51,1,139.949995729065
359,119,190065,5,0,0:0:0:0:
436,111,190153,1,0,0:0:0:0:
490,51,190242,2,0,B|523:49|523:49|524:13|524:13|490:12|490:12|489:51,1,139.949995729065
508,28,190771,1,0,0:0:0:0:
426,226,190948,6,0,B|392:224|392:224|391:188|391:188|425:187|425:187|427:226,1,139.949995729065
408,203,191477,1,0,0:0:0:0:
492,318,191653,6,0,B|525:316|525:316|526:280|526:280|492:279|492:279|491:318,1,139.949995729065
66,71,192359,6,0,B|31:85|31:85|18:54|18:54|51:40|51:40|66:69,1,139.949995729065
136,108,192888,5,0,0:0:0:0:
168,178,192976,1,0,0:0:0:0:
145,255,193065,2,0,B|160:284|160:284|130:303|130:303|112:275|112:275|144:254,1,139.949995729065
134,282,193594,1,0,0:0:0:0:
275,203,193771,6,0,B|259:232|259:232|289:251|289:251|307:223|307:223|275:202,1,139.949995729065
286,230,194300,1,0,0:0:0:0:
43,182,194476,6,0,B|11:202|11:202|30:230|30:230|60:211|60:211|44:182,1,139.949995729065
480,85,195182,6,0,B|464:56|464:56|494:37|494:37|513:65|513:65|481:85,1,139.949995729065
426,134,195712,5,0,0:0:0:0:
361,176,195800,1,0,0:0:0:0:
282,165,195889,2,0,B|255:184|255:184|232:157|232:157|257:135|257:135|282:163,1,139.949995729065
253,159,196418,1,0,0:0:0:0:
353,286,196595,6,0,B|321:274|321:274|307:307|307:307|338:320|338:320|353:285,1,139.949995729065
328,301,197124,1,0,0:0:0:0:
306,45,197300,6,0,B|287:23|287:23|268:40|268:40|286:61|286:61|306:45,1,104.962496796799
364,107,197653,2,0,B|375:115|375:115|387:102|387:102|374:90|374:90|361:104,1,69.9749978645325
142,62,198006,6,0,B|97:51|97:51|108:96|108:96|142:62,1,139.949995729065
195,119,198535,5,0,0:0:0:0:
151,181,198623,1,0,0:0:0:0:
75,196,198712,2,0,B|29:194|29:194|51:154|51:154|75:195,1,139.949995729065
55,182,199241,1,0,0:0:0:0:
204,301,199418,6,0,B|249:299|249:299|227:259|227:259|203:300,1,139.949995729065
224,287,199947,1,0,0:0:0:0:
44,361,200123,6,0,B|-1:359|-1:359|20:319|20:319|44:360,1,139.949995729065
397,341,200829,6,0,B|441:351|441:351|430:306|430:306|396:340,1,139.949995729065
344,284,201358,5,0,0:0:0:0:
388,222,201446,1,0,0:0:0:0:
464,207,201535,2,0,B|509:208|509:208|487:248|487:248|463:207,1,139.949995729065
484,221,202064,1,0,0:0:0:0:
335,102,202241,6,0,B|289:103|289:103|311:143|311:143|335:102,1,139.949995729065
315,116,202770,1,0,0:0:0:0:
495,42,202946,6,0,B|540:43|540:43|518:83|518:83|494:42,1,139.949995729065
262,33,203653,6,0,B|170:35|170:35|215:116|215:116|263:33,1,279.89999145813
229,56,204712,6,0,B|202:56|202:56|216:76|216:76|229:56,2,69.9749978645325
235,216,205418,6,0,B|245:260|245:260|200:249|200:249|234:215,2,139.949995729065
135,192,206476,5,0,0:0:0:0:
327,224,206829,1,0,0:0:0:0:
135,192,207006,2,0,L|87:179,2,34.9874989322663
137,115,207359,1,0,0:0:0:0:
133,272,207535,6,0,L|47:258,1,69.9749978645325
7,330,207888,2,0,L|146:354,1,139.949995729065
259,328,208418,1,0,0:0:0:0:
382,370,208594,5,0,0:0:0:0:
382,370,208947,1,0,0:0:0:0:
382,370,209300,6,0,P|441:338|523:300,1,139.949995729065
416,172,209653,6,0,P|369:238|325:307,1,163.274995017243
244,287,210006,6,0,P|248:193|256:100,1,186.6
73,127,210359,6,0,P|117:222|165:315,1,209.924993593598
177,323,210712,1,0,0:0:0:0:
187,306,210800,1,0,0:0:0:0:
195,323,210888,1,0,0:0:0:0:
205,306,210976,1,0,0:0:0:0:
212,324,211065,1,0,0:0:0:0:
216,326,211153,1,0,0:0:0:0:
220,326,211241,1,0,0:0:0:0:
266,261,211418,6,0,P|271:144|281:28,1,233.25
490,81,211771,6,0,P|416:185|346:293,1,256.575007830048
289,374,212123,6,0,P|265:364|217:354,1,69.975
27,214,213532,6,0,P|51:204|99:194,1,69.975
512,45,214941,6,0,P|477:38|445:25,1,69.975
77,11,216350,6,0,P|86:35|94:83,1,69.975
19,377,217760,6,0,P|14:342|16:307,1,69.975
451,336,219169,6,0,P|426:343|377:348,1,69.975
196,358,220578,6,0,L|192:291,1,62.2
325,166,221987,6,0,L|329:95,1,69.975
150,45,223397,6,0,P|92:39|34:47,2,116.625004448891
230,92,224454,1,0,0:0:0:0:
110,187,224806,2,0,P|85:151|96:72,2,116.625004448891
192,206,225863,1,0,0:0:0:0:
460,149,226215,2,0,P|455:109|471:18,2,116.625004448891
365,104,227272,1,0,0:0:0:0:
403,227,227625,2,0,B|462:244|462:244|511:220,2,116.625004448891
413,309,228682,1,0,0:0:0:0:
232,346,229034,6,0,P|197:324|103:311,2,116.625004448891
242,262,230091,1,0,0:0:0:0:
53,283,230443,2,0,P|88:332|66:386,2,116.625004448891
28,212,231500,1,0,0:0:0:0:
231,67,231852,6,0,B|287:55|287:55|296:56|296:56|360:45,2,116.625004448891
414,195,232909,2,0,L|312:162,1,104.962496796799
314,163,233262,1,0,0:0:0:0:
60,230,233966,6,0,B|103:236|113:300|113:300|99:247|36:230,1,204.093757785559
27,314,234671,6,0,P|112:281|301:280,1,264.350005042076
289,278,235111,1,0,0:0:0:0:
300,283,235199,1,0,0:0:0:0:
316,294,235288,1,0,0:0:0:0:
335,312,235376,1,0,0:0:0:0:
335,312,235728,6,0,P|311:251|328:188,1,132.175002521038
494,147,236080,2,0,P|431:164|418:236,1,132.175002521038
453,310,236433,6,0,P|465:238|363:139,1,198.262503781557
390,145,236785,2,0,P|328:158|283:113,1,132.175002521038
43,254,237137,2,0,P|87:207|152:199,1,132.175002521038
322,232,237489,6,0,B|326:250|342:264|342:264|320:263|303:268,12,77.7500029659272
237,316,238546,6,0,P|172:323|111:357,1,132.175002521038
52,139,238899,2,0,P|87:192|151:199,1,132.175002521038
248,218,239251,2,0,P|283:164|347:157,1,132.175002521038
462,178,239603,2,0,P|502:117|452:82,1,132.175002521038
313,23,239956,6,0,P|287:42|286:74,1,66.087501260519
186,71,240132,2,0,P|190:102|217:120,1,66.087501260519
311,315,240308,6,0,B|327:320|344:334|344:334|339:314|347:296,12,77.7500029659272
257,383,241365,6,0,P|233:322|250:259,1,132.175002521038
50,168,241717,2,0,P|113:185|126:257,1,132.175002521038
24,258,242070,6,0,P|12:186|114:87,1,198.262503781557
132,37,242422,2,0,P|162:93|135:150,1,132.175002521038
0,334,242774,2,0,P|60:354|122:331,1,132.175002521038
249,222,243127,6,0,B|242:205|241:183|241:183|229:200|211:206,12,77.7500029659272
302,314,244184,2,0,P|331:250|309:178,1,132.175002521038
150,113,244536,2,0,P|176:55|239:53,1,132.175002521038
410,193,244888,2,0,P|501:178|514:64,1,198.262503781557
512,10,245241,2,0,P|461:46|466:144,1,132.175002521038
496,208,245505,5,0,0:0:0:0:
496,208,245593,2,0,L|487:290,1,66.087501260519
410,193,245769,2,0,L|401:275,1,66.087501260519
512,346,245945,6,0,L|216:218,1,311
1,281,246562,1,0,0:0:0:0:
28,349,246650,2,0,L|190:301,1,155.5
174,123,247002,2,0,L|24:78,1,155.5
363,192,247354,6,0,P|467:157|460:31,1,233.25
344,48,247707,2,0,L|345:247,1,155.5
121,210,248059,2,0,L|255:131,1,155.5
361,333,248411,2,0,L|225:255,1,155.5
489,32,248764,6,0,P|464:186|464:342,1,311
488,347,249468,2,0,P|411:355|333:357,1,155.5
7,270,249821,2,0,P|84:267|161:259,1,155.5
465,107,250173,6,0,B|371:41|371:41|277:114,1,233.25
271,87,250525,2,0,L|281:284,1,155.5
246,333,250878,5,0,0:0:0:0:
289,8,251054,1,0,0:0:0:0:
252,207,251230,5,0,0:0:0:0:
308,160,251406,1,0,0:0:0:0:
229,351,251582,6,0,P|135:334|177:124,1,311
389,31,252199,1,0,0:0:0:0:
465,33,252287,2,0,B|494:103|494:103|455:195,1,155.5
252,30,252639,2,0,B|223:100|223:100|262:192,1,155.5
357,363,252992,6,0,L|370:120,1,233.25
354,126,253344,2,0,L|343:306,1,155.5
167,151,253696,2,0,L|178:331,1,155.5
508,209,254049,2,0,L|497:389,1,155.5
470,61,254401,6,0,B|312:-18|366:183|165:147,1,311
173,137,255105,2,0,L|328:126,1,155.5
223,355,255458,2,0,L|136:226,1,155.5
416,151,255810,2,0,L|332:368,1,233.25
311,364,256162,2,0,L|491:345,1,155.5
507,281,256515,5,0,0:0:0:0:
166,241,256691,1,0,0:0:0:0:
344,207,256867,5,0,0:0:0:0:
269,164,257043,1,0,0:0:0:0:
376,24,257219,6,0,P|485:119|418:247,1,311
103,360,257836,1,0,0:0:0:0:
25,334,257924,2,0,L|16:152,1,155.5
226,6,258276,2,0,L|233:161,1,155.5
206,364,258629,6,0,B|174:260|296:290|279:181|233:161,1,233.25
336,338,258981,2,0,B|326:230|224:303|199:196|234:160,1,233.25
232,82,259334,2,0,P|300:113|304:187,1,155.5
90,222,259687,6,0,L|81:199,1,23.325
58,41,260038,6,0,B|43:32|29:15|29:15|30:36|19:52,12,77.7500029659272
61,118,261095,5,0,0:0:0:0:
91,196,261271,5,0,0:0:0:0:
88,292,261447,5,0,0:0:0:0:
13,373,261800,5,0,0:0:0:0:
132,278,262152,5,0,0:0:0:0:
304,275,262504,5,0,0:0:0:0:
486,343,262856,5,0,0:0:0:0:
79,246,263208,5,0,0:0:0:0:
470,117,263473,5,0,0:0:0:0:
470,117,263561,5,0,0:0:0:0:
90,29,263914,5,0,0:0:0:0:
182,9,264091,5,0,0:0:0:0:
182,9,264179,5,0,0:0:0:0:
182,9,264267,5,0,0:0:0:0:
303,363,264620,5,0,0:0:0:0:
414,33,264973,5,0,0:0:0:0:
414,33,265326,5,0,0:0:0:0:
303,363,265679,5,0,0:0:0:0:
238,15,266032,5,0,0:0:0:0:
51,373,266385,5,0,0:0:0:0:
51,373,266473,5,0,0:0:0:0:
0,15,266914,5,0,0:0:0:0:
48,89,267091,5,0,0:0:0:0:
48,89,267444,5,0,0:0:0:0:
368,11,267797,5,0,0:0:0:0:
332,88,267973,5,0,0:0:0:0:
332,88,268061,5,0,0:0:0:0:
332,88,268150,5,0,0:0:0:0:
376,175,268326,5,0,0:0:0:0:
346,301,268503,5,0,0:0:0:0:
0,384,268856,5,0,0:0:0:0:
255,248,269120,5,0,0:0:0:0:
255,248,269208,5,0,0:0:0:0:
511,371,269561,5,0,0:0:0:0:
419,379,269738,5,0,0:0:0:0:
419,379,269826,5,0,0:0:0:0:
419,379,269914,5,0,0:0:0:0:
86,237,270267,5,0,0:0:0:0:
450,115,270620,5,0,0:0:0:0:
450,115,270973,5,0,0:0:0:0:
4,1,271326,5,0,0:0:0:0:
14,380,271679,5,0,0:0:0:0:
4,1,272032,5,0,0:0:0:0:
14,380,272385,5,0,0:0:0:0:
59,303,272561,5,0,0:0:0:0:
62,197,272738,5,0,0:0:0:0:
345,308,273091,5,0,0:0:0:0:
171,359,273356,5,0,0:0:0:0:
171,359,273444,5,0,0:0:0:0:
345,308,273620,5,0,0:0:0:0:
226,286,273797,5,0,0:0:0:0:
345,308,273973,5,0,0:0:0:0:
28,359,274150,5,0,0:0:0:0:
509,226,274503,5,0,0:0:0:0:
167,128,274767,5,0,0:0:0:0:
167,128,274856,5,0,0:0:0:0:
499,9,275208,5,0,0:0:0:0:
484,114,275385,5,0,0:0:0:0:
123,15,275561,5,0,0:0:0:0:
256,379,275914,5,0,0:0:0:0:
389,15,276267,5,0,0:0:0:0:
256,326,276620,5,0,0:0:0:0:
10,8,276973,5,0,0:0:0:0:
256,270,277326,5,0,0:0:0:0:
511,18,277679,5,0,0:0:0:0:
257,129,278032,5,0,0:0:0:0:
256,33,278208,5,0,0:0:0:0:
257,129,278385,5,0,0:0:0:0:
43,351,278738,5,0,0:0:0:0:
353,256,279003,5,0,0:0:0:0:
353,256,279091,5,0,0:0:0:0:
188,260,279267,5,0,0:0:0:0:
474,245,279444,5,0,0:0:0:0:
353,256,279620,5,0,0:0:0:0:
435,10,279797,5,0,0:0:0:0:
407,366,280150,5,0,0:0:0:0:
497,87,280414,5,0,0:0:0:0:
497,87,280503,5,0,0:0:0:0:
39,66,280856,5,0,0:0:0:0:
51,167,281032,5,0,0:0:0:0:
175,17,281208,5,0,0:0:0:0:
202,366,281561,5,0,0:0:0:0:
509,183,281914,5,0,0:0:0:0:
509,183,282267,5,0,0:0:0:0:
10,207,282620,5,0,0:0:0:0:
436,151,282973,5,0,0:0:0:0:
83,234,283326,5,0,0:0:0:0:
375,201,283679,5,0,0:0:0:0:
137,170,283856,5,0,0:0:0:0:
311,249,284032,5,0,0:0:0:0:
153,10,284385,5,0,0:0:0:0:
252,162,284561,5,0,0:0:0:0:
252,162,284650,5,0,0:0:0:0:
252,162,284738,5,0,0:0:0:0:
149,370,284914,5,0,0:0:0:0:
508,313,285091,5,0,0:0:0:0:
510,323,285267,5,0,0:0:0:0:
500,318,285444,5,0,0:0:0:0:
