osu file format v14

[General]
AudioFilename: audio.mp3
AudioLeadIn: 0
PreviewTime: 52356
Countdown: 0
SampleSet: Soft
StackLeniency: 0.5
Mode: 0
LetterboxInBreaks: 0
WidescreenStoryboard: 1

[Editor]
Bookmarks: 10876,40264,72101,101489,130876,160264,180468,202508
DistanceSpacing: 0.5
BeatDivisor: 8
GridSize: 4
TimelineZoom: 1.899999

[Metadata]
Title:Gingaroku
TitleUnicode:銀河録
Artist:Hanatan
ArtistUnicode:花たん
Creator:Ianos
Version:eIis & Ianos' Shooting Star
Source:
Tags:Dogerinoo C5H10 sueishnao eIis Nirosue -Akito Akito harumaki gohan はるまきごはん hatsune miku 初音ミク vocaloid cover blue ending nova galaxy log 花雨ーはなふるー hana ame furu yurica cordelia japanese alternative rock utaite utau community mentorship program collab contest cycle 11
BeatmapID:2866145
BeatmapSetID:1003562

[Difficulty]
HPDrainRate:6
CircleSize:4.2
OverallDifficulty:8.5
ApproachRate:9.3
SliderMultiplier:2
SliderTickRate:1

[Events]
//Background and Video events
0,0,"70854385_p0.jpg",0,0
//Break Periods
//Storyboard Layer 0 (Background)
//Storyboard Layer 1 (Fail)
//Storyboard Layer 2 (Pass)
//Storyboard Layer 3 (Foreground)
//Storyboard Layer 4 (Overlay)
//Storyboard Sound Samples

[TimingPoints]
1081,612.244897959184,4,2,1,45,1,0
8427,-100,4,2,1,45,0,0
9040,-100,4,2,1,50,0,0
9652,-100,4,2,1,55,0,0
10264,-100,4,2,1,60,0,0
10876,-83.3333333333333,4,2,1,65,0,0
13019,-55.5555555555556,4,2,1,65,0,0
13938,-71.4285714285714,4,2,1,65,0,0
15162,-100,4,2,1,65,0,0
16387,-125,4,2,1,65,0,0
18836,-71.4285714285714,4,2,1,65,0,0
21285,-100,4,2,1,65,0,0
21744,-83.3333333333333,4,2,1,65,0,0
22815,-55.5555555555556,4,2,1,65,0,0
23734,-71.4285714285714,4,2,1,65,0,0
24958,-100,4,2,1,65,0,0
28632,-71.4285714285714,4,2,1,65,0,0
29856,-125,4,2,1,65,0,0
30468,-62.5,4,2,1,70,0,0
31540,-125,4,2,1,70,0,0
32305,-83.3333333333333,4,2,1,70,0,0
32917,-62.5,4,2,1,70,0,0
34754,-100,4,2,1,70,0,0
35366,-62.5,4,2,1,70,0,0
36591,-83.3333333333333,4,2,1,70,0,0
37815,-62.5,4,2,1,70,0,0
41336,-125,4,2,1,70,0,0
41948,-83.3333333333333,4,2,1,70,0,0
42713,-62.5,4,2,1,70,0,0
44550,-100,4,2,1,70,0,0
45162,-62.5,4,2,1,70,0,0
46387,-83.3333333333333,4,2,1,70,0,0
47611,-62.5,4,2,1,70,0,0
50060,-62.5,4,2,1,50,0,0
51285,-62.5,4,2,1,60,0,0
51897,-62.5,4,2,1,70,0,0
52509,-55.5555555555556,4,2,2,85,0,1
62305,-50,4,2,2,90,0,1
62611,-62.5,4,2,2,90,0,1
62917,-50,4,2,2,90,0,1
63223,-62.5,4,2,2,90,0,1
63529,-50,4,2,2,90,0,1
63836,-62.5,4,2,2,90,0,1
64142,-50,4,2,2,90,0,1
64448,-62.5,4,2,2,90,0,1
64754,-83.3333333333333,4,2,2,90,0,1
65825,-55.5555555555556,4,2,2,90,0,1
66438,-76.9230769230769,4,2,2,90,0,1
66897,-50,4,2,2,90,0,1
67203,-41.6666666666667,4,2,2,90,0,1
67815,-55.5555555555556,4,2,2,90,0,1
69652,-55.5555555555556,4,2,2,85,0,1
72101,-55.5555555555556,4,2,1,85,0,0
78529,-41.6666666666667,4,2,1,85,0,0
79142,-83.3333333333333,4,2,1,85,0,0
79448,-41.6666666666667,4,2,1,90,0,0
80672,-41.6666666666667,4,2,1,60,0,0
81897,-100,4,2,1,65,0,0
83734,-166.666666666667,4,2,1,65,0,0
84346,-100,4,2,1,65,0,0
93529,-166.666666666667,4,2,1,65,0,0
94448,-100,4,2,1,65,0,0
101183,-41.6666666666667,4,2,1,65,0,0
101489,-71.4285714285714,4,2,1,70,0,0
115417,-66.6666666666667,4,2,1,70,0,0
118632,-58.8235294117647,4,2,1,80,0,0
119856,-250,4,2,2,90,0,0
121081,-50,4,2,2,100,0,1
130264,-71.4285714285714,4,2,1,90,0,1
130876,-50,4,2,2,90,0,1
140672,-41.6666666666667,4,2,2,95,0,1
140978,-62.5,4,2,2,95,0,1
141285,-41.6666666666667,4,2,2,95,0,1
141591,-62.5,4,2,2,95,0,1
141897,-41.6666666666667,4,2,2,95,0,1
142203,-62.5,4,2,2,95,0,1
142509,-41.6666666666667,4,2,2,95,0,1
142815,-62.5,4,2,2,95,0,1
143121,-83.3333333333333,4,2,2,95,0,1
144346,-50,4,2,2,95,0,1
145570,-50,4,2,2,95,0,1
146795,-55.5555555555556,4,2,2,95,0,1
148019,-62.5,4,2,2,90,0,1
150468,-100,4,2,1,60,0,0
152917,-384.615384615385,4,2,1,60,0,0
160264,-100,4,2,1,65,0,0
170060,-90.9090909090909,4,2,1,65,0,0
177407,-83.3333333333333,4,2,1,70,0,0
179244,-83.3333333333333,4,2,1,75,0,0
179856,-500,4,2,1,65,0,0
180468,612.244897959184,4,2,2,95,1,0
180468,-50,4,2,2,95,0,1
190263,-45.4545454545455,4,2,2,100,0,1
190570,-62.5,4,2,2,100,0,1
190876,-45.4545454545455,4,2,2,100,0,1
191182,-62.5,4,2,2,100,0,1
191488,-45.4545454545455,4,2,2,100,0,1
192406,-62.5,4,2,2,100,0,1
192712,-83.3333333333333,4,2,2,100,0,1
193937,-50,4,2,2,100,0,1
197610,-55.5555555555556,4,2,2,95,0,1
200059,-50,4,2,2,95,0,1
209855,-41.6666666666667,4,2,2,100,0,1
210161,-55.5555555555556,4,2,2,100,0,1
210468,-41.6666666666667,4,2,2,100,0,1
210774,-55.5555555555556,4,2,2,100,0,1
211080,-41.6666666666667,4,2,2,100,0,1
211386,-55.5555555555556,4,2,2,100,0,1
211692,-41.6666666666667,4,2,2,100,0,1
211998,-55.5555555555556,4,2,2,100,0,1
212304,-62.5,4,2,2,100,0,1
213376,-50,4,2,2,100,0,1
214447,-45.4545454545455,4,2,2,100,0,1
214753,-38.4615384615385,4,2,2,100,0,1
215365,-50,4,2,2,100,0,1
217202,-50,4,2,2,95,0,1
219651,-50,4,2,1,85,0,0
226080,-38.4615384615385,4,2,1,85,0,0
226692,-76.9230769230769,4,2,1,85,0,0
226998,-38.4615384615385,4,2,1,90,0,0
228223,-83.3333333333333,4,2,1,60,0,0
229447,-83.3333333333333,4,2,1,55,0,0

[Colours]
Combo1 : 107,173,245
Combo2 : 50,105,250
Combo3 : 210,210,210
Combo4 : 142,151,249
Combo5 : 244,174,207

[HitObjects]
256,192,8427,12,8,10570,0:2:0:0:
126,29,10876,21,2,1:2:0:0:
107,50,11029,2,0,B|112:112,1,59.9999981689454
264,153,11336,1,0,1:2:0:0:
255,127,11489,2,0,B|198:100,1,59.9999981689454,10|0,0:2|1:2,0:0:0:0:
117,236,11795,1,0,0:0:0:0:
33,259,11948,6,0,P|64:288|78:318,1,59.9999981689454,2|0,1:2|0:0,0:0:0:0:
187,354,12254,2,0,P|200:327|204:297,1,59.9999981689454,0|0,1:2|0:0,0:0:0:0:
186,178,12560,1,0,1:2:0:0:
368,237,12713,1,10,0:2:0:0:
317,290,12866,1,0,1:2:0:0:
358,224,13019,2,0,P|431:229|460:302,1,134.999995880127
457,295,13325,53,2,1:2:0:0:
368,237,13478,1,0,0:0:0:0:
437,126,13632,1,0,0:0:0:0:
417,53,13785,1,2,1:2:0:0:
243,75,13938,2,0,B|316:76|287:140|368:138,1,139.999995727539,10|0,0:2|1:2,0:0:0:0:
360,138,14397,1,8,0:2:0:0:
197,13,14550,5,2,1:2:0:0:
61,108,14703,1,10,0:2:0:0:
21,41,14856,53,2,1:2:0:0:
131,77,15009,1,0,0:0:0:0:
17,217,15162,6,0,L|123:209,1,100,10|0,0:2|0:0,0:0:0:0:
116,209,15621,1,0,0:0:0:0:
271,327,15774,53,2,1:2:0:0:
317,267,15927,2,0,P|368:298|419:297,1,100,0|0,0:0|1:2,0:0:0:0:
147,305,16387,6,0,L|96:280,1,40,10|0,0:2|0:0,0:0:0:0:
80,197,16693,1,0,0:0:0:0:
80,197,16846,2,0,L|113:174,1,40,0|2,1:2|1:2,0:0:0:0:
206,194,17152,2,0,L|209:250,1,40,0|0,0:0|1:2,0:0:0:0:
256,384,17458,1,0,0:0:0:0:
307,233,17611,54,0,L|309:193,1,40,10|0,0:2|0:0,0:0:0:0:
402,174,17917,1,0,1:2:0:0:
402,174,18070,2,0,L|435:196,1,40,8|2,0:2|1:2,0:0:0:0:
405,287,18376,2,0,L|369:304,1,40,0|0,3:2|3:2,0:0:0:0:
369,305,18683,1,2,1:2:0:0:
333,117,18836,2,0,B|406:104|366:45|450:34,1,139.999995727539,10|0,0:2|1:2,0:0:0:0:
439,36,19295,1,8,0:2:0:0:
405,255,19448,5,2,1:2:0:0:
452,124,19601,1,10,0:2:0:0:
499,287,19754,53,2,1:2:0:0:
473,215,19907,1,0,0:0:0:0:
334,384,20060,6,0,L|215:363,1,104.999996795654,10|0,0:2|0:0,0:0:0:0:
224,354,20366,1,8,0:2:0:0:
178,360,20443,1,8,0:2:0:0:
139,335,20519,1,8,0:2:0:0:
132,289,20596,1,8,0:2:0:0:
158,252,20672,53,2,1:2:0:0:
45,295,20825,1,0,0:0:0:0:
0,142,20978,1,0,0:0:0:0:
70,164,21132,1,0,1:2:0:0:
183,23,21285,2,0,L|133:30,1,50,10|0,0:2|1:2,0:0:0:0:
85,88,21591,1,0,0:0:0:0:
253,180,21744,6,0,P|269:155|292:136,1,59.9999981689454,2|0,1:2|0:0,0:0:0:0:
333,20,22050,2,0,P|349:44|372:63,1,59.9999981689454,0|0,1:2|0:0,0:0:0:0:
463,75,22356,1,0,1:2:0:0:
490,230,22509,1,10,0:2:0:0:
419,208,22662,1,0,1:2:0:0:
497,220,22815,2,0,P|503:303|449:314,1,134.999995880127
447,310,23121,53,2,1:2:0:0:
341,285,23274,1,0,0:0:0:0:
257,384,23427,1,0,0:0:0:0:
183,366,23581,1,2,1:2:0:0:
212,165,23734,2,0,B|227:190|227:190|205:277|205:277|215:295,1,139.999995727539,10|0,0:2|1:2,0:0:0:0:
215,295,24193,1,8,0:2:0:0:
99,179,24346,5,2,1:2:0:0:
137,305,24499,1,10,0:2:0:0:
73,259,24652,53,2,1:2:0:0:
44,345,24805,1,0,0:0:0:0:
4,169,24958,6,0,L|7:228,2,50,10|0|0,0:2|0:0|0:0,0:0:0:0:
0,94,25417,1,0,0:0:0:0:
99,179,25570,53,2,1:2:0:0:
164,144,25723,2,0,P|206:174|256:178,1,100,0|0,0:0|1:2,0:0:0:0:
102,32,26183,6,0,L|53:43,1,50,10|0,0:2|0:0,0:0:0:0:
183,48,26489,1,0,0:0:0:0:
183,48,26642,2,0,L|197:0,1,50,0|2,1:2|1:2,0:0:0:0:
129,107,26948,2,0,L|163:143,1,50,0|0,0:0|1:2,0:0:0:0:
256,242,27254,1,0,0:0:0:0:
367,121,27407,54,0,L|332:157,1,50,10|0,0:2|0:0,0:0:0:0:
394,46,27713,1,0,1:2:0:0:
394,46,27866,2,0,L|442:57,1,50,8|2,0:2|1:2,0:0:0:0:
313,62,28172,2,0,L|298:14,1,50
298,14,28478,1,2,1:2:0:0:
495,131,28632,2,0,B|422:147|465:204|382:220,1,139.999995727539,10|0,0:2|1:2,0:0:0:0:
393,217,29091,1,8,0:2:0:0:
332,156,29244,5,2,1:2:0:0:
388,296,29397,1,10,0:2:0:0:
228,305,29550,53,2,1:2:0:0:
294,266,29703,1,0,0:0:0:0:
217,315,29856,6,0,L|135:310,1,80,10|0,0:2|0:0,0:0:0:0:
137,310,30468,54,0,B|96:265|96:265|112:208,1,120,2|0,1:2|0:0,0:0:0:0:
125,203,30774,1,0,0:0:0:0:
210,236,30927,1,0,1:2:0:0:
55,342,31081,1,10,0:2:0:0:
137,310,31234,1,0,1:2:0:0:
34,179,31387,1,0,0:0:0:0:
131,70,31540,6,0,L|217:78,1,80,2|0,1:2|1:2,0:0:0:0:
210,77,32152,1,0,1:2:0:0:
341,147,32305,2,0,L|422:138,1,59.9999981689454,10|0,0:2|1:2,0:0:0:0:
454,89,32611,1,0,0:0:0:0:
413,27,32764,1,0,0:0:0:0:
382,217,32917,54,0,B|442:210|442:210|478:257,1,120,2|0,1:2|0:0,0:0:0:0:
475,269,33223,1,0,0:0:0:0:
404,298,33376,1,2,1:2:0:0:
262,355,33529,1,10,0:2:0:0:
333,384,33682,1,0,0:0:0:0:
312,188,33836,1,0,1:2:0:0:
241,217,33989,1,8,0:2:0:0:
313,300,34142,5,2,1:2:0:0:
187,365,34295,1,10,0:2:0:0:
147,202,34448,53,2,1:2:0:0:
169,273,34601,1,0,0:0:0:0:
140,188,34754,6,0,L|30:194,1,100,10|0,0:2|0:0,0:0:0:0:
40,193,35213,1,0,0:0:0:0:
1,45,35366,54,0,P|74:39|92:110,1,160,2|0,1:2|0:0,0:0:0:0:
190,19,35825,1,0,1:2:0:0:
235,81,35978,2,0,B|295:87|295:87|336:124|336:124|380:127,1,160,10|0,0:2|0:0,0:0:0:0:
512,44,36438,1,0,1:2:0:0:
479,239,36591,6,0,B|448:218|448:218|453:136,1,119.999996337891,2|0,1:2|1:2,0:0:0:0:
453,136,37050,1,0,0:0:0:0:
377,271,37203,2,0,B|408:292|408:292|402:374,1,119.999996337891,10|0,0:2|1:2,0:0:0:0:
402,374,37662,1,0,0:0:0:0:
256,327,37815,54,0,B|167:311|195:409|80:378,1,160,2|0,1:2|0:0,0:0:0:0:
45,356,38274,1,2,1:2:0:0:
94,227,38427,1,10,0:2:0:0:
150,274,38580,1,0,0:0:0:0:
165,199,38734,1,0,1:2:0:0:
34,278,38887,5,8,0:2:0:0:
70,154,39040,1,2,1:2:0:0:
0,25,39193,53,10,0:2:0:0:
65,65,39346,1,2,1:2:0:0:
58,141,39499,1,0,0:0:0:0:
181,38,39652,6,0,L|304:28,1,120,10|0,0:2|0:0,0:0:0:0:
321,9,39958,1,8,0:2:0:0:
366,16,40035,1,8,0:2:0:0:
396,51,40111,1,8,0:2:0:0:
390,97,40188,1,8,0:2:0:0:
354,125,40264,54,0,B|339:167|339:167|357:216,1,80,2|0,1:2|0:0,0:0:0:0:
492,188,40570,1,0,0:0:0:0:
420,170,40723,1,0,1:2:0:0:
381,336,40876,5,10,0:2:0:0:
400,262,41029,1,0,1:2:0:0:
453,316,41183,1,0,0:0:0:0:
277,226,41336,54,0,L|193:237,1,80,2|0,1:2|1:2,0:0:0:0:
197,236,41948,1,0,1:2:0:0:
0,195,42101,1,10,0:2:0:0:
64,155,42254,2,0,L|148:166,2,59.9999981689454,0|0|0,1:2|0:0|0:0,0:0:0:0:
115,316,42713,6,0,B|129:279|129:279|117:236,1,80,2|0,1:2|0:0,0:0:0:0:
197,53,43019,1,0,0:0:0:0:
129,88,43172,1,2,1:2:0:0:
193,129,43325,2,0,P|258:118|283:113,1,80,10|0,0:2|0:0,0:0:0:0:
467,140,43632,53,0,1:2:0:0:
421,0,43785,2,0,P|369:10|339:95,1,120,8|0,0:2|0:0,0:0:0:0:
383,126,44091,2,0,P|393:184|401:234,2,80,10|2|0,0:2|1:2|0:0,0:0:0:0:
500,215,44550,6,0,L|487:322,1,100,10|0,0:2|0:0,0:0:0:0:
487,314,45009,1,0,0:0:0:0:
319,214,45162,54,0,B|225:227|282:274|176:289,1,160,2|0,1:2|0:0,0:0:0:0:
60,215,45621,1,0,1:2:0:0:
2,264,45774,2,0,P|34:344|104:345,1,160,10|0,0:2|0:0,0:0:0:0:
184,206,46234,1,0,1:2:0:0:
1,121,46387,6,0,B|39:99|39:99|115:124,1,119.999996337891,2|0,1:2|1:2,0:0:0:0:
111,122,46846,1,0,0:0:0:0:
273,42,46999,2,0,B|235:64|235:64|159:39,1,119.999996337891,10|0,0:2|1:2,0:0:0:0:
163,40,47458,1,8,0:2:0:0:
365,99,47611,54,0,P|453:112|474:172,1,160,2|0,1:2|0:0,0:0:0:0:
446,313,48070,1,2,1:2:0:0:
379,349,48223,2,0,B|277:336|325:289|232:275,1,160,10|0,0:2|1:2,0:0:0:0:
87,85,48683,6,0,P|78:140|72:176,1,80,8|2,0:2|1:2,0:0:0:0:
134,258,48989,2,0,P|155:148|167:96,1,160,10|0,0:2|0:0,0:0:0:0:
316,106,49448,2,0,P|344:144|339:181,1,80,10|0,0:2|1:2,0:0:0:0:
257,345,49754,53,8,0:2:0:0:
210,284,49907,1,8,0:2:0:0:
271,225,50060,5,2,0:0:0:0:
256,192,51438,12,0,52433,0:0:0:0:
336,329,52509,6,0,P|351:223|431:239,1,179.999994506836,6|0,1:2|1:2,0:0:0:0:
451,283,52968,1,2,0:0:0:0:
297,230,53121,2,0,P|236:236|184:246,1,89.9999972534181,10|0,0:2|0:0,0:0:0:0:
389,140,53427,2,0,P|450:146|502:156,1,89.9999972534181,2|0,1:2|1:2,0:0:0:0:
216,0,53734,5,2,1:2:0:0:
261,142,53887,2,0,P|268:74|285:38,1,89.9999972534181,8|2,0:2|1:2,0:0:0:0:
180,145,54193,1,0,0:0:0:0:
131,250,54346,2,0,P|115:187|92:159,1,89.9999972534181,10|0,0:2|0:0,0:0:0:0:
79,14,54652,2,0,P|135:44|171:80,1,89.9999972534181,0|8,1:2|0:2,0:0:0:0:
155,331,54958,6,0,B|254:314|195:247|316:227,1,179.999994506836,6|0,1:2|1:2,0:0:0:0:
340,163,55417,1,2,0:0:0:0:
476,269,55570,2,0,B|488:228|488:228|469:184,1,89.9999972534181,10|0,0:2|0:0,0:0:0:0:
328,300,55876,2,0,B|315:340|315:340|334:384,1,89.9999972534181,2|0,1:2|1:2,0:0:0:0:
379,66,56183,37,2,1:2:0:0:
444,108,56336,2,0,P|327:124|250:142,1,179.999994506836,8|0,0:2|0:0,0:0:0:0:
124,25,56795,2,0,P|188:24|209:59,1,89.9999972534181,10|0,0:2|1:2,0:0:0:0:
85,127,57101,1,0,0:0:0:0:
30,75,57254,1,8,0:2:0:0:
211,222,57407,6,0,B|211:260|240:293|240:293|183:323|180:391,1,179.999994506836,4|0,1:2|1:2,0:0:0:0:
135,199,57866,1,10,0:0:0:0:
135,199,57943,1,8,0:0:0:0:
135,199,58019,2,0,P|67:212|29:224,1,89.9999972534181,10|0,0:2|0:0,0:0:0:0:
250,151,58325,2,0,P|184:128|145:119,1,89.9999972534181,2|0,1:2|1:2,0:0:0:0:
365,334,58632,5,2,1:2:0:0:
429,376,58785,2,0,P|493:310|454:233,1,179.999994506836,8|0,0:2|0:0,0:0:0:0:
292,81,59244,1,10,0:2:0:0:
361,50,59397,1,0,0:0:0:0:
417,103,59550,2,0,P|399:192|398:219,1,89.9999972534181,0|8,1:2|0:2,0:0:0:0:
178,45,59856,38,0,P|198:132|210:221,1,179.999994506836,4|0,1:2|1:2,0:0:0:0:
26,101,60315,2,0,P|74:121|112:112,1,89.9999972534181,2|10,0:0|0:2,0:0:0:0:
76,44,60621,1,0,0:0:0:0:
47,296,60774,2,0,B|118:298|102:342|178:342,1,134.999995880127,2|0,1:2|0:0,0:0:0:0:
231,297,61081,5,2,1:2:0:0:
309,157,61234,1,8,0:2:0:0:
305,135,61310,1,8,0:2:0:0:
302,113,61387,5,10,0:2:0:0:
318,40,61540,1,0,1:2:0:0:
389,17,61693,1,10,0:2:0:0:
445,67,61846,1,8,0:2:0:0:
430,140,61999,1,8,0:2:0:0:
359,165,62152,1,8,0:2:0:0:
156,34,62305,38,0,P|94:27|27:102,1,150,6|0,1:2|0:0,0:0:0:0:
41,96,62611,2,0,L|48:153,1,40,2|0,0:0|0:0,0:0:0:0:
57,212,62764,1,2,1:2:0:0:
146,336,62917,6,0,P|156:269|178:187,1,150,10|0,0:2|0:0,0:0:0:0:
193,177,63223,2,0,P|217:190|251:195,1,40,2|0,1:2|0:0,0:0:0:0:
298,164,63376,1,2,0:0:0:0:
226,320,63529,6,0,P|303:315|350:241,1,150,2|0,1:2|0:0,0:0:0:0:
358,249,63836,2,0,L|368:300,1,40,2|0,1:2|0:0,0:0:0:0:
396,356,63989,1,2,0:0:0:0:
445,193,64142,38,0,B|455:132|455:132|469:120|469:120|481:47,1,150,10|0,0:2|0:0,0:0:0:0:
469,35,64448,2,0,L|426:42,1,40,2|0,1:2|0:0,0:0:0:0:
354,36,64601,1,10,0:2:0:0:
282,221,64754,6,0,B|310:170|279:118|279:118|298:93|298:93|262:53|287:-8,1,239.999992675781,6|10,1:2|0:2,0:0:0:0:
285,0,65672,1,2,1:2:0:0:
16,16,65825,6,0,B|118:27|72:88|176:100,1,179.999994506836
235,59,66285,1,2,1:2:0:0:
225,190,66438,38,0,P|202:265|198:323,1,129.999994049073,0|0,0:0|1:2,0:0:0:0:
18,294,66897,6,0,P|76:282|107:280,1,50,2|0,0:0|0:0,0:0:0:0:
122,228,67050,2,0,P|178:246|206:260,1,50,10|0,0:2|0:0,0:0:0:0:
367,382,67203,6,0,B|438:365|468:285|404:202|404:202|461:197|489:158|478:97,1,359.999989013672,6|2,1:2|1:2,0:0:0:0:
266,29,67815,2,0,P|219:76|227:114,1,89.9999972534181,10|0,0:2|0:0,0:0:0:0:
131,155,68121,1,2,1:2:0:0:
116,81,68274,1,10,0:2:0:0:
336,234,68427,38,0,P|257:215|221:212,1,89.9999972534181,2|8,1:2|0:2,0:0:0:0:
147,313,68734,2,0,P|226:294|262:291,1,89.9999972534181,2|2,1:2|0:0,0:0:0:0:
290,347,69040,1,10,0:2:0:0:
67,171,69346,6,0,B|45:215|45:215|61:274,1,89.9999972534181,2|10,1:2|0:2,0:0:0:0:
0,132,69652,2,0,P|92:142|138:66,1,179.999994506836,6|2,1:2|0:0,0:0:0:0:
83,21,70111,1,0,1:2:0:0:
223,138,70264,2,0,P|286:131|335:134,1,89.9999972534181,10|0,0:2|0:0,0:0:0:0:
327,45,70570,2,0,P|385:70|425:97,1,89.9999972534181,2|0,1:2|0:0,0:0:0:0:
447,150,70876,1,2,1:2:0:0:
502,258,71029,5,8,0:2:0:0:
498,280,71106,1,8,0:2:0:0:
494,302,71183,1,10,0:2:0:0:
392,360,71336,37,0,1:2:0:0:
314,304,71489,1,10,0:2:0:0:
242,327,71642,1,0,0:0:0:0:
89,216,71795,5,2,1:2:0:0:
101,309,71948,1,10,0:2:0:0:
141,118,72101,22,0,L|20:58,1,134.999995880127,6|0,1:1|0:0,0:0:0:0:
0,131,72407,2,0,L|39:151,1,44.999998626709,0|0,1:1|0:0,0:0:0:0:
182,57,72560,2,0,L|142:36,1,44.999998626709
168,273,72713,6,0,L|288:332,1,134.999995880127,10|0,0:1|0:0,0:0:0:0:
309,260,73019,2,0,L|269:239,1,44.999998626709,0|0,1:1|0:0,0:0:0:0:
127,334,73172,2,0,L|166:354,1,44.999998626709,0|0,1:1|0:0,0:0:0:0:
228,162,73325,54,0,L|107:102,1,134.999995880127,2|0,1:1|0:0,0:0:0:0:
82,89,73632,1,2,1:1:0:0:
236,47,73785,1,0,0:0:0:0:
100,184,73938,1,10,0:1:0:0:
299,282,74091,1,0,0:0:0:0:
383,149,74244,2,0,L|503:208,1,134.999995880127,2|0,1:1|0:0,0:0:0:0:
511,129,74550,6,0,L|390:69,1,134.999995880127,6|0,1:1|0:0,0:0:0:0:
343,128,74856,2,0,L|382:148,1,44.999998626709,0|0,1:1|0:0,0:0:0:0:
454,20,75009,2,0,L|414:0,1,44.999998626709
145,52,75162,54,0,L|265:111,1,134.999995880127,10|0,0:1|0:0,0:0:0:0:
313,53,75468,2,0,L|273:32,1,44.999998626709,0|0,1:1|0:0,0:0:0:0:
202,161,75621,2,0,L|241:181,1,44.999998626709,8|0,0:1|0:0,0:0:0:0:
504,208,75774,6,0,L|383:148,1,134.999995880127,2|0,1:1|0:0,0:0:0:0:
358,135,76081,1,2,1:1:0:0:
392,328,76234,1,0,0:0:0:0:
250,257,76387,1,10,0:1:0:0:
144,375,76540,1,0,1:1:0:0:
0,207,76693,2,0,L|120:266,1,134.999995880127,2|0,0:1|0:0,0:0:0:0:
128,187,76999,54,0,L|7:127,1,134.999995880127,6|0,1:1|0:0,0:0:0:0:
0,207,77305,2,0,L|39:227,1,44.999998626709,0|0,1:1|0:0,0:0:0:0:
135,107,77458,2,0,L|96:87,1,44.999998626709
197,284,77611,6,0,L|318:344,1,134.999995880127,10|0,0:1|0:0,0:0:0:0:
324,264,77917,2,0,L|285:244,1,44.999998626709,0|0,1:1|0:0,0:0:0:0:
190,364,78070,2,0,L|229:384,1,44.999998626709,8|0,0:1|0:0,0:0:0:0:
512,272,78223,54,0,L|391:212,1,134.999995880127,2|0,1:1|0:0,0:0:0:0:
368,199,78529,2,0,B|336:185|337:140|375:124|402:134|402:134|460:162,1,179.999994506836,2|0,1:1|0:0,0:0:0:0:
512,104,78836,2,0,B|422:62|422:62|396:51|363:53|337:71,1,179.999994506836,10|0,0:1|0:0,0:0:0:0:
194,89,79142,2,0,L|288:135,1,89.9999972534181,2|0,1:1|0:0,0:0:0:0:
281,115,79448,6,0,P|202:74|116:47,1,179.999994506836,6|0,1:1|0:0,0:0:0:0:
68,112,79754,2,0,P|98:117|130:126,1,59.9999981689454,0|0,1:1|0:0,0:0:0:0:
271,28,79907,2,0,P|247:13|213:2,1,59.9999981689454
152,237,80060,54,0,P|237:263|317:305,1,179.999994506836,10|0,0:1|0:0,0:0:0:0:
304,383,80366,2,0,P|279:365|250:349,1,59.9999981689454,8|0,0:1|0:0,0:0:0:0:
221,182,80519,2,0,P|248:188|280:204,1,59.9999981689454,8|0,0:1|0:0,0:0:0:0:
430,384,80672,5,2,1:2:0:0:
430,384,80978,53,2,0:2:0:0:
430,384,81285,5,2,0:2:0:0:
430,384,81591,53,10,0:2:0:0:
347,291,81897,6,0,P|322:295|299:304,1,50,10|0,0:2|0:0,0:0:0:0:
209,349,82203,1,0,0:0:0:0:
219,351,82356,1,0,1:2:0:0:
229,355,82509,2,0,P|252:365|271:379,1,50,10|0,0:2|1:2,0:0:0:0:
241,257,82815,1,0,0:0:0:0:
229,254,82968,54,0,P|204:249|181:240,1,50,2|0,1:2|0:0,0:0:0:0:
96,336,83274,2,0,P|71:340|48:349,1,50,0|0,1:2|0:0,0:0:0:0:
50,271,83581,1,0,1:2:0:0:
96,336,83734,2,0,L|139:330,1,29.9999990844727,10|0,0:2|1:2,0:0:0:0:
183,380,84040,2,0,L|212:384,1,29.9999990844727
285,306,84346,6,0,P|260:302|237:293,1,50,2|0,1:2|0:0,0:0:0:0:
305,323,84652,1,0,0:0:0:0:
312,326,84805,1,2,1:2:0:0:
320,329,84958,2,0,P|335:309|355:293,1,50,10|0,0:2|0:0,0:0:0:0:
409,380,85264,2,0,P|434:379|458:384,1,50,0|8,1:2|0:2,0:0:0:0:
512,275,85570,53,2,1:2:0:0:
509,254,85723,1,10,0:2:0:0:
434,230,85876,1,2,1:2:0:0:
437,251,86029,1,0,0:0:0:0:
325,311,86183,1,10,0:2:0:0:
336,311,86336,2,0,P|352:291|363:270,2,50
214,384,86795,6,0,P|168:362|120:349,1,100,2|0,1:2|0:0,0:0:0:0:
106,350,87254,1,0,1:2:0:0:
0,236,87407,1,10,0:2:0:0:
27,303,87713,1,0,0:0:0:0:
37,306,87866,1,0,1:2:0:0:
86,203,88019,54,0,P|102:221|113:244,1,50,2|0,1:2|0:0,0:0:0:0:
189,237,88325,2,0,P|185:261|175:284,1,50,0|0,1:2|0:0,0:0:0:0:
256,384,88632,1,10,0:2:0:0:
256,384,88938,1,0,1:2:0:0:
256,373,89091,1,8,0:2:0:0:
323,236,89244,6,0,P|326:261|336:284,1,50,2|0,1:2|3:2,0:0:0:0:
426,203,89550,2,0,P|409:221|398:244,1,50,0|2,3:2|1:2,0:0:0:0:
512,236,89856,1,10,0:2:0:0:
456,384,90162,1,0,1:2:0:0:
435,381,90315,1,8,0:2:0:0:
376,332,90468,53,2,1:2:0:0:
355,335,90621,1,10,0:2:0:0:
282,346,90774,2,0,P|306:350|328:363,1,50,2|0,1:2|0:0,0:0:0:0:
240,232,91081,1,10,0:2:0:0:
216,247,91387,1,8,0:2:0:0:
206,247,91464,1,8,0:2:0:0:
196,248,91540,1,8,0:2:0:0:
186,249,91617,1,8,0:2:0:0:
176,250,91693,5,2,1:2:0:0:
139,316,91846,1,0,0:0:0:0:
50,330,91999,1,0,0:0:0:0:
68,336,92152,1,0,1:2:0:0:
184,384,92305,2,0,P|203:368|226:359,2,50,10|0|0,0:2|1:2|0:0,0:0:0:0:
272,300,92764,54,0,P|320:305|358:341,1,100,2|0,1:2|1:2,0:0:0:0:
441,372,93223,1,0,0:0:0:0:
423,378,93376,1,0,1:2:0:0:
512,288,93529,2,0,L|508:249,1,29.9999990844727,10|0,0:2|1:2,0:0:0:0:
438,252,93836,2,0,L|434:213,1,29.9999990844727
285,289,94142,5,2,1:2:0:0:
235,234,94295,1,0,3:2:0:0:
235,234,94448,2,0,P|210:233|186:242,1,50,0|2,3:2|1:2,0:0:0:0:
81,318,94754,2,0,P|56:318|32:309,2,50,10|0|0,0:2|0:0|1:2,0:0:0:0:
121,384,95213,1,8,0:2:0:0:
238,328,95366,53,2,1:2:0:0:
259,331,95519,1,10,0:2:0:0:
314,381,95672,1,2,1:2:0:0:
335,384,95825,1,0,0:0:0:0:
443,328,95978,2,0,P|462:282|450:233,1,100,10|0,0:2|0:0,0:0:0:0:
451,234,96438,1,0,0:0:0:0:
300,267,96591,5,2,1:2:0:0:
300,267,96744,2,0,P|258:240|207:243,1,100,0|0,0:0|1:2,0:0:0:0:
123,232,97203,2,0,P|135:253|139:277,1,50,10|0,0:2|0:0,0:0:0:0:
56,335,97509,1,0,0:0:0:0:
56,335,97662,2,0,P|80:334|104:343,1,50,0|2,1:2|1:2,0:0:0:0:
166,384,97968,2,0,P|190:384|214:375,1,50,0|0,0:0|1:2,0:0:0:0:
346,384,98274,1,0,0:0:0:0:
346,384,98427,54,0,P|321:384|297:375,1,50,10|0,0:2|0:0,0:0:0:0:
456,335,98734,1,0,1:2:0:0:
456,335,98887,2,0,P|431:334|407:343,1,50,8|2,0:2|1:2,0:0:0:0:
389,232,99193,2,0,P|377:253|373:277,1,50,0|0,3:2|3:2,0:0:0:0:
372,278,99499,1,2,1:2:0:0:
216,233,99652,5,10,0:2:0:0:
216,233,99958,1,0,1:2:0:0:
195,236,100111,1,8,0:2:0:0:
145,303,100264,1,2,1:2:0:0:
166,306,100417,1,10,0:2:0:0:
216,360,100570,1,2,1:2:0:0:
0,261,100876,53,10,0:2:0:0:
0,261,101183,2,0,B|44:281|44:281|58:150,1,179.999994506836
66,71,101489,5,2,1:2:0:0:
186,110,101718,1,0,0:0:0:0:
279,25,101948,1,0,1:2:0:0:
333,81,102101,54,0,P|327:135|325:169,1,69.9999978637696,10|0,0:2|1:2,0:0:0:0:
226,226,102407,1,0,0:0:0:0:
246,298,102560,1,2,1:2:0:0:
320,282,102713,2,0,P|367:293|406:312,2,69.9999978637696,0|0|0,0:0|1:2|0:0,0:0:0:0:
512,237,103172,6,0,P|456:249|419:245,1,69.9999978637696,0|10,1:2|0:2,0:0:0:0:
379,206,103478,1,0,1:2:0:0:
296,356,103632,1,0,0:0:0:0:
294,373,103785,1,0,0:0:0:0:
162,324,103938,54,0,P|149:240|134:177,1,139.999995727539,2|0,1:2|0:0,0:0:0:0:
186,30,104550,2,0,P|141:24|100:20,1,69.9999978637696,10|0,0:2|0:0,0:0:0:0:
53,91,104856,2,0,P|82:94|127:100,1,69.9999978637696,0|8,1:2|0:2,0:0:0:0:
287,154,105162,5,2,1:2:0:0:
234,98,105315,1,10,0:2:0:0:
213,169,105468,1,2,1:2:0:0:
362,4,105621,54,0,B|371:41|371:41|358:85,1,69.9999978637696,0|10,0:0|0:2,0:0:0:0:
436,162,105927,2,0,B|426:131|426:131|435:94,1,69.9999978637696
509,69,106234,1,0,0:0:0:0:
480,237,106387,6,0,P|363:255|327:265,1,139.999995727539,2|0,1:2|0:0,0:0:0:0:
68,348,106999,1,10,0:2:0:0:
141,330,107152,1,0,0:0:0:0:
38,232,107305,2,0,P|47:183|56:146,1,69.9999978637696,0|0,0:0|1:2,0:0:0:0:
142,110,107611,2,0,P|127:178|115:247,1,139.999995727539,2|0,1:2|1:2,0:0:0:0:
309,86,108070,54,0,P|236:114|220:179,1,139.999995727539
185,27,108529,1,0,1:2:0:0:
190,47,108683,1,8,0:2:0:0:
301,165,108836,6,0,P|377:184|429:191,1,104.999996795654,2|0,1:2|0:0,0:0:0:0:
476,164,109142,2,0,P|494:205|490:244,1,69.9999978637696,0|2,0:0|1:2,0:0:0:0:
467,305,109448,1,10,0:2:0:0:
225,277,109754,53,0,1:2:0:0:
157,311,109907,2,0,P|143:370|141:397,1,69.9999978637696,8|2,0:2|1:2,0:0:0:0:
52,300,110213,2,0,P|46:265|37:231,1,69.9999978637696,10|2,0:2|1:2,0:0:0:0:
195,204,110519,5,0,0:0:0:0:
257,157,110672,2,0,P|298:163|331:144,1,69.9999978637696,10|0,0:2|0:0,0:0:0:0:
204,50,110978,53,8,0:2:0:0:
194,48,111055,1,8,0:2:0:0:
184,46,111132,1,8,0:2:0:0:
174,44,111208,1,8,0:2:0:0:
163,43,111285,2,0,B|88:43|117:94|26:90,1,139.999995727539,2|0,1:2|0:0,0:0:0:0:
359,0,111897,5,10,0:2:0:0:
414,55,112050,2,0,B|393:120|393:120|415:194,1,139.999995727539,0|2,1:2|1:2,0:0:0:0:
252,302,112509,2,0,P|279:257|315:255,1,69.9999978637696,0|0,0:0|1:2,0:0:0:0:
361,286,112815,1,0,0:0:0:0:
193,361,112968,54,0,P|138:353|104:350,1,69.9999978637696,0|10,1:2|0:2,0:0:0:0:
47,374,113274,1,0,1:2:0:0:
160,260,113427,1,0,0:0:0:0:
181,264,113581,1,0,0:0:0:0:
49,193,113734,6,0,P|33:90|20:37,1,139.999995727539,2|0,1:2|3:2,0:0:0:0:
362,37,114346,53,10,0:2:0:0:
308,91,114499,2,0,P|349:114|386:106,1,69.9999978637696,0|0,0:0|1:2,0:0:0:0:
371,192,114805,5,8,0:2:0:0:
495,139,114958,2,0,B|510:175|510:175|502:225,1,69.9999978637696,2|10,1:2|0:2,0:0:0:0:
297,222,115264,53,2,1:2:0:0:
415,353,115417,2,0,B|376:371|376:371|335:323|367:244,1,150.000005722046
207,299,115876,2,0,P|253:311|279:299,1,75.0000028610231
75,348,116183,5,2,1:2:0:0:
86,337,116489,2,0,P|82:293|78:256,1,75.0000028610231,0|0,0:0|1:2,0:0:0:0:
120,88,116795,54,0,P|203:97|226:180,1,150.000005722046,10|0,0:2|0:0,0:0:0:0:
211,55,117254,1,0,1:2:0:0:
369,209,117407,2,0,P|415:205|441:181,1,75.0000028610231,2|0,1:2|0:0,0:0:0:0:
509,215,117713,1,0,1:2:0:0:
309,147,117866,6,0,B|222:165|267:201|162:224,1,150.000005722046
50,133,118325,1,0,1:2:0:0:
121,158,118478,1,8,0:2:0:0:
145,26,118632,53,2,1:2:0:0:
64,207,118785,2,0,B|58:235|44:244|44:244|102:214|122:134|74:62|49:53,1,255.000004863739,8|10,0:2|0:2,0:0:0:0:
128,277,119397,5,8,0:2:0:0:
274,298,119550,1,8,0:2:0:0:
93,343,119703,1,8,0:2:0:0:
381,291,119856,6,0,B|378:265|378:265|374:261|374:261|371:232,1,60,6|0,1:1|1:2,0:0:0:0:
189,368,120468,6,0,B|192:339|192:339|196:335|196:335|199:303,1,60,6|0,1:1|0:0,0:0:0:0:
467,73,121081,6,0,B|410:41|334:61|293:147|293:147|322:100|378:94,1,300,6|0,1:1|1:1,0:0:0:0:
0,234,121693,38,0,B|106:253|73:158|197:183,1,200,10|0,0:1|1:1,0:0:0:0:
88,254,122152,1,0,0:0:0:0:
17,145,122305,6,0,L|7:76,1,50,2|0,1:1|0:0,0:0:0:0:
22,80,122458,2,0,L|29:129,1,50,8|0,0:1|0:0,0:0:0:0:
183,180,122611,2,0,L|173:111,1,50,2|0,1:1|0:0,0:0:0:0:
238,40,122764,2,0,L|245:89,1,50
291,268,122917,6,0,P|364:241|379:146,1,150,10|0,0:1|0:0,0:0:0:0:
387,324,123223,2,0,P|378:300|379:275,1,50,2|0,1:1|0:0,0:0:0:0:
259,166,123376,2,0,P|283:170|304:183,1,50,8|0,0:1|0:0,0:0:0:0:
491,83,123529,38,0,B|538:165|554:256|445:309|430:281|443:209|509:179,1,300,6|0,1:1|1:1,0:0:0:0:
360,16,124142,2,0,P|346:64|341:114,1,100,10|0,0:1|0:0,0:0:0:0:
173,135,124448,2,0,P|184:183|205:229,1,100,0|0,1:1|0:0,0:0:0:0:
105,370,124754,6,0,L|178:361,1,50,2|0,1:1|0:0,0:0:0:0:
165,346,124907,2,0,L|92:355,1,50,8|0,0:1|0:0,0:0:0:0:
0,296,125060,6,0,L|73:287,1,50,2|0,1:1|0:0,0:0:0:0:
205,229,125213,2,0,L|155:235,1,50
55,39,125366,38,0,B|60:63|60:63|51:105,1,50,10|0,0:1|0:0,0:0:0:0:
13,155,125519,2,0,B|116:121|44:66|165:35,1,200,0|8,1:1|0:1,0:0:0:0:
379,187,125978,6,0,P|409:150|410:97,1,100,6|0,1:1|0:0,0:0:0:0:
298,55,126285,2,0,P|267:91|266:144,1,100,0|0,0:0|1:1,0:0:0:0:
481,167,126591,2,0,B|519:153|525:104|525:104|470:40|378:57|337:121,1,300,10|8,0:1|0:1,0:0:0:0:
68,166,127203,6,0,P|44:139|38:116,1,50,2|0,1:1|0:0,0:0:0:0:
20,134,127356,2,0,P|30:156|48:173,1,50,8|0,0:1|0:0,0:0:0:0:
144,170,127509,38,0,P|137:134|143:112,1,50,2|0,1:1|0:0,0:0:0:0:
84,16,127662,2,0,P|81:40|88:64,1,50
212,216,127815,6,0,P|223:181|240:165,1,50,10|0,0:1|0:0,0:0:0:0:
257,24,127968,6,0,P|246:46|244:71,1,50
244,306,128121,38,0,P|271:281|293:276,1,50,2|0,1:1|0:0,0:0:0:0:
413,141,128274,6,0,P|390:151|373:169,1,50,8|0,0:1|0:0,0:0:0:0:
19,259,128427,6,0,B|71:241|105:289|105:289|104:303|104:303|124:344|179:344,1,200,6|0,1:1|0:0,0:0:0:0:
448,223,128887,38,0,B|482:271|438:338|438:338|362:314|356:253,1,250,2|0,1:1|0:0,0:0:0:0:
212,216,129346,2,0,P|270:225|300:181,1,100,2|0,1:1|0:0,0:0:0:0:
94,266,129652,5,2,1:1:0:0:
209,304,129805,1,8,0:1:0:0:
11,355,129958,2,0,B|27:307|27:307|9:248,1,100,2|0,1:1|0:0,0:0:0:0:
123,141,130264,6,0,B|138:181|113:220|113:220|142:259|142:259|119:294|134:341,1,209.999993591309,2|0,1:1|1:2,0:0:0:0:
294,383,130876,38,0,P|298:296|200:321,1,200,6|0,1:2|1:2,0:0:0:0:
205,327,131336,1,2,0:0:0:0:
381,258,131489,2,0,P|432:261|497:277,1,100,10|0,0:2|0:0,0:0:0:0:
307,137,131795,2,0,P|258:153|199:185,1,100,2|0,1:2|1:2,0:0:0:0:
99,287,132101,5,2,1:2:0:0:
0,133,132254,2,0,P|57:96|95:95,1,100,8|2,0:2|1:2,0:0:0:0:
31,251,132560,1,0,0:0:0:0:
156,59,132713,2,0,P|121:24|72:18,1,100,10|0,0:2|0:0,0:0:0:0:
214,174,133019,2,0,P|261:161|291:121,1,100,0|8,1:2|0:2,0:0:0:0:
446,7,133325,6,0,P|357:-2|360:86,1,200,6|0,1:2|1:2,0:0:0:0:
377,95,133785,1,2,0:0:0:0:
512,177,133938,2,0,P|461:180|396:196,1,100,10|0,0:2|0:0,0:0:0:0:
268,251,134244,2,0,P|319:254|384:270,1,100,2|0,1:2|1:2,0:0:0:0:
196,114,134550,37,2,1:2:0:0:
97,268,134703,2,0,P|154:305|192:306,1,100,8|2,0:2|1:2,0:0:0:0:
128,150,135009,1,0,0:0:0:0:
253,342,135162,2,0,P|218:377|169:383,1,100,10|0,0:2|1:2,0:0:0:0:
13,226,135468,2,0,P|61:232|96:267,1,100,0|8,0:0|0:2,0:0:0:0:
202,31,135774,6,0,B|138:35|138:35|85:85|85:85|22:88,1,200,4|0,1:2|1:2,0:0:0:0:
183,201,136234,1,10,0:0:0:0:
183,201,136310,1,8,0:0:0:0:
183,201,136387,2,0,P|159:156|175:108,1,100,10|0,0:2|0:0,0:0:0:0:
330,0,136693,2,0,P|353:44|337:92,1,100,2|0,1:2|1:2,0:0:0:0:
173,111,136999,5,2,1:2:0:0:
267,236,137152,2,0,L|366:229,1,100,8|2,0:2|1:2,0:0:0:0:
275,53,137458,1,0,0:0:0:0:
203,294,137611,2,0,L|103:287,1,100,10|0,0:2|0:0,0:0:0:0:
338,200,137917,2,0,L|438:207,1,100,0|8,1:2|0:2,0:0:0:0:
497,343,138147,1,8,0:0:0:0:
512,361,138223,38,0,B|449:356|449:356|396:305|396:305|333:300,1,200,4|0,1:2|1:2,0:0:0:0:
314,315,138683,1,2,0:0:0:0:
103,384,138836,2,0,P|79:339|95:291,1,100,10|0,0:2|0:0,0:0:0:0:
225,208,139142,2,0,P|249:253|233:301,1,100,2|0,1:2|1:2,0:0:0:0:
27,253,139448,5,2,1:2:0:0:
3,75,139601,1,8,0:2:0:0:
7,53,139677,1,8,0:2:0:0:
10,31,139754,5,10,0:2:0:0:
77,0,139907,1,0,1:2:0:0:
137,43,140060,1,10,0:2:0:0:
130,118,140213,1,8,0:2:0:0:
61,149,140366,1,8,0:2:0:0:
0,104,140519,1,8,0:2:0:0:
182,173,140672,38,0,B|274:182|248:92|341:106,1,179.999994506836,6|0,1:2|0:0,0:0:0:0:
353,91,140978,2,0,L|357:130,1,40,2|0,0:0|0:0,0:0:0:0:
421,165,141132,2,0,L|416:204,1,40,2|0,1:2|0:0,0:0:0:0:
512,376,141285,6,0,P|518:292|438:337,1,179.999994506836,10|0,0:2|0:0,0:0:0:0:
439,323,141591,2,0,L|399:327,1,40,2|0,1:2|0:0,0:0:0:0:
349,380,141744,2,0,L|309:375,1,40,2|0,0:0|0:0,0:0:0:0:
101,259,141897,6,0,B|173:266|173:266|231:228|231:228|268:233,1,179.999994506836,2|0,1:2|0:0,0:0:0:0:
285,249,142203,2,0,L|289:288,1,40,2|0,1:2|0:0,0:0:0:0:
235,340,142356,2,0,L|230:379,1,40,2|0,0:0|0:0,0:0:0:0:
63,324,142509,38,0,P|20:262|81:184,1,179.999994506836,10|0,0:2|0:0,0:0:0:0:
100,182,142815,2,0,L|104:142,1,40,2|0,1:2|0:0,0:0:0:0:
172,116,142968,2,0,L|167:76,1,40,10|0,0:2|0:0,0:0:0:0:
22,0,143121,6,0,B|70:-13|114:20|114:20|164:-10|164:-10|203:21|241:11,1,239.999992675781,6|10,1:2|0:2,0:0:0:0:
241,10,144040,1,2,1:2:0:0:
281,131,144193,1,0,0:0:0:0:
511,32,144346,2,0,L|397:45,1,100,2|8,1:2|0:2,0:0:0:0:
435,241,144652,1,2,1:2:0:0:
354,112,144805,2,0,L|467:125,1,100,0|10,0:0|0:2,0:0:0:0:
509,178,145111,1,0,1:2:0:0:
282,225,145264,6,0,P|270:262|269:284,1,50,2|0,0:0|0:0,0:0:0:0:
341,295,145417,2,0,P|353:258|354:236,1,50,10|0,0:2|0:0,0:0:0:0:
100,204,145570,38,0,B|215:148|268:266|214:297|274:421|406:367,1,400,6|10,1:2|0:2,0:0:0:0:
399,369,146489,1,2,1:2:0:0:
270,273,146642,1,10,0:2:0:0:
167,360,146795,2,0,L|77:370,1,89.9999972534181,2|8,1:2|0:2,0:0:0:0:
122,150,147101,1,2,1:2:0:0:
27,280,147254,2,0,L|116:290,1,89.9999972534181,2|10,0:0|0:2,0:0:0:0:
211,139,147560,1,0,0:0:0:0:
211,139,147713,2,0,L|121:149,1,89.9999972534181,2|10,1:2|0:2,0:0:0:0:
69,25,148019,6,0,B|182:-28|246:97|191:133|260:271|433:206|437:106|381:2|286:46,1,560,6|0,1:2|0:0,0:0:0:0:
278,63,149167,1,0,0:0:0:0:
292,69,149244,6,0,L|351:57,1,40,2|0,1:2|0:0,0:0:0:0:
399,94,149397,38,0,L|406:54,1,40,8|8,0:2|0:2,0:0:0:0:
486,0,149550,6,0,L|478:39,1,40,10|0,0:2|0:0,0:0:0:0:
470,110,149703,6,0,L|477:149,1,40,0|0,1:2|0:0,0:0:0:0:
432,210,149856,37,2,0:0:0:0:
406,54,150009,5,0,0:0:0:0:
365,247,150162,5,2,1:2:0:0:
470,110,150315,37,0,0:0:0:0:
365,171,150468,37,0,1:0:0:0:
349,321,152917,6,0,L|293:327,1,51.9999996826172,0|0,1:0|0:0,0:0:0:0:
287,320,153836,2,0,L|279:384,1,64.9999996032715
298,246,154754,1,8,0:0:0:0:
0,147,155366,54,0,L|55:153,1,51.9999996826172,0|0,1:0|0:0,0:0:0:0:
60,167,156285,2,0,L|126:158,1,64.9999996032715
437,69,157815,6,0,L|430:13,1,51.9999996826172,0|0,1:0|0:0,0:0:0:0:
438,7,158734,2,0,L|373:0,1,64.9999996032715,0|0,1:0|1:0,0:0:0:0:
512,18,159652,1,8,0:0:0:0:
51,246,160264,54,0,P|59:291|62:353,1,100,2|0,1:2|0:0,0:0:0:0:
136,323,160723,2,0,P|196:354|235:346,1,100,2|0,0:0|0:0,0:0:0:0:
273,287,161183,2,0,L|336:275,1,50,2|2,0:0|1:2,0:0:0:0:
214,234,161489,6,0,P|222:189|225:127,1,100,10|0,0:2|0:0,0:0:0:0:
192,63,161948,2,0,P|252:32|291:40,1,100,10|0,0:2|0:0,0:0:0:0:
329,99,162408,2,0,L|392:111,1,50,2|0,0:0|0:0,0:0:0:0:
494,187,162713,54,0,B|478:234|478:234|496:290,1,100,2|0,1:2|0:0,0:0:0:0:
469,355,163172,2,0,L|366:337,1,100,2|0,0:0|0:0,0:0:0:0:
323,277,163632,2,0,P|281:280|262:291,1,50,2|0,1:2|0:0,0:0:0:0:
136,323,163938,6,0,B|152:276|152:276|134:220,1,100,10|0,0:2|0:0,0:0:0:0:
72,275,164397,1,2,1:2:0:0:
182,165,164550,2,0,L|189:102,1,50,8|0,0:2|0:0,0:0:0:0:
150,51,164856,1,2,0:0:0:0:
150,51,165009,1,0,0:0:0:0:
298,71,165162,54,0,L|316:183,1,100,2|0,1:2|0:0,0:0:0:0:
416,246,165621,1,0,0:0:0:0:
416,246,165774,2,0,L|363:225,1,50,2|0,0:0|0:0,0:0:0:0:
251,277,166081,2,0,L|294:241,1,50,0|0,0:0|1:2,0:0:0:0:
182,165,166387,6,0,P|157:178|145:196,1,50,2|0,1:2|0:0,0:0:0:0:
27,211,166693,2,0,P|50:225|72:226,1,50,0|0,1:2|0:0,0:0:0:0:
144,321,166999,1,2,0:0:0:0:
144,321,167152,2,0,P|144:293|134:273,2,50
81,149,167611,54,0,P|93:89|105:44,1,100,2|0,1:2|0:0,0:0:0:0:
166,12,168070,2,0,P|232:37|262:36,1,100
329,0,168529,1,0,1:2:0:0:
452,136,168836,6,0,L|464:191,2,50,10|0|0,0:2|0:0|0:0,0:0:0:0:
476,62,169295,1,0,1:2:0:0:
344,90,169448,1,10,0:2:0:0:
344,90,169754,53,8,0:2:0:0:
476,62,169907,1,8,0:2:0:0:
318,206,170060,6,0,P|254:189|198:187,1,110.000003356934,2|0,1:2|0:0,0:0:0:0:
147,229,170519,1,2,1:2:0:0:
16,197,170672,54,0,L|24:134,1,55.0000016784668,8|0,0:2|0:0,0:0:0:0:
35,67,170978,1,2,1:2:0:0:
141,150,171132,2,0,L|91:111,1,55.0000016784668,10|2,0:2|1:2,0:0:0:0:
213,0,171438,2,0,L|110:41,1,110.000003356934,8|2,0:2|0:0,0:0:0:0:
292,10,171897,6,0,L|284:64,1,55.0000016784668,8|0,0:2|0:0,0:0:0:0:
314,142,172203,1,10,0:2:0:0:
314,142,172356,1,8,0:2:0:0:
393,267,172509,54,0,P|462:288|486:335,1,110.000003356934,2|0,1:2|0:0,0:0:0:0:
426,370,172968,1,2,1:2:0:0:
253,292,173121,6,0,P|207:286|182:281,1,55.0000016784668,8|0,0:2|0:0,0:0:0:0:
141,337,173427,1,2,1:2:0:0:
285,366,173581,2,0,P|239:372|214:377,1,55.0000016784668,8|2,0:2|1:2,0:0:0:0:
326,224,173887,2,0,P|271:217|217:208,1,110.000003356934,8|2,0:2|0:0,0:0:0:0:
151,162,174346,1,12,0:2:0:0:
369,128,174499,53,8,0:3:0:0:
183,52,174652,1,4,0:3:0:0:
311,39,174805,1,0,1:2:0:0:
236,130,174958,5,2,1:2:0:0:
236,130,176183,53,2,0:2:0:0:
236,130,177407,6,0,P|303:148|328:204,1,119.999996337891,0|0,1:0|1:0,0:0:0:0:
399,220,177866,1,10,0:0:0:0:
43,272,178172,53,0,1:0:0:0:
52,134,178325,2,0,L|29:261,1,119.999996337891,10|0,0:0|1:0,0:0:0:0:
134,357,178785,1,10,0:0:0:0:
142,374,179091,5,0,1:0:0:0:
212,245,179244,1,8,0:3:0:0:
170,180,179397,1,4,0:3:0:0:
261,22,179550,53,0,1:0:0:0:
285,62,179703,1,8,0:0:0:0:
280,87,179856,6,0,L|284:124,1,35,0|0,1:0|0:0,0:0:0:0:
355,249,180468,6,0,P|351:162|449:187,1,200,6|2,1:2|1:2,0:0:0:0:
444,193,180928,1,0,0:0:0:0:
296,322,181081,2,0,P|345:333|406:360,1,100,10|0,0:2|0:0,0:0:0:0:
206,384,181386,2,0,P|203:333|187:268,1,100,0|0,1:2|1:2,0:0:0:0:
338,175,181692,5,2,1:2:0:0:
148,63,181845,2,0,P|112:97|106:146,1,100,8|2,0:2|1:2,0:0:0:0:
299,82,182151,1,0,0:0:0:0:
91,221,182304,2,0,P|47:197|29:152,1,100,10|0,0:2|0:0,0:0:0:0:
216,1,182610,2,0,P|193:44|148:63,1,100,0|8,1:2|0:0,0:0:0:0:
29,152,182916,6,0,B|127:134|109:232|215:222,1,200,6|2,1:2|1:2,0:0:0:0:
264,179,183376,1,0,0:0:0:0:
201,358,183529,2,0,P|151:341|102:344,1,100,10|0,0:2|0:0,0:0:0:0:
347,265,183835,2,0,P|297:281|248:278,1,100,0|0,1:2|1:2,0:0:0:0:
450,368,184141,38,0,P|460:316|487:275,1,100,2|8,1:2|0:2,0:0:0:0:
383,174,184447,2,0,P|372:225|345:266,1,100,2|0,1:2|0:0,0:0:0:0:
512,286,184753,2,0,P|477:253|454:210,1,100,10|0,0:2|1:2,0:0:0:0:
315,255,185059,2,0,P|355:288|378:331,1,100,2|8,0:0|0:2,0:0:0:0:
512,132,185365,6,0,B|450:124|450:124|400:66|400:66|339:59,1,200,6|2,1:2|1:2,0:0:0:0:
327,39,185825,1,0,0:0:0:0:
280,179,185978,2,0,L|180:191,1,100,10|0,0:2|0:0,0:0:0:0:
115,86,186284,2,0,L|15:73,1,100,0|8,1:2|0:2,0:0:0:0:
166,201,186590,6,0,L|265:188,1,100,2|8,1:2|0:2,0:0:0:0:
104,75,186896,2,0,L|4:62,1,100,2|0,1:2|0:0,0:0:0:0:
32,259,187202,2,0,L|131:271,1,100,10|0,0:2|0:0,0:0:0:0:
265,188,187508,1,0,1:2:0:0:
104,75,187661,1,8,0:2:0:0:
182,326,187814,38,0,B|229:319|229:319|267:275|267:275|311:270,1,150,6|0,1:2|0:0,0:0:0:0:
337,246,188121,2,0,L|325:345,1,100,2|0,1:2|0:0,0:0:0:0:
488,265,188427,2,0,L|408:205,1,100,10|0,0:2|0:0,0:0:0:0:
389,384,188733,2,0,L|480:344,1,100,0|0,1:2|1:2,0:0:0:0:
512,91,189039,5,2,1:2:0:0:
334,67,189192,1,8,0:2:0:0:
312,70,189268,1,8,0:2:0:0:
290,74,189345,5,10,0:2:0:0:
376,194,189498,1,0,1:2:0:0:
259,141,189651,1,10,0:2:0:0:
408,125,189804,1,0,0:0:0:0:
302,201,189957,1,2,1:2:0:0:
363,64,190110,1,8,0:2:0:0:
190,177,190263,38,0,B|99:186|137:113|27:124,1,165.000005035401,6|0,1:2|0:0,0:0:0:0:
17,104,190570,2,0,L|7:41,1,40,2|0,0:0|0:0,0:0:0:0:
77,14,190723,2,0,L|83:53,1,40,2|0,1:2|0:0,0:0:0:0:
112,238,190876,6,0,P|88:311|13:301,1,165.000005035401,10|0,0:2|0:0,0:0:0:0:
4,277,191182,2,0,P|27:276|43:283,1,40,2|0,1:2|0:0,0:0:0:0:
108,320,191335,2,0,P|120:339|122:356,1,40,2|0,0:0|0:0,0:0:0:0:
292,386,191488,6,0,B|287:334|287:334|242:281|242:281|239:238,1,165.000005035401,2|0,1:2|0:0,0:0:0:0:
217,220,191794,2,0,L|220:274,1,55.0000016784668,2|0,1:2|0:0,0:0:0:0:
270,330,191947,2,0,L|273:384,1,55.0000016784668,2|0,0:0|0:0,0:0:0:0:
457,370,192100,38,0,P|433:297|358:307,1,165.000005035401,10|0,0:2|0:0,0:0:0:0:
349,331,192406,2,0,P|372:332|388:325,1,40,2|0,1:2|0:0,0:0:0:0:
453,288,192559,2,0,P|465:269|467:252,1,40,10|0,0:2|0:0,0:0:0:0:
270,179,192712,6,0,B|318:192|362:159|362:159|412:189|412:189|451:158|489:168,1,239.999992675781,6|10,1:2|0:2,0:0:0:0:
489,169,193631,1,2,1:2:0:0:
444,20,193784,1,0,0:0:0:0:
369,191,193937,2,0,L|269:178,1,100,2|8,1:2|0:2,0:0:0:0:
210,0,194243,1,2,1:2:0:0:
113,164,194396,2,0,P|163:147|189:95,1,100,0|10,0:0|0:2,0:0:0:0:
145,43,194702,1,0,1:2:0:0:
135,242,194855,6,0,P|141:284|150:304,1,50,2|0,0:0|0:0,0:0:0:0:
218,277,195008,2,0,P|211:234|202:214,1,50,0|0,1:2|0:0,0:0:0:0:
54,297,195161,38,0,B|60:373|199:432|333:339|333:339|262:375|146:333|266:108|410:173|473:223|473:223|366:205|354:104|400:26|400:26|320:150|160:87|160:87|236:98|274:73,1,1400,6|2,1:2|1:2,0:0:0:0:
133,0,197457,1,10,0:2:0:0:
7,195,197610,6,0,B|49:168|49:168|66:39,1,179.999994506836,6|2,1:2|0:0,0:0:0:0:
66,39,198070,1,0,1:2:0:0:
199,253,198223,2,0,B|156:226|156:226|139:97,1,179.999994506836,10|2,0:2|1:2,0:0:0:0:
139,97,198683,1,0,0:0:0:0:
120,191,198835,5,2,1:2:0:0:
354,289,198988,1,8,0:2:0:0:
254,365,199141,1,2,1:2:0:0:
261,294,199294,1,0,0:0:0:0:
443,360,199447,1,10,0:2:0:0:
457,319,199600,1,8,0:3:0:0:
421,255,199753,1,4,0:3:0:0:
350,238,199906,1,0,1:0:0:0:
261,294,200059,38,0,P|257:207|355:232,1,200,6|0,1:2|1:2,0:0:0:0:
350,238,200519,1,2,0:0:0:0:
240,126,200672,2,0,P|189:129|124:145,1,100,10|0,0:2|0:0,0:0:0:0:
372,31,200977,2,0,P|423:34|488:50,1,100,2|0,1:2|1:2,0:0:0:0:
346,214,201284,5,2,1:2:0:0:
183,57,201437,2,0,P|147:91|141:140,1,100,8|2,0:2|1:2,0:0:0:0:
284,268,201743,1,0,0:0:0:0:
416,131,201896,2,0,P|452:165|458:214,1,100,10|0,0:2|0:0,0:0:0:0:
267,384,202202,2,0,P|228:354|217:307,1,100,0|8,1:2|0:2,0:0:0:0:
23,105,202508,6,0,B|132:121|84:177|203:191,1,200,6|0,1:2|1:2,0:0:0:0:
266,154,202968,1,2,0:0:0:0:
63,307,203121,2,0,P|130:265|194:266,1,100,10|0,0:2|0:0,0:0:0:0:
144,41,203427,2,0,P|146:120|114:174,1,100,2|0,1:2|1:2,0:0:0:0:
473,90,203733,37,2,1:2:0:0:
343,182,203886,2,0,B|391:173|391:173|396:164|396:164|454:153,1,100,8|2,0:2|1:2,0:0:0:0:
358,358,204192,1,0,0:0:0:0:
227,266,204345,2,0,B|275:274|275:274|280:283|280:283|338:294,1,100,10|0,0:2|1:2,0:0:0:0:
494,212,204651,1,0,0:0:0:0:
478,286,204804,1,8,0:2:0:0:
198,190,204957,6,0,B|154:218|156:266|156:266|180:283|201:319|191:368,1,200,4|0,1:2|1:2,0:0:0:0:
250,133,205416,1,10,0:0:0:0:
250,133,205493,1,8,0:0:0:0:
250,133,205570,2,0,P|241:67|230:30,1,100,10|0,0:2|0:0,0:0:0:0:
9,154,205876,2,0,P|53:199|103:194,1,100,2|0,1:2|1:2,0:0:0:0:
158,0,206182,5,2,1:2:0:0:
134,96,206335,1,8,0:2:0:0:
38,72,206488,1,2,1:2:0:0:
316,47,206641,38,0,P|364:59|412:72,1,100,0|10,0:0|0:2,0:0:0:0:
482,43,206947,1,0,0:0:0:0:
387,251,207100,2,0,P|324:208|326:130,1,150,0|0,1:2|0:0,0:0:0:0:
231,35,207406,6,0,B|208:28|189:5|189:5|217:151,1,200,4|0,1:2|1:2,0:0:0:0:
21,75,207865,2,0,P|66:43|120:56,1,100,2|10,0:0|0:2,0:0:0:0:
81,122,208172,1,0,0:0:0:0:
219,314,208325,2,0,B|277:329|277:329|288:347|288:347|355:365,1,150,2|0,1:2|0:0,0:0:0:0:
421,326,208631,5,2,1:2:0:0:
314,220,208784,1,8,0:2:0:0:
317,199,208860,1,8,0:2:0:0:
320,178,208937,37,10,0:2:0:0:
371,234,209090,1,0,1:2:0:0:
416,91,209243,1,10,0:2:0:0:
343,105,209396,1,8,0:2:0:0:
444,217,209549,1,8,0:2:0:0:
467,146,209702,1,8,0:2:0:0:
298,307,209855,6,0,P|275:192|248:126,1,179.999994506836,6|0,1:2|0:0,0:0:0:0:
224,116,210161,2,0,P|205:123|177:127,1,44.999998626709,2|0,0:0|0:0,0:0:0:0:
126,38,210314,2,0,P|144:30|172:26,1,44.999998626709,2|0,1:2|0:0,0:0:0:0:
36,176,210468,6,0,B|137:198|96:242|196:261,1,179.999994506836,10|0,0:2|0:0,0:0:0:0:
212,285,210774,2,0,P|220:324|224:349,1,44.999998626709,2|0,1:2|0:0,0:0:0:0:
108,382,210927,2,0,P|112:359|116:337,1,44.999998626709,2|0,0:0|0:0,0:0:0:0:
358,365,211080,38,0,P|425:260|389:201,1,179.999994506836,2|0,1:2|0:0,0:0:0:0:
381,192,211386,2,0,P|424:209|447:213,1,44.999998626709,2|0,1:2|0:0,0:0:0:0:
512,116,211539,2,0,P|469:133|446:137,1,44.999998626709,2|0,0:0|0:0,0:0:0:0:
242,10,211692,6,0,B|261:84|261:84|253:106|253:106|277:195,1,179.999994506836,10|0,0:2|0:0,0:0:0:0:
291,203,211998,2,0,P|295:180|301:159,1,44.999998626709,2|0,1:2|0:0,0:0:0:0:
168,89,212151,2,0,P|174:110|178:132,1,44.999998626709,10|0,0:2|0:0,0:0:0:0:
0,209,212304,6,0,B|57:208|96:172|86:116|86:116|66:102|66:102|45:63|88:0|152:13,1,320,6|10,1:2|0:2,0:0:0:0:
148,12,213223,1,2,1:2:0:0:
322,76,213376,2,0,B|398:-6|421:82|505:-6,1,200,0|8,0:0|0:2,0:0:0:0:
397,117,213835,1,2,1:2:0:0:
427,314,213988,2,0,P|445:231|472:215,1,100,0|10,0:0|0:2,0:0:0:0:
499,289,214294,1,0,1:2:0:0:
342,258,214447,38,0,P|295:267|278:273,1,55.0000016784668,2|0,0:0|0:0,0:0:0:0:
242,330,214600,2,0,P|195:321|178:315,1,55.0000016784668,10|0,0:2|0:0,0:0:0:0:
2,115,214753,6,0,B|11:47|62:31|114:41|114:41|159:180|24:139|55:253,1,389.999982147218,6|2,1:2|1:2,0:0:0:0:
275,156,215365,2,0,P|235:105|184:101,1,100,10|0,0:2|0:0,0:0:0:0:
132,225,215672,1,2,1:2:0:0:
207,241,215825,1,10,0:2:0:0:
343,78,215978,6,0,P|354:126|363:175,1,100,2|8,1:2|0:2,0:0:0:0:
469,111,216284,2,0,P|477:61|489:13,1,100,2|2,1:2|0:0,0:0:0:0:
405,31,216590,1,10,0:2:0:0:
411,347,216896,37,2,1:2:0:0:
435,233,217049,1,10,0:2:0:0:
275,156,217202,2,0,B|155:166|226:228|94:237,1,200,6|2,1:2|0:0,0:0:0:0:
39,188,217661,1,0,1:2:0:0:
149,59,217814,2,0,P|182:106|185:158,1,100,10|0,0:2|0:0,0:0:0:0:
223,328,218121,2,0,P|230:279|260:239,1,100,2|0,1:2|0:0,0:0:0:0:
300,309,218427,1,2,1:2:0:0:
444,270,218580,5,8,0:2:0:0:
464,284,218656,1,8,0:2:0:0:
489,285,218733,1,10,0:2:0:0:
385,99,218886,5,0,1:2:0:0:
512,135,219039,1,10,0:2:0:0:
491,208,219192,1,0,0:0:0:0:
453,0,219345,37,2,1:2:0:0:
358,27,219498,1,10,0:2:0:0:
401,208,219651,38,0,P|321:229|262:276,1,150,6|0,1:1|0:0,0:0:0:0:
278,169,219957,2,0,P|301:154|329:144,1,50,0|0,1:1|0:0,0:0:0:0:
385,288,220110,2,0,P|358:295|332:314,1,50
73,285,220263,6,0,P|152:306|211:353,1,150,10|0,0:1|0:0,0:0:0:0:
196,246,220569,2,0,P|172:231|144:221,1,50,0|0,1:1|0:0,0:0:0:0:
89,365,220722,2,0,P|115:372|141:391,1,50,0|0,1:1|0:0,0:0:0:0:
138,143,220876,54,0,P|65:161|5:205,1,150,2|0,1:1|0:0,0:0:0:0:
0,231,221182,5,2,1:1:0:0:
34,87,221335,1,0,0:0:0:0:
211,169,221488,53,10,0:1:0:0:
168,27,221641,1,0,0:0:0:0:
151,223,221794,2,0,P|168:150|212:90,1,150,2|0,1:1|0:0,0:0:0:0:
283,195,222100,6,0,P|327:255|344:327,1,150,6|0,1:1|0:0,0:0:0:0:
404,384,222406,2,0,P|419:334|420:302,1,50,0|0,1:1|0:0,0:0:0:0:
248,271,222559,2,0,P|259:290|266:317,1,50
377,189,222712,54,0,P|421:128|438:56,1,150,10|0,0:1|0:0,0:0:0:0:
498,0,223018,2,0,P|513:50|514:82,1,50,0|0,1:1|0:0,0:0:0:0:
342,113,223171,2,0,P|353:93|360:66,1,50,8|0,0:1|0:0,0:0:0:0:
447,232,223325,6,0,P|491:292|508:364,1,150,2|0,1:1|0:0,0:0:0:0:
502,384,223631,53,2,1:1:0:0:
344,327,223784,1,0,0:0:0:0:
299,187,223937,5,10,0:1:0:0:
134,242,224090,1,0,1:1:0:0:
328,257,224243,2,0,P|267:212|195:195,1,150,2|0,0:1|0:0,0:0:0:0:
0,239,224549,54,0,B|87:216|51:181|144:155,1,150,6|0,1:1|0:0,0:0:0:0:
153,286,224855,2,0,P|134:247|135:219,1,50,0|0,1:1|0:0,0:0:0:0:
27,123,225008,2,0,P|46:162|45:190,1,50
168,79,225161,6,0,B|255:102|219:137|312:163,1,150,10|0,0:1|0:0,0:0:0:0:
321,32,225467,2,0,P|302:71|303:99,1,50,0|0,1:1|0:0,0:0:0:0:
195,195,225620,2,0,P|214:156|213:128,1,50,8|0,0:1|0:0,0:0:0:0:
491,146,225774,54,0,P|434:170|364:121,1,150,2|0,1:1|0:0,0:0:0:0:
437,88,226080,2,0,B|421:176|421:176|411:185|411:185|394:279,1,194.999991073609,2|0,1:1|0:0,0:0:0:0:
251,344,226386,2,0,B|266:253|266:253|277:244|277:244|292:156,1,194.999991073609,10|0,0:1|0:0,0:0:0:0:
231,54,226692,2,0,L|214:150,1,97.4999955368044,2|0,1:1|0:0,0:0:0:0:
203,159,226998,6,0,B|208:127|190:106|190:106|147:92|97:117|62:182,1,194.999991073609,6|0,1:1|0:0,0:0:0:0:
11,249,227304,2,0,P|65:241|93:229,1,64.9999970245363,0|0,1:1|0:0,0:0:0:0:
39,79,227457,2,0,P|18:104|3:132,1,64.9999970245363
145,294,227610,54,0,B|139:262|157:241|157:241|200:227|250:252|285:317,1,194.999991073609,10|0,0:1|0:0,0:0:0:0:
337,384,227916,2,0,P|282:376|254:364,1,64.9999970245363,8|0,0:1|0:0,0:0:0:0:
309,214,228069,2,0,P|329:239|344:267,1,64.9999970245363,8|0,0:1|0:0,0:0:0:0:
409,338,228223,6,0,B|419:282|419:282|429:273|429:273|439:220,3,119.999996337891,2|2|2|2,1:2|0:2|0:2|0:2,0:0:0:0:
500,97,229447,54,0,P|431:94|364:72,1,119.999996337891,2|10,1:2|0:2,0:0:0:0:
286,26,229906,1,8,0:2:0:0:
286,26,230059,2,0,P|277:71|276:104,1,59.9999981689454,2|0,1:2|0:0,0:0:0:0:
216,136,230365,1,0,1:2:0:0:
216,136,230518,2,0,P|225:181|226:214,1,59.9999981689454,8|2,0:2|1:2,0:0:0:0:
313,269,230825,1,8,0:2:0:0:
272,335,230978,2,0,B|215:347|236:373|148:388,2,119.999996337891,0|10|0,1:2|0:2|1:2,0:0:0:0:
116,325,231743,5,8,0:2:0:0:
116,325,231896,2,0,P|50:291|39:232,1,119.999996337891,2|2,1:2|0:0,0:0:0:0:
80,152,232355,1,0,1:2:0:0:
80,152,232508,2,0,P|114:157|149:167,1,59.9999981689454,10|0,0:2|0:0,0:0:0:0:
223,72,232814,1,0,1:2:0:0:
223,72,232967,2,0,P|189:77|154:87,1,59.9999981689454,8|2,0:2|1:2,0:0:0:0:
271,0,233274,1,8,0:2:0:0:
311,66,233427,2,0,P|289:145|285:209,2,119.999996337891,0|10|0,1:2|0:2|1:2,0:0:0:0:
374,136,234192,53,8,0:2:0:0:
374,136,234345,2,0,P|373:187|391:260,1,119.999996337891,2|2,1:2|0:0,0:0:0:0:
507,329,234804,1,0,1:2:0:0:
507,329,234957,2,0,P|457:303|433:298,1,59.9999981689454,10|0,0:2|0:0,0:0:0:0:
328,362,235263,1,0,1:2:0:0:
328,362,235416,2,0,P|375:331|391:313,1,59.9999981689454,8|2,0:2|1:2,0:0:0:0:
265,261,235723,1,8,0:2:0:0:
191,245,235876,2,0,P|246:210|258:151,2,119.999996337891,0|10|0,1:2|0:2|1:2,0:0:0:0:
62,162,236641,5,8,0:2:0:0:
62,162,236794,2,0,B|100:145|100:145|182:163,1,119.999996337891,2|2,1:2|0:0,0:0:0:0:
293,22,237253,1,8,0:2:0:0:
293,22,237330,1,8,0:2:0:0:
293,22,237406,1,10,0:2:0:0:
340,83,237559,2,0,P|333:138|331:165,1,59.9999981689454,0|0,1:2|0:0,0:0:0:0:
436,254,237865,53,0,1:2:0:0:
