osu file format v14

[General]
AudioFilename: audio.mp3
AudioLeadIn: 0
PreviewTime: 52356
Countdown: 0
SampleSet: Soft
StackLeniency: 0.7
Mode: 0
LetterboxInBreaks: 0
WidescreenStoryboard: 1

[Editor]
Bookmarks: 10876,40264,72101,101489,130876,160264,180468,187202,209855
DistanceSpacing: 1.3
BeatDivisor: 4
GridSize: 32
TimelineZoom: 1.7

[Metadata]
Title:Gingaroku
TitleUnicode:銀河録
Artist:Hanatan
ArtistUnicode:花たん
Creator:Ianos
Version:Dogerinoo's Hard
Source:
Tags:Dogerinoo C5H10 sueishnao eIis Nirosue -Akito Akito harumaki gohan はるまきごはん hatsune miku 初音ミク vocaloid cover blue ending nova galaxy log 花雨ーはなふるー hana ame furu yurica cordelia japanese alternative rock utaite utau community mentorship program collab contest cycle 11
BeatmapID:2866144
BeatmapSetID:1003562

[Difficulty]
HPDrainRate:5
CircleSize:3.5
OverallDifficulty:6
ApproachRate:8
SliderMultiplier:2.9
SliderTickRate:1

[Events]
//Background and Video events
0,0,"70854385_p0.jpg",0,0
//Break Periods
2,150668,159514
//Storyboard Layer 0 (Background)
//Storyboard Layer 1 (Fail)
//Storyboard Layer 2 (Pass)
//Storyboard Layer 3 (Foreground)
//Storyboard Layer 4 (Overlay)
//Storyboard Sound Samples

[TimingPoints]
1081,612.244897959184,4,2,1,45,1,0
9040,-125,4,2,1,50,0,0
9652,-125,4,2,1,55,0,0
10264,-125,4,2,1,60,0,0
10876,-111.111111111111,4,2,1,65,0,0
15774,-111.111111111111,4,2,1,65,0,0
20672,-111.111111111111,4,2,1,65,0,0
25570,-111.111111111111,4,2,1,65,0,0
30468,-111.111111111111,4,2,1,70,0,0
37815,-111.111111111111,4,2,1,70,0,0
40264,-111.111111111111,4,2,1,70,0,0
40953,-111.111111111111,4,2,1,70,0,0
41029,-111.111111111111,4,2,1,70,0,0
50060,-111.111111111111,4,2,1,50,0,0
51285,-111.111111111111,4,2,1,60,0,0
51897,-111.111111111111,4,2,1,70,0,0
52509,-90.9090909090909,4,2,2,85,0,1
62305,-90.9090909090909,4,2,2,90,0,1
69652,-90.9090909090909,4,2,2,85,0,1
72101,-100,4,2,1,85,0,0
79448,-100,4,2,1,90,0,0
80672,-100,4,2,1,60,0,0
81591,-111.111111111111,4,2,1,60,0,0
81897,-111.111111111111,4,2,1,65,0,0
86795,-111.111111111111,4,2,1,65,0,0
91693,-111.111111111111,4,2,1,65,0,0
96591,-111.111111111111,4,2,1,65,0,0
101489,-111.111111111111,4,2,1,70,0,0
108836,-111.111111111111,4,2,1,70,0,0
111285,-111.111111111111,4,2,1,70,0,0
118632,-111.111111111111,4,2,1,80,0,0
119856,-133.333333333333,4,2,2,90,0,0
121081,-86.9565217391304,4,2,2,100,0,1
125978,-86.9565217391304,4,2,2,100,0,1
130264,-86.9565217391304,4,2,1,90,0,1
130876,-90.9090909090909,4,2,2,90,0,1
140672,-90.9090909090909,4,2,2,95,0,1
148019,-90.9090909090909,4,2,2,90,0,1
150468,-111.111111111111,4,2,1,60,0,0
160264,-133.333333333333,4,2,1,65,0,0
169448,-111.111111111111,4,2,1,65,0,0
170060,-111.111111111111,4,2,1,65,0,0
174958,-111.111111111111,4,2,1,65,0,0
177407,-111.111111111111,4,2,1,70,0,0
179244,-111.111111111111,4,2,1,75,0,0
179856,-111.111111111111,4,2,1,65,0,0
180162,-111.111111111111,4,2,1,65,0,0
180468,612.244897959184,4,2,2,95,1,1
180468,-90.9090909090909,4,2,2,95,0,1
190263,-90.9090909090909,4,2,2,100,0,1
195161,-90.9090909090909,4,2,2,100,0,1
197610,-90.9090909090909,4,2,2,95,0,1
200059,-90.9090909090909,4,2,2,95,0,1
209855,-90.9090909090909,4,2,2,100,0,1
217202,-90.9090909090909,4,2,2,95,0,1
219651,-100,4,2,1,85,0,0
226998,-100,4,2,1,90,0,0
228223,-133.333333333333,4,2,1,60,0,0
229447,-111.111111111111,4,2,1,55,0,0

[Colours]
Combo1 : 107,173,245
Combo2 : 50,105,250
Combo3 : 210,210,210
Combo4 : 142,151,249
Combo5 : 244,174,207

[HitObjects]
256,192,8427,12,8,10570,0:2:0:0:
87,104,10876,21,2,1:2:0:0:
87,104,11029,2,0,L|246:98,1,130.499996017456,0|0,0:0|1:2,0:0:0:0:
269,31,11489,2,0,L|428:37,1,130.499996017456,10|0,0:2|0:0,0:0:0:0:
457,98,11948,2,0,P|469:168|415:220,1,130.499996017456,2|0,1:2|1:2,0:0:0:0:
434,211,12560,5,0,1:2:0:0:
434,211,12713,2,0,L|432:290,1,65.2499980087281,10|0,0:2|1:2,0:0:0:0:
348,331,13019,2,0,L|346:265,1,65.2499980087281
274,221,13325,53,2,1:2:0:0:
274,221,13478,1,0,0:0:0:0:
159,143,13632,2,0,L|225:141,1,65.2499980087281,0|2,0:0|1:2,0:0:0:0:
248,57,13938,2,0,L|109:50,1,130.499996017456,10|0,0:2|1:2,0:0:0:0:
72,147,14397,2,0,B|81:235|81:235|127:218,1,130.499996017456,8|10,0:2|0:2,0:0:0:0:
162,363,15009,1,0,0:0:0:0:
162,363,15162,2,0,L|300:356,1,130.499996017456,10|0,0:2|0:0,0:0:0:0:
373,381,15621,6,0,L|375:304,1,65.2499980087281,0|2,0:0|1:2,0:0:0:0:
455,344,15927,2,0,L|459:210,1,130.499996017456,0|0,0:0|1:2,0:0:0:0:
384,169,16387,2,0,L|380:35,1,130.499996017456,10|0,0:2|0:0,0:0:0:0:
299,11,16846,1,0,1:2:0:0:
299,11,16999,2,0,L|219:9,1,65.2499980087281,2|0,1:2|0:0,0:0:0:0:
198,86,17305,2,0,L|118:88,1,65.2499980087281,0|0,1:2|0:0,0:0:0:0:
49,138,17611,2,0,P|41:212|126:223,1,130.499996017456,10|0,0:2|1:2,0:0:0:0:
161,207,18070,1,8,0:2:0:0:
202,281,18223,54,0,P|267:252|361:250,1,130.499996017456,2|0,1:2|3:2,0:0:0:0:
469,155,18836,2,0,L|464:309,1,130.499996017456,10|0,0:2|1:2,0:0:0:0:
462,370,19295,1,8,0:2:0:0:
325,245,19601,1,10,0:2:0:0:
325,245,19754,2,0,L|320:160,1,65.2499980087281,2|0,1:2|0:0,0:0:0:0:
362,106,20060,2,0,P|304:64|224:64,1,130.499996017456,10|8,0:2|0:2,0:0:0:0:
45,60,20672,6,0,L|48:132,1,65.2499980087281,2|0,1:2|0:0,0:0:0:0:
14,203,20978,2,0,P|34:268|89:273,1,130.499996017456,0|10,0:0|0:2,0:0:0:0:
224,375,21591,1,0,0:0:0:0:
224,375,21744,2,0,P|298:353|373:353,1,130.499996017456,2|0,1:2|1:2,0:0:0:0:
489,251,22356,1,0,1:2:0:0:
489,251,22509,2,0,L|490:167,1,65.2499980087281,10|0,0:2|1:2,0:0:0:0:
492,100,22815,1,0,0:0:0:0:
337,31,23121,54,0,P|300:28|265:40,1,65.2499980087281,2|0,1:2|0:0,0:0:0:0:
235,111,23427,2,0,P|198:114|163:102,1,65.2499980087281,0|2,0:0|1:2,0:0:0:0:
105,30,23734,2,0,B|67:15|67:15|70:109,1,130.499996017456,10|0,0:2|1:2,0:0:0:0:
27,178,24193,2,0,L|30:258,1,65.2499980087281,8|2,0:2|1:2,0:0:0:0:
37,331,24499,1,10,0:2:0:0:
37,331,24652,1,2,1:2:0:0:
245,311,24958,5,10,0:2:0:0:
323,344,25111,1,0,0:0:0:0:
391,294,25264,1,0,0:0:0:0:
481,282,25417,1,0,0:0:0:0:
481,282,25570,54,0,L|484:126,1,130.499996017456,2|0,1:2|0:0,0:0:0:0:
419,104,26029,1,0,1:2:0:0:
419,104,26182,2,0,B|417:23|417:23|356:39,1,130.499996017456,10|0,0:2|0:0,0:0:0:0:
288,113,26642,1,0,1:2:0:0:
288,113,26795,6,0,L|201:111,1,65.2499980087281,2|0,1:2|0:0,0:0:0:0:
165,174,27101,2,0,L|78:172,1,65.2499980087281,0|0,1:2|0:0,0:0:0:0:
32,223,27407,2,0,P|16:293|92:315,1,130.499996017456,10|0,0:2|1:2,0:0:0:0:
133,284,27866,1,8,0:2:0:0:
182,352,28019,1,2,1:2:0:0:
454,79,28478,1,2,1:2:0:0:
454,79,28632,54,0,L|459:241,1,130.499996017456,10|0,0:2|1:2,0:0:0:0:
486,290,29091,2,0,P|449:317|420:325,1,65.2499980087281,8|2,0:2|1:2,0:0:0:0:
349,346,29397,2,0,P|312:319|283:311,1,65.2499980087281,10|2,0:2|1:2,0:0:0:0:
271,236,29703,1,0,0:0:0:0:
271,236,29856,2,0,P|267:165|262:81,1,130.499996017456,10|0,0:2|0:0,0:0:0:0:
59,142,30468,6,0,P|54:207|51:272,1,130.499996017456,2|0,1:2|0:0,0:0:0:0:
102,340,30927,1,0,1:2:0:0:
102,340,31081,2,0,L|174:337,1,65.2499980087281,10|0,0:2|1:2,0:0:0:0:
246,308,31387,1,0,0:0:0:0:
289,206,31540,1,2,1:2:0:0:
295,219,31846,54,0,L|452:222,1,130.499996017456,0|0,1:2|1:2,0:0:0:0:
501,176,32305,1,10,0:2:0:0:
459,102,32458,1,0,1:2:0:0:
459,102,32611,2,0,P|461:59|464:20,1,65.2499980087281
375,61,32917,6,0,L|286:64,1,65.2499980087281,2|0,1:2|0:0,0:0:0:0:
225,50,33223,1,0,0:0:0:0:
65,108,33529,2,0,P|73:147|75:187,1,65.2499980087281,10|0,0:2|0:0,0:0:0:0:
73,258,33836,1,0,1:2:0:0:
131,319,33989,2,0,L|199:314,1,65.2499980087281,8|2,0:2|1:2,0:0:0:0:
243,244,34295,1,10,0:2:0:0:
243,244,34448,2,0,P|312:266|322:328,1,130.499996017456,2|10,1:2|0:2,0:0:0:0:
352,149,35060,1,0,0:0:0:0:
492,54,35366,54,0,L|488:206,1,130.499996017456,2|0,1:2|0:0,0:0:0:0:
504,272,35825,1,0,1:2:0:0:
504,272,35978,2,0,P|500:344|420:352,1,130.499996017456,10|0,0:2|0:0,0:0:0:0:
369,304,36438,2,0,P|301:296|218:296,1,130.499996017456,0|0,1:2|0:0,0:0:0:0:
183,358,36897,2,0,P|135:343|103:344,1,65.2499980087281,0|0,1:2|0:0,0:0:0:0:
69,274,37203,2,0,P|117:259|149:260,1,65.2499980087281,10|0,0:2|0:0,0:0:0:0:
165,180,37509,1,0,1:2:0:0:
171,95,37662,1,0,0:0:0:0:
171,95,37815,6,0,P|239:87|322:87,1,130.499996017456,2|0,1:2|0:0,0:0:0:0:
467,55,38427,2,0,P|473:138|428:164,1,130.499996017456,10|0,0:2|1:2,0:0:0:0:
363,195,38887,2,0,L|361:278,1,65.2499980087281,8|2,0:2|1:2,0:0:0:0:
272,305,39193,1,10,0:2:0:0:
272,305,39346,2,0,L|270:239,1,65.2499980087281,2|0,1:2|0:0,0:0:0:0:
210,179,39652,2,0,B|143:167|143:167|63:197,1,130.499996017456,10|8,0:2|0:2,0:0:0:0:
189,0,40264,54,0,L|191:78,2,65.2499980087281,2|0|0,1:2|0:0|0:0,0:0:0:0:
283,51,40723,1,0,1:2:0:0:
283,51,40876,2,0,L|281:129,1,65.2499980087281,10|0,0:2|1:2,0:0:0:0:
342,175,41183,1,0,0:0:0:0:
342,175,41336,2,0,P|420:151|485:162,1,130.499996017456,2|0,1:2|1:2,0:0:0:0:
458,329,41948,1,0,1:2:0:0:
458,329,42101,5,10,0:2:0:0:
391,382,42254,1,0,1:2:0:0:
322,332,42407,1,0,0:0:0:0:
237,340,42560,1,0,0:0:0:0:
173,225,42713,54,0,L|169:310,1,65.2499980087281,2|0,1:2|0:0,0:0:0:0:
88,353,43019,2,0,L|84:287,1,65.2499980087281,0|2,0:0|1:2,0:0:0:0:
20,233,43325,1,10,0:2:0:0:
20,233,43478,2,0,L|23:167,1,65.2499980087281,0|0,0:0|1:2,0:0:0:0:
12,83,43785,2,0,P|50:75|103:77,1,65.2499980087281,8|2,0:2|1:2,0:0:0:0:
158,109,44091,1,10,0:2:0:0:
158,109,44244,2,0,P|223:83|316:94,1,130.499996017456,2|10,1:2|0:2,0:0:0:0:
507,201,45009,1,0,0:0:0:0:
507,201,45162,6,0,P|489:278|485:347,1,130.499996017456,2|0,1:2|0:0,0:0:0:0:
416,379,45621,2,0,P|350:348|217:355,1,195.749994026184,0|0,1:2|0:0,0:0:0:0:
149,321,46234,1,0,1:2:0:0:
149,321,46387,2,0,L|150:239,1,65.2499980087281,2|0,1:2|0:0,0:0:0:0:
58,191,46693,2,0,L|58:256,1,65.2499980087281,0|0,1:2|0:0,0:0:0:0:
149,162,46999,2,0,P|213:148|294:148,1,130.499996017456,10|0,0:2|1:2,0:0:0:0:
353,107,47458,1,8,0:2:0:0:
353,107,47611,54,0,P|425:97|469:157,1,130.499996017456,2|0,1:2|0:0,0:0:0:0:
429,211,48070,1,2,1:2:0:0:
429,211,48223,2,0,P|416:287|412:349,1,130.499996017456,10|0,0:2|1:2,0:0:0:0:
334,375,48683,2,0,L|259:373,1,65.2499980087281,8|2,0:2|1:2,0:0:0:0:
230,297,48989,1,10,0:2:0:0:
230,297,49142,2,0,L|155:299,1,65.2499980087281,2|0,1:2|0:0,0:0:0:0:
84,325,49448,1,10,0:2:0:0:
84,325,49601,1,0,1:2:0:0:
33,256,49754,1,8,0:2:0:0:
85,189,49907,1,8,0:2:0:0:
166,212,50060,1,2,0:0:0:0:
256,192,50366,12,0,52203,0:0:0:0:
39,61,52509,22,0,P|70:152|151:136,1,159.500004867554,6|0,1:2|1:2,0:0:0:0:
187,86,52968,1,2,0:0:0:0:
246,160,53121,2,0,L|249:264,1,79.7500024337769,10|0,0:2|0:0,0:0:0:0:
339,209,53427,2,0,L|341:129,1,79.7500024337769,2|0,1:2|1:2,0:0:0:0:
414,66,53734,6,0,P|494:92|504:182,1,159.500004867554,2|2,1:2|1:2,0:0:0:0:
469,243,54193,1,0,0:0:0:0:
469,243,54346,2,0,L|468:348,1,79.7500024337769,10|0,0:2|0:0,0:0:0:0:
388,375,54652,1,0,1:2:0:0:
308,322,54805,1,8,0:2:0:0:
231,379,54958,6,0,P|180:363|71:358,1,159.500004867554,6|0,1:2|1:2,0:0:0:0:
22,277,55417,1,2,0:0:0:0:
87,207,55570,2,0,P|82:142|72:99,1,79.7500024337769,10|0,0:2|0:0,0:0:0:0:
127,44,55876,2,0,P|156:71|181:101,1,79.7500024337769,2|0,1:2|1:2,0:0:0:0:
235,181,56183,38,0,P|286:147|386:127,1,159.500004867554,2|2,1:2|1:2,0:0:0:0:
475,160,56642,1,0,0:0:0:0:
475,160,56795,2,0,L|474:258,1,79.7500024337769,10|0,0:2|1:2,0:0:0:0:
386,274,57101,1,0,0:0:0:0:
395,369,57254,1,8,0:2:0:0:
308,329,57407,6,0,P|249:319|134:319,1,159.500004867554,4|0,1:2|1:2,0:0:0:0:
58,345,57866,1,10,0:0:0:0:
60,170,58019,2,0,P|67:210|70:250,1,79.7500024337769,10|0,0:2|0:0,0:0:0:0:
158,213,58325,2,0,P|217:203|251:201,1,79.7500024337769,2|0,1:2|1:2,0:0:0:0:
302,130,58632,6,0,P|382:116|485:144,1,159.500004867554,2|2,1:2|1:2,0:0:0:0:
510,211,59091,1,0,0:0:0:0:
510,211,59244,2,0,L|508:301,1,79.7500024337769,10|0,0:2|0:0,0:0:0:0:
438,356,59550,2,0,P|391:335|342:332,1,79.7500024337769,0|8,1:2|0:2,0:0:0:0:
275,369,59856,38,0,B|195:338|195:338|109:345,1,159.500004867554,4|0,1:2|1:2,0:0:0:0:
31,375,60315,1,2,0:0:0:0:
31,375,60468,1,10,0:2:0:0:
1,185,60774,2,0,L|-1:89,1,79.7500024337769,2|0,1:2|1:2,0:0:0:0:
100,33,61081,6,0,L|98:112,1,79.7500024337769,2|8,1:2|0:2,0:0:0:0:
135,142,61310,1,8,0:2:0:0:
135,142,61387,2,0,L|136:221,1,79.7500024337769,10|0,0:2|1:2,0:0:0:0:
205,287,61693,1,10,0:2:0:0:
297,263,61846,1,8,0:2:0:0:
350,342,61999,1,8,0:2:0:0:
445,353,62152,1,8,0:2:0:0:
510,283,62305,6,0,L|514:117,1,159.500004867554,6|2,1:2|0:0,0:0:0:0:
478,40,62764,1,2,1:2:0:0:
478,40,62917,2,0,B|402:12|402:12|307:30,1,159.500004867554,10|2,0:2|1:2,0:0:0:0:
280,113,63376,1,2,0:0:0:0:
280,113,63529,2,0,B|204:141|204:141|109:123,1,159.500004867554,2|2,1:2|1:2,0:0:0:0:
71,54,63989,1,2,0:0:0:0:
71,54,64142,2,0,P|34:127|69:201,1,159.500004867554,10|2,0:2|1:2,0:0:0:0:
25,283,64601,1,10,0:2:0:0:
75,364,64754,38,0,P|161:349|250:349,1,159.500004867554,6|2,1:2|0:0,0:0:0:0:
285,269,65213,1,0,1:2:0:0:
285,269,65366,2,0,L|373:265,1,79.7500024337769,10|0,0:2|0:0,0:0:0:0:
398,354,65672,2,0,L|486:358,1,79.7500024337769,2|0,1:2|0:0,0:0:0:0:
501,157,65978,6,0,B|492:265|492:265|439:236,1,159.500004867554,2|2,1:2|1:2,0:0:0:0:
388,163,66438,2,0,L|308:166,1,79.7500024337769,0|10,0:0|0:2,0:0:0:0:
314,152,66897,2,0,L|234:155,1,79.7500024337769,2|10,0:0|0:2,0:0:0:0:
141,77,67203,6,0,P|69:114|62:199,1,159.500004867554,6|2,1:2|0:0,0:0:0:0:
129,248,67662,1,2,1:2:0:0:
129,248,67815,2,0,L|131:345,1,79.7500024337769,10|0,0:2|0:0,0:0:0:0:
210,379,68121,1,2,1:2:0:0:
295,335,68274,1,10,0:2:0:0:
295,335,68427,38,0,L|464:337,1,159.500004867554,2|2,1:2|1:2,0:0:0:0:
486,246,68887,2,0,L|389:248,1,79.7500024337769,2|10,0:0|0:2,0:0:0:0:
329,224,69346,2,0,L|426:226,1,79.7500024337769,2|10,1:2|0:2,0:0:0:0:
462,146,69652,6,0,P|475:66|418:22,1,159.500004867554,6|2,1:2|0:0,0:0:0:0:
325,39,70111,1,0,1:2:0:0:
253,102,70264,2,0,L|247:201,1,79.7500024337769,10|0,0:2|0:0,0:0:0:0:
154,125,70570,2,0,L|149:45,1,79.7500024337769,2|0,1:2|0:0,0:0:0:0:
59,11,70876,5,2,1:2:0:0:
5,90,71029,1,8,0:2:0:0:
5,90,71106,1,8,0:2:0:0:
5,90,71183,1,10,0:2:0:0:
7,281,71489,2,0,B|50:258|95:266|95:266|123:287|168:287,1,159.500004867554,10|2,0:2|1:2,0:0:0:0:
241,235,71948,1,10,0:2:0:0:
241,235,72101,6,0,L|245:380,1,145,6|0,1:1|1:1,0:0:0:0:
336,350,72560,1,0,0:0:0:0:
336,350,72713,2,0,L|332:205,1,145,10|0,0:1|1:1,0:0:0:0:
402,142,73172,1,0,1:1:0:0:
402,142,73325,2,0,L|486:145,1,72.5,2|8,1:1|0:1,0:0:0:0:
331,73,73632,5,2,1:1:0:0:
331,73,73785,1,0,0:0:0:0:
256,131,73938,2,0,L|252:226,1,72.5,10|0,0:1|0:0,0:0:0:0:
159,188,74244,2,0,L|163:283,1,72.5,2|8,1:1|0:1,0:0:0:0:
89,320,74550,54,0,P|38:248|49:177,1,145,6|0,1:1|1:1,0:0:0:0:
14,104,75009,1,0,0:0:0:0:
14,104,75162,2,0,P|83:47|188:57,1,145,10|0,0:1|1:1,0:0:0:0:
211,97,75621,1,8,0:1:0:0:
211,97,75774,2,0,L|311:93,1,72.5,2|8,1:1|0:1,0:0:0:0:
375,118,76081,5,2,1:1:0:0:
375,118,76234,1,0,0:0:0:0:
440,185,76387,2,0,P|449:224|448:266,1,72.5,10|0,0:1|1:1,0:0:0:0:
347,204,76693,2,0,P|347:240|356:275,1,72.5,2|8,0:1|0:1,0:0:0:0:
313,359,76999,54,0,P|231:318|156:319,1,145,6|0,1:1|1:1,0:0:0:0:
65,266,77458,1,0,0:0:0:0:
65,266,77611,2,0,P|128:230|200:223,1,145,10|0,0:1|1:1,0:0:0:0:
257,148,78070,1,8,0:1:0:0:
257,148,78223,2,0,L|261:57,1,72.5,2|8,1:1|0:1,0:0:0:0:
348,24,78529,2,0,L|351:96,1,72.5,2|0,1:1|0:0,0:0:0:0:
478,172,78836,6,0,P|443:165|408:172,1,72.5,10|0,0:1|0:0,0:0:0:0:
480,266,79142,2,0,P|439:272|395:259,1,72.5,2|8,1:1|0:1,0:0:0:0:
350,339,79448,54,0,P|281:302|203:303,1,145,6|0,1:1|1:1,0:0:0:0:
178,219,79907,1,0,0:0:0:0:
178,219,80060,2,0,P|133:207|91:211,1,72.5,10|8,0:1|0:1,0:0:0:0:
28,258,80366,1,8,0:1:0:0:
53,348,80519,1,8,0:1:0:0:
146,356,80672,1,2,1:2:0:0:
450,66,81591,6,0,L|447:157,1,65.2499980087281,10|0,0:2|0:0,0:0:0:0:
369,128,81897,54,0,L|365:280,1,130.499996017456,10|0,0:2|0:0,0:0:0:0:
303,305,82356,1,0,1:2:0:0:
157,246,82662,2,0,L|233:242,1,65.2499980087281,0|0,1:2|0:0,0:0:0:0:
96,162,82968,2,0,L|273:153,1,130.499996017456,2|0,1:2|1:2,0:0:0:0:
332,38,83581,1,0,1:2:0:0:
332,38,83734,6,0,L|430:41,1,65.2499980087281,10|0,0:2|1:2,0:0:0:0:
455,91,84040,1,0,0:0:0:0:
452,169,84193,1,0,0:0:0:0:
449,247,84346,1,2,1:2:0:0:
247,367,84805,1,2,1:2:0:0:
190,313,84958,54,0,L|102:318,1,65.2499980087281,10|0,0:2|0:0,0:0:0:0:
67,257,85264,1,0,1:2:0:0:
67,257,85417,1,8,0:2:0:0:
109,181,85570,2,0,L|108:116,1,65.2499980087281,2|10,1:2|0:2,0:0:0:0:
193,61,85876,2,0,L|197:202,1,130.499996017456,2|10,1:2|0:2,0:0:0:0:
204,352,86489,1,0,0:0:0:0:
204,352,86642,1,0,0:0:0:0:
262,299,86795,6,0,B|313:278|364:295|364:295|413:309|462:291,1,195.749994026184,2|0,1:2|1:2,0:0:0:0:
440,216,87407,2,0,P|449:136|465:76,1,130.499996017456,10|0,0:2|0:0,0:0:0:0:
410,28,87866,1,0,1:2:0:0:
410,28,88019,2,0,L|325:32,1,65.2499980087281,2|0,1:2|0:0,0:0:0:0:
298,93,88325,2,0,L|213:89,1,65.2499980087281,0|0,1:2|0:0,0:0:0:0:
183,28,88632,54,0,P|113:25|78:95,1,130.499996017456,10|0,0:2|1:2,0:0:0:0:
62,148,89091,1,8,0:2:0:0:
62,148,89244,2,0,L|68:303,1,130.499996017456,2|0,1:2|3:2,0:0:0:0:
148,339,89703,1,2,1:2:0:0:
148,339,89856,2,0,B|154:259|154:259|198:290,1,130.499996017456,10|0,0:2|1:2,0:0:0:0:
264,323,90315,6,0,L|366:321,1,65.2499980087281,8|2,0:2|1:2,0:0:0:0:
377,248,90621,1,10,0:2:0:0:
377,248,90774,2,0,L|479:250,1,65.2499980087281,2|0,1:2|0:0,0:0:0:0:
496,306,91081,1,10,0:2:0:0:
491,59,91693,53,2,1:2:0:0:
491,59,91846,2,0,L|394:61,1,65.2499980087281
362,14,92152,1,0,1:2:0:0:
293,57,92305,1,10,0:2:0:0:
293,57,92458,2,0,P|286:132|284:218,1,130.499996017456,0|2,1:2|1:2,0:0:0:0:
93,265,93070,2,0,L|169:261,1,65.2499980087281,0|0,1:2|0:0,0:0:0:0:
61,355,93376,1,0,1:2:0:0:
61,355,93529,2,0,L|226:345,1,130.499996017456,10|0,0:2|0:0,0:0:0:0:
147,88,94142,6,0,L|312:98,1,130.499996017456,2|0,1:2|3:2,0:0:0:0:
319,167,94601,1,2,1:2:0:0:
319,167,94754,2,0,P|390:147|463:151,1,130.499996017456,10|0,0:2|1:2,0:0:0:0:
494,209,95213,2,0,L|491:283,1,65.2499980087281,8|2,0:2|1:2,0:0:0:0:
402,373,95519,1,10,0:2:0:0:
402,373,95672,2,0,L|397:242,1,130.499996017456,2|10,1:2|0:2,0:0:0:0:
31,321,96591,54,0,L|184:314,1,130.499996017456,2|0,1:2|0:0,0:0:0:0:
221,262,97050,1,0,1:2:0:0:
221,262,97203,2,0,P|216:179|207:106,1,130.499996017456,10|0,0:2|0:0,0:0:0:0:
259,64,97662,1,0,1:2:0:0:
259,64,97815,2,0,L|352:59,1,65.2499980087281,2|0,1:2|0:0,0:0:0:0:
347,135,98121,2,0,L|515:129,1,130.499996017456,0|10,1:2|0:2,0:0:0:0:
501,301,98734,2,0,P|503:260|508:229,1,65.2499980087281,0|8,1:2|0:2,0:0:0:0:
438,363,99040,6,0,P|361:339|298:342,1,130.499996017456,2|0,1:2|3:2,0:0:0:0:
264,283,99499,1,2,1:2:0:0:
264,283,99652,2,0,P|199:284|137:306,1,130.499996017456,10|0,0:2|1:2,0:0:0:0:
51,189,100111,2,0,L|54:270,1,65.2499980087281,8|2,0:2|1:2,0:0:0:0:
136,208,100417,1,10,0:2:0:0:
136,208,100570,2,0,L|131:77,1,130.499996017456,2|10,1:2|0:2,0:0:0:0:
512,50,101489,54,0,B|450:25|450:25|387:38,1,130.499996017456,2|0,1:2|0:0,0:0:0:0:
339,108,101948,1,0,1:2:0:0:
339,108,102101,2,0,P|335:179|287:213,1,130.499996017456,10|0,0:2|0:0,0:0:0:0:
202,189,102560,1,2,1:2:0:0:
202,189,102713,2,0,L|205:268,1,65.2499980087281,0|0,0:0|1:2,0:0:0:0:
111,155,103019,1,0,0:0:0:0:
111,155,103172,2,0,L|117:292,1,130.499996017456,0|0,1:2|1:2,0:0:0:0:
299,374,103938,6,0,P|379:350|466:350,1,130.499996017456,2|0,1:2|0:0,0:0:0:0:
488,290,104397,1,2,1:2:0:0:
488,290,104550,2,0,L|490:218,1,65.2499980087281,10|0,0:2|0:0,0:0:0:0:
448,150,104856,1,0,1:2:0:0:
507,89,105009,1,8,0:2:0:0:
465,15,105162,2,0,L|386:21,1,65.2499980087281,2|10,1:2|0:2,0:0:0:0:
372,102,105468,1,2,1:2:0:0:
372,102,105621,2,0,L|219:92,1,130.499996017456
31,116,106387,54,0,L|36:269,1,130.499996017456,2|0,1:2|0:0,0:0:0:0:
82,316,106846,1,0,1:2:0:0:
82,316,106999,2,0,L|164:311,1,65.2499980087281,10|0,0:2|0:0,0:0:0:0:
231,307,107305,1,0,0:0:0:0:
231,307,107458,1,0,1:2:0:0:
317,333,107611,2,0,B|321:267,1,65.2499980087281,2|0,1:2|0:0,0:0:0:0:
274,200,107917,1,0,1:2:0:0:
274,200,108070,2,0,P|311:165|400:167,1,130.499996017456
448,220,108529,1,0,1:2:0:0:
448,220,108683,1,8,0:2:0:0:
489,146,108836,6,0,P|495:70|379:47,1,195.749994026184,2|2,1:2|1:2,0:0:0:0:
319,71,109448,2,0,P|238:59|165:74,1,130.499996017456,10|0,0:2|1:2,0:0:0:0:
148,139,109907,2,0,L|144:222,1,65.2499980087281,8|2,0:2|1:2,0:0:0:0:
66,235,110213,1,10,0:2:0:0:
66,235,110366,2,0,B|69:323|69:323|129:303,1,130.499996017456,2|10,1:2|0:2,0:0:0:0:
288,244,110978,1,8,0:2:0:0:
449,66,111285,54,0,L|444:197,1,130.499996017456,2|0,1:2|0:0,0:0:0:0:
495,264,111744,1,0,1:2:0:0:
448,335,111897,1,10,0:2:0:0:
448,335,112050,2,0,P|381:326|272:320,1,130.499996017456,0|2,1:2|1:2,0:0:0:0:
239,217,112509,2,0,L|238:290,1,65.2499980087281,0|0,0:0|1:2,0:0:0:0:
146,327,112815,1,0,0:0:0:0:
146,327,112968,2,0,L|144:196,1,130.499996017456,0|0,1:2|1:2,0:0:0:0:
469,91,113734,6,0,L|311:87,1,130.499996017456,2|0,1:2|3:2,0:0:0:0:
261,52,114193,1,2,1:2:0:0:
198,109,114346,1,10,0:2:0:0:
198,109,114499,2,0,P|209:195|214:270,1,130.499996017456,0|8,0:0|0:2,0:0:0:0:
201,348,114958,2,0,P|261:314|337:340,1,130.499996017456,2|2,1:2|1:2,0:0:0:0:
379,266,115417,1,0,0:0:0:0:
379,266,115570,1,10,0:2:0:0:
437,72,116183,54,0,L|435:203,1,130.499996017456,2|0,1:2|0:0,0:0:0:0:
463,282,116642,1,0,1:2:0:0:
463,282,116795,2,0,P|449:359|362:348,1,130.499996017456,10|0,0:2|0:0,0:0:0:0:
334,327,117254,1,0,1:2:0:0:
334,327,117407,2,0,B|273:305|273:305|194:319,1,130.499996017456,2|0,1:2|1:2,0:0:0:0:
132,279,117866,1,0,0:0:0:0:
122,194,118019,1,10,0:2:0:0:
60,35,118325,5,0,1:2:0:0:
141,13,118478,1,8,0:2:0:0:
215,64,118632,1,2,1:2:0:0:
215,64,118785,2,0,L|359:56,1,130.499996017456,8|2,0:2|1:2,0:0:0:0:
446,182,119244,1,10,0:2:0:0:
446,182,119397,1,8,0:2:0:0:
429,98,119550,1,8,0:2:0:0:
429,98,119703,1,8,0:2:0:0:
345,56,119856,6,0,L|182:47,1,163.125006222725,6|0,1:1|1:2,0:0:0:0:
147,73,120468,2,0,B|134:116|145:153|145:153|162:195|152:239,1,163.125006222725,6|0,1:1|0:0,0:0:0:0:
88,337,121081,6,0,P|158:290|239:294,1,166.750003180504,6|0,1:1|0:0,0:0:0:0:
326,244,121540,1,0,1:1:0:0:
326,244,121693,2,0,P|396:291|476:284,1,166.750003180504,10|0,0:1|1:1,0:0:0:0:
503,191,122152,1,0,0:0:0:0:
503,191,122305,2,0,L|509:91,1,83.375001590252,2|8,1:1|0:1,0:0:0:0:
412,27,122611,2,0,L|415:110,1,83.375001590252,2|0,1:1|0:0,0:0:0:0:
315,116,122917,2,0,P|228:86|142:94,1,166.750003180504,10|2,0:1|1:1,0:0:0:0:
74,148,123376,1,8,0:1:0:0:
74,148,123529,6,0,P|85:232|89:314,1,166.750003180504,6|0,1:1|0:0,0:0:0:0:
171,380,123989,1,0,1:1:0:0:
171,380,124142,2,0,B|248:351|248:351|337:363,1,166.750003180504,10|0,0:1|1:1,0:0:0:0:
406,295,124601,1,0,0:0:0:0:
406,295,124754,2,0,L|410:199,1,83.375001590252,2|8,1:1|0:1,0:0:0:0:
464,129,125060,1,2,1:1:0:0:
464,129,125213,1,0,0:0:0:0:
413,48,125366,1,10,0:1:0:0:
413,48,125519,2,0,B|369:34|326:48|326:48|290:65|245:52,1,166.750003180504,0|8,1:1|0:1,0:0:0:0:
157,13,125978,38,0,P|65:32|49:116,1,166.750003180504,6|0,1:1|0:0,0:0:0:0:
88,189,126438,1,0,1:1:0:0:
88,189,126591,2,0,L|90:276,1,83.375001590252,10|0,0:1|0:0,0:0:0:0:
138,359,126897,1,0,1:1:0:0:
217,297,127050,1,8,0:1:0:0:
217,297,127203,6,0,P|266:292|310:293,1,83.375001590252,2|8,1:1|0:1,0:0:0:0:
381,237,127509,1,2,1:1:0:0:
409,332,127662,1,0,0:0:0:0:
478,175,127815,2,0,L|477:258,1,83.375001590252,10|0,0:1|0:0,0:0:0:0:
389,142,128121,2,0,L|387:58,1,83.375001590252,2|8,1:1|0:1,0:0:0:0:
293,24,128427,6,0,B|252:48|203:34|203:34|171:11|127:18,1,166.750003180504,6|0,1:1|0:0,0:0:0:0:
50,72,128887,1,2,1:1:0:0:
50,72,129040,2,0,P|45:133|50:161,1,83.375001590252,8|0,0:1|0:0,0:0:0:0:
41,254,129346,38,0,B|119:224|119:224|223:231,1,166.750003180504,2|2,1:1|1:1,0:0:0:0:
293,282,129805,1,8,0:1:0:0:
293,282,129958,2,0,L|298:191,1,83.375001590252,2|0,1:1|0:0,0:0:0:0:
231,123,130264,5,2,1:1:0:0:
323,86,130417,1,8,0:3:0:0:
384,165,130570,1,4,0:3:0:0:
482,179,130723,1,0,1:2:0:0:
510,270,130876,6,0,P|500:348|424:357,1,159.500004867554,6|0,1:2|1:2,0:0:0:0:
362,292,131336,1,2,0:0:0:0:
287,352,131489,2,0,L|193:348,1,79.7500024337769,10|0,0:2|0:0,0:0:0:0:
162,262,131795,2,0,L|241:258,1,79.7500024337769,2|0,1:2|1:2,0:0:0:0:
321,166,132101,38,0,L|126:164,1,159.500004867554,2|2,1:2|1:2,0:0:0:0:
78,128,132560,1,0,0:0:0:0:
78,128,132713,2,0,P|72:172|84:213,1,79.7500024337769,10|0,0:2|0:0,0:0:0:0:
100,335,133019,1,0,1:2:0:0:
162,262,133172,1,8,0:2:0:0:
251,229,133325,6,0,P|336:217|417:221,1,159.500004867554,6|0,1:2|1:2,0:0:0:0:
479,154,133785,1,2,0:0:0:0:
419,78,133938,2,0,L|424:-24,1,79.7500024337769,10|0,0:2|0:0,0:0:0:0:
321,46,134244,2,0,L|324:125,1,79.7500024337769,2|0,1:2|1:2,0:0:0:0:
230,139,134550,6,0,B|148:113|148:113|61:125,1,159.500004867554,2|2,1:2|1:2,0:0:0:0:
17,199,135009,1,0,0:0:0:0:
17,199,135162,2,0,P|25:251|28:297,1,79.7500024337769,10|0,0:2|1:2,0:0:0:0:
43,372,135468,1,0,0:0:0:0:
126,325,135621,1,8,0:2:0:0:
212,365,135774,38,0,P|306:332|373:337,1,159.500004867554,4|0,1:2|1:2,0:0:0:0:
427,262,136234,1,10,0:0:0:0:
366,187,136387,2,0,P|357:130|356:95,1,79.7500024337769,10|0,0:2|0:0,0:0:0:0:
413,31,136693,2,0,P|372:17|312:20,1,79.7500024337769,2|0,1:2|1:2,0:0:0:0:
245,46,136999,6,0,P|232:140|160:167,1,159.500004867554,2|2,1:2|1:2,0:0:0:0:
97,119,137458,1,0,0:0:0:0:
97,119,137611,1,10,0:2:0:0:
37,316,137917,2,0,L|134:312,1,79.7500024337769,0|8,1:2|0:2,0:0:0:0:
189,250,138223,6,0,L|361:255,1,159.500004867554,4|0,1:2|1:2,0:0:0:0:
426,311,138683,1,2,0:0:0:0:
426,311,138836,1,10,0:2:0:0:
498,133,139142,2,0,L|496:212,1,79.7500024337769,2|0,1:2|1:2,0:0:0:0:
395,31,139448,38,0,L|396:110,1,79.7500024337769,2|8,1:2|0:2,0:0:0:0:
401,162,139677,1,8,0:2:0:0:
401,162,139754,2,0,P|346:140|305:138,1,79.7500024337769,10|0,0:2|1:2,0:0:0:0:
293,227,140060,1,10,0:2:0:0:
201,256,140213,1,8,0:2:0:0:
146,177,140366,1,8,0:2:0:0:
51,162,140519,1,8,0:2:0:0:
7,247,140672,6,0,B|11:356|11:356|78:329,1,159.500004867554,6|2,1:2|0:0,0:0:0:0:
154,367,141132,1,2,1:2:0:0:
154,367,141285,2,0,P|241:343|336:339,1,159.500004867554,10|2,0:2|1:2,0:0:0:0:
406,366,141744,1,2,0:0:0:0:
406,366,141897,2,0,P|490:343|505:265,1,159.500004867554,2|2,1:2|1:2,0:0:0:0:
444,209,142356,1,2,0:0:0:0:
444,209,142509,2,0,P|450:120|464:46,1,159.500004867554,10|2,0:2|1:2,0:0:0:0:
369,69,142968,1,10,0:2:0:0:
299,3,143121,6,0,P|205:31|133:40,1,159.500004867554,6|2,1:2|0:0,0:0:0:0:
113,132,143581,1,0,1:2:0:0:
113,132,143734,2,0,P|54:123|19:123,1,79.7500024337769,10|0,0:2|0:0,0:0:0:0:
0,211,144040,2,0,L|2:296,1,79.7500024337769,2|0,1:2|0:0,0:0:0:0:
101,370,144346,38,0,B|103:265|103:265|173:297,1,159.500004867554,2|2,1:2|1:2,0:0:0:0:
235,337,144805,1,0,0:0:0:0:
235,337,144958,2,0,P|279:319|320:316,1,79.7500024337769,10|0,0:2|1:2,0:0:0:0:
405,330,145264,1,2,0:0:0:0:
410,234,145417,1,10,0:2:0:0:
414,138,145570,6,0,P|425:54|338:44,1,159.500004867554,6|2,1:2|0:0,0:0:0:0:
282,76,146029,1,2,1:2:0:0:
282,76,146183,2,0,L|279:188,1,79.7500024337769,10|0,0:2|0:0,0:0:0:0:
192,189,146489,1,2,1:2:0:0:
192,189,146642,2,0,B|111:177|111:177|35:211,1,159.500004867554,10|8,0:2|0:2,0:0:0:0:
48,308,147101,1,2,1:2:0:0:
48,308,147254,2,0,B|129:320|129:320|205:286,1,159.500004867554,2|0,0:0|0:0,0:0:0:0:
284,332,147713,2,0,P|325:315|373:314,1,79.7500024337769,2|10,1:2|0:2,0:0:0:0:
445,272,148019,6,0,P|450:186|465:96,1,159.500004867554,6|2,1:2|0:0,0:0:0:0:
404,36,148478,1,0,1:2:0:0:
404,36,148632,2,0,L|308:33,1,79.7500024337769,10|0,0:2|0:0,0:0:0:0:
289,122,148938,2,0,L|193:125,1,79.7500024337769,2|0,1:2|0:0,0:0:0:0:
129,71,149244,38,0,P|38:78|19:171,1,159.500004867554,2|10,1:2|0:2,0:0:0:0:
59,214,149703,1,0,1:2:0:0:
59,214,149856,2,0,L|61:308,1,79.7500024337769,2|0,0:0|0:0,0:0:0:0:
133,355,150162,1,2,1:2:0:0:
213,303,150315,1,0,0:0:0:0:
280,342,150468,1,0,1:0:0:0:
58,204,160264,38,0,L|54:36,2,163.125006222725,2|2|2,1:2|0:0|0:0,0:0:0:0:
141,229,161336,1,2,1:2:0:0:
141,229,161489,2,0,B|137:347|137:347|212:318,1,163.125006222725,10|10,0:2|0:2,0:0:0:0:
352,271,162407,1,2,0:0:0:0:
352,271,162713,6,0,B|467:273|467:273|441:319,1,163.125006222725,2|2,1:2|0:0,0:0:0:0:
477,114,163632,1,2,1:2:0:0:
315,49,163938,2,0,L|145:46,1,163.125006222725,10|2,0:2|1:2,0:0:0:0:
105,112,164550,1,8,0:2:0:0:
47,346,165162,54,0,L|187:342,1,108.750004148483,2|0,1:2|0:0,0:0:0:0:
235,360,165621,1,0,0:0:0:0:
245,369,166081,2,0,P|250:325|256:294,1,54.3750020742417,0|0,0:0|1:2,0:0:0:0:
275,236,166387,5,2,1:2:0:0:
437,245,166693,1,0,1:2:0:0:
54,40,167611,54,0,L|58:204,2,163.125006222725,2|0|0,1:2|0:0|1:2,0:0:0:0:
169,156,168836,2,0,P|265:135|323:132,1,108.750004148483,10|0,0:2|0:0,0:0:0:0:
349,166,169295,1,0,1:2:0:0:
349,166,169448,2,0,L|347:254,1,65.2499980087281,10|0,0:2|0:0,0:0:0:0:
407,308,169754,1,8,0:2:0:0:
335,374,169907,1,8,0:2:0:0:
273,316,170060,6,0,P|211:300|131:302,1,130.499996017456,2|0,1:2|0:0,0:0:0:0:
68,262,170519,1,2,1:2:0:0:
68,262,170672,2,0,L|64:177,1,65.2499980087281,8|0,0:2|0:0,0:0:0:0:
115,129,170978,1,2,1:2:0:0:
71,55,171132,1,10,0:2:0:0:
137,1,171285,53,2,1:2:0:0:
137,1,171438,1,8,0:2:0:0:
208,46,171591,2,0,L|345:42,1,130.499996017456,0|8,1:2|0:2,0:0:0:0:
449,170,172203,2,0,L|446:239,1,65.2499980087281,10|8,0:2|0:2,0:0:0:0:
487,309,172509,6,0,P|427:273|354:278,1,130.499996017456,2|0,1:2|0:0,0:0:0:0:
312,336,172968,1,2,1:2:0:0:
312,336,173121,2,0,L|238:335,1,65.2499980087281,8|0,0:2|0:0,0:0:0:0:
173,378,173427,1,2,1:2:0:0:
107,322,173581,1,8,0:2:0:0:
22,318,173734,53,2,1:2:0:0:
22,318,173887,1,8,0:2:0:0:
47,237,174040,2,0,L|43:152,1,65.2499980087281,0|2,1:2|0:0,0:0:0:0:
118,97,174346,1,12,0:2:0:0:
190,44,174499,1,8,0:3:0:0:
232,83,174652,1,4,0:3:0:0:
267,59,174805,1,0,1:2:0:0:
284,69,174958,1,2,1:2:0:0:
284,69,176183,5,2,0:2:0:0:
284,69,177407,54,0,L|275:211,1,130.499996017456,0|0,1:0|1:0,0:0:0:0:
296,281,177866,1,10,0:0:0:0:
152,190,178172,1,0,1:0:0:0:
152,190,178325,2,0,L|-29:199,1,130.499996017456,10|0,0:0|1:0,0:0:0:0:
92,340,178785,2,0,P|139:291|217:298,1,130.499996017456,10|0,0:0|1:0,0:0:0:0:
279,381,179244,2,0,L|276:297,1,65.2499980087281,8|4,0:3|0:3,0:0:0:0:
369,260,179550,2,0,L|366:325,1,65.2499980087281,0|8,1:0|0:0,0:0:0:0:
467,49,180468,22,0,P|460:129|375:145,1,159.500004867554,6|2,1:2|1:2,0:0:0:0:
312,101,180927,1,0,0:0:0:0:
237,161,181080,2,0,L|232:262,1,79.7500024337769,10|0,0:2|0:0,0:0:0:0:
147,193,181386,2,0,L|143:113,1,79.7500024337769,0|0,1:2|1:2,0:0:0:0:
57,182,181692,6,0,B|50:290|50:290|117:264,1,159.500004867554,2|2,1:2|1:2,0:0:0:0:
177,333,182151,1,0,0:0:0:0:
177,333,182304,2,0,P|221:322|260:320,1,79.7500024337769,10|0,0:2|0:0,0:0:0:0:
340,276,182610,1,0,1:2:0:0:
405,345,182763,1,8,0:0:0:0:
481,287,182916,6,0,P|490:196|506:121,1,159.500004867554,6|2,1:2|1:2,0:0:0:0:
447,49,183376,1,0,0:0:0:0:
361,92,183529,2,0,L|259:89,1,79.7500024337769,10|0,0:2|0:0,0:0:0:0:
225,167,183835,2,0,P|181:158|123:170,1,79.7500024337769,0|0,1:2|1:2,0:0:0:0:
65,276,184141,38,0,L|61:183,1,79.7500024337769,2|8,1:2|0:2,0:0:0:0:
158,250,184447,2,0,L|154:329,1,79.7500024337769,2|0,1:2|0:0,0:0:0:0:
239,373,184753,2,0,P|286:361|334:362,1,79.7500024337769,10|0,0:2|1:2,0:0:0:0:
376,285,185059,2,0,P|329:273|281:274,1,79.7500024337769,2|8,0:0|0:2,0:0:0:0:
458,342,185365,6,0,P|466:249|481:176,1,159.500004867554,6|2,1:2|1:2,0:0:0:0:
431,100,185825,1,0,0:0:0:0:
431,100,185978,2,0,P|359:78|261:85,1,159.500004867554,10|0,0:2|1:2,0:0:0:0:
103,165,186590,6,0,L|99:78,1,79.7500024337769,2|8,1:2|0:2,0:0:0:0:
197,146,186896,2,0,L|193:225,1,79.7500024337769,2|0,1:2|0:0,0:0:0:0:
219,317,187202,2,0,P|270:289|292:247,1,79.7500024337769,10|0,0:2|0:0,0:0:0:0:
372,242,187508,1,0,1:2:0:0:
452,293,187661,1,8,0:2:0:0:
505,213,187814,38,0,L|512:46,1,159.500004867554,6|2,1:2|1:2,0:0:0:0:
427,7,188274,1,0,0:0:0:0:
345,57,188427,2,0,P|292:44|246:42,1,79.7500024337769,10|0,0:2|0:0,0:0:0:0:
218,124,188733,2,0,P|165:137|119:139,1,79.7500024337769,0|0,1:2|1:2,0:0:0:0:
53,180,189039,6,0,L|55:285,1,79.7500024337769,2|8,1:2|0:2,0:0:0:0:
58,307,189269,1,8,0:2:0:0:
58,307,189345,1,10,0:2:0:0:
135,362,189498,1,0,1:2:0:0:
217,313,189651,2,0,L|386:308,1,159.500004867554,10|2,0:2|1:2,0:0:0:0:
477,356,190110,1,8,0:2:0:0:
477,356,190263,6,0,P|487:251|501:177,1,159.500004867554,6|2,1:2|0:0,0:0:0:0:
493,105,190723,1,2,1:2:0:0:
493,105,190876,2,0,B|419:75|419:75|327:87,1,159.500004867554,10|2,0:2|1:2,0:0:0:0:
275,21,191335,1,2,0:0:0:0:
275,21,191488,2,0,P|190:9|103:18,1,159.500004867554,2|2,1:2|1:2,0:0:0:0:
32,56,191947,1,2,0:0:0:0:
32,56,192100,2,0,P|18:139|106:155,1,159.500004867554,10|2,0:2|1:2,0:0:0:0:
142,98,192559,1,10,0:2:0:0:
179,185,192712,38,0,P|194:274|200:351,1,159.500004867554,6|2,1:2|0:0,0:0:0:0:
288,379,193172,1,0,1:2:0:0:
372,334,193325,2,0,L|454:329,1,79.7500024337769,10|0,0:2|0:0,0:0:0:0:
503,248,193631,1,2,1:2:0:0:
466,165,193784,1,0,0:0:0:0:
466,165,193937,6,0,P|471:77|483:-8,1,159.500004867554,2|2,1:2|1:2,0:0:0:0:
375,120,194396,2,0,P|352:38|268:38,1,159.500004867554,0|0,0:0|1:2,0:0:0:0:
172,124,194855,2,0,P|213:115|258:114,1,79.7500024337769,2|0,0:0|1:2,0:0:0:0:
305,191,195161,6,0,L|301:359,1,159.500004867554,6|2,1:2|0:0,0:0:0:0:
209,380,195621,1,2,1:2:0:0:
209,380,195774,2,0,P|159:366|115:362,1,79.7500024337769,10|0,0:2|0:0,0:0:0:0:
51,310,196080,1,2,1:2:0:0:
51,310,196233,2,0,B|50:207|50:207|116:229,1,159.500004867554,10|8,0:2|0:2,0:0:0:0:
166,153,196692,2,0,P|219:167|262:169,1,79.7500024337769,2|2,1:2|0:0,0:0:0:0:
318,109,196998,2,0,P|405:109|443:172,1,159.500004867554,10|2,0:2|1:2,0:0:0:0:
409,253,197457,1,10,0:2:0:0:
423,347,197610,38,0,P|317:335|259:337,1,159.500004867554,6|2,1:2|0:0,0:0:0:0:
172,365,198070,1,0,1:2:0:0:
172,365,198223,2,0,L|170:275,1,79.7500024337769,10|0,0:2|0:0,0:0:0:0:
85,228,198529,2,0,L|83:308,1,79.7500024337769,2|0,1:2|0:0,0:0:0:0:
41,149,198835,2,0,P|82:140|127:146,1,79.7500024337769,2|8,1:2|0:2,0:0:0:0:
204,100,199141,2,0,B|242:78|289:90|289:90|321:117|378:105,1,159.500004867554,2|10,1:2|0:2,0:0:0:0:
449,85,199600,1,8,0:3:0:0:
465,179,199753,1,4,0:3:0:0:
454,205,199906,1,0,1:0:0:0:
437,316,200059,6,0,P|335:304|239:306,1,159.500004867554,6|0,1:2|1:2,0:0:0:0:
193,349,200519,1,2,0:0:0:0:
108,304,200672,2,0,P|105:250|98:199,1,79.7500024337769,10|0,0:2|0:0,0:0:0:0:
189,186,200978,2,0,P|192:132|199:81,1,79.7500024337769,2|0,1:2|1:2,0:0:0:0:
120,46,201284,6,0,P|190:4|268:31,1,159.500004867554,2|2,1:2|1:2,0:0:0:0:
358,12,201743,1,0,0:0:0:0:
358,12,201896,2,0,L|360:113,1,79.7500024337769,10|0,0:2|0:0,0:0:0:0:
448,127,202202,1,0,1:2:0:0:
464,221,202355,1,8,0:2:0:0:
421,309,202508,38,0,L|240:304,1,159.500004867554,6|0,1:2|1:2,0:0:0:0:
186,244,202968,1,2,0:0:0:0:
112,305,203121,2,0,L|108:390,1,79.7500024337769,10|0,0:2|0:0,0:0:0:0:
18,333,203427,2,0,L|14:253,1,79.7500024337769,2|0,1:2|1:2,0:0:0:0:
36,160,203733,6,0,P|37:76|119:56,1,159.500004867554,2|2,1:2|1:2,0:0:0:0:
190,24,204192,1,0,0:0:0:0:
190,24,204345,2,0,P|191:77|197:114,1,79.7500024337769,10|0,0:2|1:2,0:0:0:0:
243,185,204651,1,0,0:0:0:0:
326,137,204804,1,8,0:2:0:0:
406,188,204957,6,0,L|404:353,1,159.500004867554,4|0,1:2|1:2,0:0:0:0:
313,379,205416,1,10,0:0:0:0:
234,323,205570,2,0,P|181:308|141:305,1,79.7500024337769,10|0,0:2|0:0,0:0:0:0:
96,230,205876,2,0,P|149:215|189:212,1,79.7500024337769,2|0,1:2|1:2,0:0:0:0:
231,136,206182,38,0,P|319:108|389:120,1,159.500004867554,2|2,1:2|1:2,0:0:0:0:
439,202,206641,1,0,0:0:0:0:
439,202,206794,1,10,0:2:0:0:
496,19,207100,2,0,P|438:5|391:7,1,79.7500024337769,0|8,1:2|0:2,0:0:0:0:
495,106,207406,6,0,L|493:287,1,159.500004867554,4|0,1:2|1:2,0:0:0:0:
463,358,207865,1,2,0:0:0:0:
463,358,208019,1,10,0:2:0:0:
293,280,208325,1,2,1:2:0:0:
293,280,208478,1,0,1:2:0:0:
221,343,208631,6,0,L|138:342,1,79.7500024337769,2|8,1:2|0:2,0:0:0:0:
35,246,208937,2,0,L|118:245,1,79.7500024337769,10|0,0:2|1:2,0:0:0:0:
154,157,209243,1,10,0:2:0:0:
245,128,209396,1,8,0:2:0:0:
310,197,209549,1,8,0:2:0:0:
403,215,209702,1,8,0:2:0:0:
480,158,209855,38,0,L|487:-9,1,159.500004867554,6|2,1:2|0:0,0:0:0:0:
399,33,210314,1,2,1:2:0:0:
399,33,210468,2,0,P|304:11|235:14,1,159.500004867554,10|2,0:2|1:2,0:0:0:0:
190,94,210927,1,2,0:0:0:0:
190,94,211081,2,0,P|95:116|26:113,1,159.500004867554,2|2,1:2|1:2,0:0:0:0:
8,208,211539,1,2,0:0:0:0:
8,208,211692,2,0,B|14:319|14:319|68:293,1,159.500004867554,10|2,0:2|1:2,0:0:0:0:
149,272,212151,1,10,0:2:0:0:
131,366,212304,6,0,P|231:352|302:351,1,159.500004867554,6|2,1:2|0:0,0:0:0:0:
357,287,212763,1,0,1:2:0:0:
357,287,212916,2,0,P|407:310|457:321,1,79.7500024337769,10|0,0:2|0:0,0:0:0:0:
512,265,213223,1,2,1:2:0:0:
512,265,213376,1,0,0:0:0:0:
462,183,213529,6,0,L|466:12,1,159.500004867554,2|2,1:2|1:2,0:0:0:0:
376,58,213988,2,0,P|284:43|192:44,1,159.500004867554,0|0,0:0|1:2,0:0:0:0:
152,112,214447,1,2,0:0:0:0:
184,201,214600,1,10,0:2:0:0:
111,263,214753,38,0,P|113:352|206:360,1,159.500004867554,6|2,1:2|0:0,0:0:0:0:
248,321,215212,1,2,1:2:0:0:
248,321,215365,2,0,P|305:307|348:307,1,79.7500024337769,10|0,0:2|0:0,0:0:0:0:
420,322,215672,1,2,1:2:0:0:
420,322,215825,1,10,0:2:0:0:
497,265,215978,6,0,P|495:176|402:168,1,159.500004867554,2|2,1:2|1:2,0:0:0:0:
384,74,216437,2,0,P|287:104|213:114,1,159.500004867554,2|0,0:0|0:0,0:0:0:0:
134,116,216896,1,2,1:2:0:0:
134,116,217049,1,10,0:2:0:0:
58,174,217202,6,0,P|64:267|67:346,1,159.500004867554,6|2,1:2|0:0,0:0:0:0:
152,376,217661,1,0,1:2:0:0:
152,376,217814,2,0,L|329:372,1,159.500004867554,10|2,0:2|1:2,0:0:0:0:
439,229,218427,2,0,L|355:228,1,79.7500024337769,2|8,1:2|0:2,0:0:0:0:
482,139,218733,2,0,L|323:139,1,159.500004867554,10|10,0:2|0:2,0:0:0:0:
141,77,219345,1,2,1:2:0:0:
130,172,219498,1,10,0:2:0:0:
130,172,219651,6,0,L|136:328,1,145,6|0,1:1|1:1,0:0:0:0:
224,372,220110,1,0,0:0:0:0:
224,372,220263,2,0,L|229:227,1,145,10|0,0:1|1:1,0:0:0:0:
305,168,220723,1,0,1:1:0:0:
305,168,220876,2,0,P|376:165|405:167,1,72.5,2|8,1:1|0:1,0:0:0:0:
459,119,221182,5,2,1:1:0:0:
459,119,221335,1,0,0:0:0:0:
507,199,221488,2,0,L|504:288,1,72.5,10|0,0:1|0:0,0:0:0:0:
410,278,221794,2,0,L|407:367,1,72.5,2|8,1:1|0:1,0:0:0:0:
317,379,222100,54,0,P|220:338|142:333,1,145,6|0,1:1|1:1,0:0:0:0:
87,339,222559,1,0,0:0:0:0:
87,339,222712,2,0,P|24:300|27:221,1,145,10|0,0:1|1:1,0:0:0:0:
75,157,223172,1,8,0:1:0:0:
75,157,223325,2,0,P|72:112|65:64,1,72.5,2|8,1:1|0:1,0:0:0:0:
133,16,223631,5,2,1:1:0:0:
133,16,223784,1,0,0:0:0:0:
207,73,223937,2,0,L|308:70,1,72.5,10|0,0:1|1:1,0:0:0:0:
338,164,224243,2,0,L|237:161,1,72.5,2|8,0:1|0:1,0:0:0:0:
380,75,224549,54,0,P|430:134|420:216,1,145,6|0,1:1|1:1,0:0:0:0:
448,295,225008,1,0,0:0:0:0:
448,295,225161,2,0,L|276:290,1,145,10|0,0:1|1:1,0:0:0:0:
218,261,225621,1,8,0:1:0:0:
218,261,225774,2,0,L|214:352,1,72.5,2|8,1:1|0:1,0:0:0:0:
120,332,226080,2,0,L|123:259,1,72.5,2|0,1:1|0:0,0:0:0:0:
65,109,226386,6,0,L|69:200,1,72.5,10|0,0:1|0:0,0:0:0:0:
163,180,226692,2,0,L|159:107,1,72.5,2|8,1:1|0:1,0:0:0:0:
234,50,226998,54,0,P|335:27|399:35,1,145,6|0,1:1|1:1,0:0:0:0:
485,155,227457,1,0,0:0:0:0:
485,155,227610,2,0,P|437:136|392:134,1,72.5,10|8,0:1|0:1,0:0:0:0:
362,225,227916,1,8,0:1:0:0:
406,327,228070,1,8,0:1:0:0:
302,361,228223,6,0,B|263:369|263:369|225:358|225:358|184:364,3,108.750004148483,2|2|2|2,1:2|0:2|0:2|0:2,0:0:0:0:
52,271,229447,54,0,L|47:108,1,130.499996017456,2|10,1:2|0:2,0:0:0:0:
86,65,229906,1,8,0:2:0:0:
86,65,230059,2,0,P|166:43|217:47,1,130.499996017456,2|0,1:2|1:2,0:0:0:0:
267,111,230519,2,0,L|270:197,1,65.2499980087281,8|2,0:2|1:2,0:0:0:0:
347,209,230825,1,8,0:2:0:0:
347,209,230978,2,0,L|345:355,1,130.499996017456,0|10,1:2|0:2,0:0:0:0:
181,296,231590,1,0,1:2:0:0:
446,274,231896,6,0,L|444:143,1,130.499996017456,2|2,1:2|0:0,0:0:0:0:
470,62,232355,1,0,1:2:0:0:
470,62,232508,2,0,P|384:32|327:38,1,130.499996017456,10|0,0:2|1:2,0:0:0:0:
290,98,232968,2,0,L|205:96,1,65.2499980087281,8|2,0:2|1:2,0:0:0:0:
128,198,233274,1,8,0:2:0:0:
128,198,233427,2,0,L|273:191,1,130.499996017456,0|10,1:2|0:2,0:0:0:0:
235,359,234039,1,0,1:2:0:0:
29,306,234345,54,0,P|18:209|6:145,1,130.499996017456,2|2,1:2|0:0,0:0:0:0:
60,106,234804,1,0,1:2:0:0:
60,106,234957,2,0,P|105:52|172:49,1,130.499996017456,10|0,0:2|1:2,0:0:0:0:
240,15,235416,2,0,L|242:99,1,65.2499980087281,8|2,0:2|1:2,0:0:0:0:
326,68,235723,1,8,0:2:0:0:
326,68,235876,2,0,L|323:207,1,130.499996017456,0|10,1:2|0:2,0:0:0:0:
318,367,236488,1,0,1:2:0:0:
166,291,236794,6,0,B|233:274|233:274|303:285,1,130.499996017456,2|2,1:2|0:0,0:0:0:0:
384,308,237253,1,8,0:2:0:0:
384,308,237330,1,8,0:2:0:0:
384,308,237406,1,10,0:2:0:0:
454,261,237559,2,0,L|456:114,1,130.499996017456,0|0,1:2|1:2,0:0:0:0:
