osu file format v14

[General]
AudioFilename: audio.mp3
AudioLeadIn: 0
PreviewTime: 52356
Countdown: 0
SampleSet: Soft
StackLeniency: 0.7
Mode: 0
LetterboxInBreaks: 0
WidescreenStoryboard: 1

[Editor]
Bookmarks: 10876,40264,72101,101489,130876,160264,180468,209855
DistanceSpacing: 0.4
BeatDivisor: 8
GridSize: 4
TimelineZoom: 1.7

[Metadata]
Title:Gingaroku
TitleUnicode:銀河録
Artist:Hanatan
ArtistUnicode:花たん
Creator:Ianos
Version:Collab Insane
Source:
Tags:Dogerinoo C5H10 sueishnao eIis Nirosue -Akito Akito harumaki gohan はるまきごはん hatsune miku 初音ミク vocaloid cover blue ending nova galaxy log 花雨ーはなふるー hana ame furu yurica cordelia japanese alternative rock utaite utau community mentorship program collab contest cycle 11
BeatmapID:2866143
BeatmapSetID:1003562

[Difficulty]
HPDrainRate:5.5
CircleSize:4.2
OverallDifficulty:7
ApproachRate:9
SliderMultiplier:1.9
SliderTickRate:1

[Events]
//Background and Video events
0,0,"70854385_p0.jpg",0,0
//Break Periods
//Storyboard Layer 0 (Background)
//Storyboard Layer 1 (Fail)
//Storyboard Layer 2 (Pass)
//Storyboard Layer 3 (Foreground)
//Storyboard Layer 4 (Overlay)
//Storyboard Sound Samples

[TimingPoints]
1081,612.244897959184,4,2,1,45,1,0
9040,-100,4,2,1,50,0,0
9652,-100,4,2,1,55,0,0
10264,-100,4,2,1,60,0,0
10876,-90.9090909090909,4,2,1,65,0,0
30468,-83.3333333333333,4,2,1,70,0,0
50060,-83.3333333333333,4,2,1,50,0,0
51285,-83.3333333333333,4,2,1,60,0,0
51897,-83.3333333333333,4,2,1,70,0,0
52509,-66.6666666666667,4,2,2,85,0,1
62305,-66.6666666666667,4,2,2,90,0,1
69652,-66.6666666666667,4,2,2,85,0,1
72101,-71.4285714285714,4,2,1,85,0,0
79448,-71.4285714285714,4,2,1,90,0,0
80672,-71.4285714285714,4,2,1,60,0,0
81591,-90.9090909090909,4,2,1,60,0,0
81897,-90.9090909090909,4,2,1,65,0,0
101489,-83.3333333333333,4,2,1,70,0,0
118632,-76.9230769230769,4,2,1,80,0,0
119856,-125,4,2,2,90,0,0
121081,-58.8235294117647,4,2,2,100,0,1
130264,-76.9230769230769,4,2,1,90,0,1
130876,-66.6666666666667,4,2,2,90,0,1
140672,-66.6666666666667,4,2,2,95,0,1
148019,-66.6666666666667,4,2,2,90,0,1
150468,-200,4,2,1,60,0,0
160264,-100,4,2,1,65,0,0
170060,-90.9090909090909,4,2,1,65,0,0
177407,-83.3333333333333,4,2,1,70,0,0
179244,-83.3333333333333,4,2,1,75,0,0
179856,-83.3333333333333,4,2,1,65,0,0
180468,612.244897959184,4,2,2,95,1,1
180468,-62.5,4,2,2,95,0,1
190263,-62.5,4,2,2,100,0,1
197610,-62.5,4,2,2,95,0,1
209855,-62.5,4,2,2,100,0,1
217202,-62.5,4,2,2,95,0,1
219651,-71.4285714285714,4,2,1,85,0,0
226998,-71.4285714285714,4,2,1,90,0,0
228223,-100,4,2,1,60,0,0
229447,-100,4,2,1,55,0,0

[Colours]
Combo1 : 107,173,245
Combo2 : 50,105,250
Combo3 : 210,210,210
Combo4 : 142,151,249
Combo5 : 244,174,207

[HitObjects]
256,192,8427,12,8,10570,0:2:0:0:
114,115,10876,21,2,1:2:0:0:
138,42,11029,2,0,P|170:30|205:22,1,52.2500015945435
20,69,11336,1,0,1:2:0:0:
0,177,11489,2,0,P|57:179|121:196,1,104.500003189087,10|0,0:2|0:0,0:0:0:0:
187,268,11948,6,0,L|206:337,1,52.2500015945435,2|0,1:2|0:0,0:0:0:0:
262,365,12254,1,0,1:2:0:0:
346,150,12560,53,0,1:2:0:0:
391,212,12713,2,0,L|372:281,2,52.2500015945435,10|0|0,0:2|1:2|0:0,0:0:0:0:
463,106,13325,6,0,P|456:76|452:44,1,52.2500015945435,2|0,1:2|0:0,0:0:0:0:
379,70,13632,2,0,P|380:39|384:7,1,52.2500015945435,0|2,0:0|1:2,0:0:0:0:
293,55,13938,2,0,L|231:66,1,52.2500015945435,10|0,0:2|0:0,0:0:0:0:
165,61,14244,1,0,1:2:0:0:
189,184,14397,54,0,P|245:185|296:220,2,104.500003189087,8|10|0,0:2|0:2|0:0,0:0:0:0:
131,130,15162,1,10,0:2:0:0:
0,286,15468,1,0,0:0:0:0:
67,319,15621,6,0,L|127:302,1,52.2500015945435,0|2,0:0|1:2,0:0:0:0:
181,374,15927,2,0,P|199:323|242:298,1,104.500003189087,0|0,0:0|1:2,0:0:0:0:
300,248,16387,1,10,0:2:0:0:
486,238,16693,53,0,0:0:0:0:
456,308,16846,1,0,1:2:0:0:
434,184,16999,2,0,P|431:159|429:126,1,52.2500015945435,2|0,1:2|0:0,0:0:0:0:
332,148,17305,2,0,P|336:121|337:90,1,52.2500015945435,0|0,1:2|0:0,0:0:0:0:
457,47,17611,6,0,P|430:43|399:42,1,52.2500015945435,10|0,0:2|0:0,0:0:0:0:
262,78,17917,1,0,1:2:0:0:
188,94,18070,1,8,0:2:0:0:
210,21,18223,54,0,P|224:72|231:134,1,104.500003189087,2|0,1:2|3:2,0:0:0:0:
195,192,18683,1,2,1:2:0:0:
224,264,18836,1,10,0:2:0:0:
90,132,19142,5,0,1:2:0:0:
58,202,19295,1,8,0:2:0:0:
98,269,19448,2,0,P|127:258|157:250,2,52.2500015945435,2|10|2,1:2|0:2|1:2,0:0:0:0:
303,262,20060,2,0,P|292:232|283:202,1,52.2500015945435,10|0,0:2|0:0,0:0:0:0:
299,26,20366,53,8,0:2:0:0:
299,36,20443,1,8,0:2:0:0:
301,46,20519,1,8,0:2:0:0:
305,55,20596,1,8,0:2:0:0:
310,63,20672,1,2,1:2:0:0:
384,56,20825,6,0,P|408:46|434:42,1,52.2500015945435
356,125,21131,1,0,1:2:0:0:
500,108,21285,2,0,P|503:158|513:214,1,104.500003189087,10|0,0:2|0:0,0:0:0:0:
357,227,21744,54,0,P|374:246|390:270,1,52.2500015945435,2|0,1:2|0:0,0:0:0:0:
456,311,22050,1,0,1:2:0:0:
221,247,22356,5,0,1:2:0:0:
266,186,22509,2,0,P|265:155|269:111,2,52.2500015945435,10|0|0,0:2|1:2|0:0,0:0:0:0:
320,319,23121,54,0,P|288:314|247:314,1,52.2500015945435,2|0,1:2|0:0,0:0:0:0:
211,240,23427,2,0,P|180:251|145:272,1,52.2500015945435,0|2,0:0|1:2,0:0:0:0:
125,384,23734,2,0,L|118:315,1,52.2500015945435,10|0,0:2|0:0,0:0:0:0:
84,263,24040,1,0,1:2:0:0:
54,144,24193,6,0,P|92:178|143:186,2,104.500003189087,8|10|0,0:2|0:2|0:0,0:0:0:0:
107,31,24958,53,10,0:2:0:0:
127,104,25111,1,0,0:0:0:0:
196,0,25264,2,0,P|191:24|187:51,1,52.2500015945435
438,24,25570,6,0,P|375:-4|324:5,1,104.500003189087,2|0,1:2|0:0,0:0:0:0:
290,57,26029,1,0,1:2:0:0:
334,125,26183,1,10,0:2:0:0:
222,258,26489,53,0,0:0:0:0:
283,220,26642,1,0,1:2:0:0:
157,165,26795,2,0,P|151:194|153:227,1,52.2500015945435,2|0,1:2|0:0,0:0:0:0:
47,195,27101,2,0,P|53:224|51:257,1,52.2500015945435,0|0,1:2|0:0,0:0:0:0:
158,312,27407,6,0,P|132:310|99:304,1,52.2500015945435,10|0,0:2|0:0,0:0:0:0:
39,260,27713,1,0,1:2:0:0:
18,332,27866,1,8,0:2:0:0:
196,384,28019,54,0,P|248:371|302:374,1,104.500003189087,2|0,1:2|0:0,0:0:0:0:
339,303,28478,1,2,1:2:0:0:
408,342,28632,1,10,0:2:0:0:
377,82,28938,5,0,1:2:0:0:
405,151,29091,1,8,0:2:0:0:
347,200,29244,2,0,P|319:194|282:180,2,52.2500015945435,2|10|2,1:2|0:2|1:2,0:0:0:0:
265,113,29703,1,0,0:0:0:0:
197,0,29856,54,0,P|193:29|194:66,1,52.2500015945435,10|0,0:2|0:0,0:0:0:0:
108,55,30162,2,0,P|119:82|139:113,1,52.2500015945435
269,270,30468,6,0,B|239:228|188:234,1,85.4999973907472,2|0,1:2|0:0,0:0:0:0:
178,250,30774,2,0,L|101:272,1,56.9999982604981,0|0,0:0|1:2,0:0:0:0:
74,327,31081,1,10,0:2:0:0:
0,211,31234,2,0,P|35:211|73:219,1,56.9999982604981,0|0,1:2|0:0,0:0:0:0:
136,384,31540,2,0,P|193:375|256:376,1,113.999996520996,2|0,1:2|1:2,0:0:0:0:
407,160,32152,53,0,1:2:0:0:
444,224,32305,2,0,P|443:253|438:284,1,56.9999982604981,10|0,0:2|1:2,0:0:0:0:
295,243,32611,1,0,0:0:0:0:
367,223,32764,1,0,0:0:0:0:
233,194,32917,6,0,P|212:135|204:88,1,85.4999973907472,2|0,1:2|0:0,0:0:0:0:
218,89,33223,2,0,L|231:29,1,56.9999982604981,0|2,0:0|1:2,0:0:0:0:
293,83,33529,1,10,0:2:0:0:
359,3,33683,2,0,P|330:4|301:10,1,56.9999982604981,0|0,0:0|1:2,0:0:0:0:
152,27,33989,2,0,P|96:20|43:0,1,113.999996520996,8|10,0:2|0:2,0:0:0:0:
29,164,34601,53,0,0:0:0:0:
99,197,34754,2,0,P|157:182|214:209,1,113.999996520996,10|0,0:2|0:0,0:0:0:0:
510,204,35366,6,0,P|503:241|502:281,1,56.9999982604981,2|0,1:2|0:0,0:0:0:0:
474,329,35672,1,0,0:0:0:0:
389,362,35825,2,0,P|373:301|332:256,1,113.999996520996,0|0,1:2|0:0,0:0:0:0:
269,239,36285,1,0,0:0:0:0:
391,135,36438,54,0,P|441:147|486:110,1,113.999996520996,0|0,1:2|0:0,0:0:0:0:
461,37,36897,1,0,1:2:0:0:
321,99,37050,2,0,P|285:101|208:115,1,113.999996520996
97,161,37509,1,0,1:2:0:0:
82,234,37662,1,0,0:0:0:0:
109,153,37815,6,0,P|99:80|76:29,1,113.999996520996,2|0,1:2|0:0,0:0:0:0:
22,10,38274,1,2,1:2:0:0:
183,0,38427,54,0,P|178:28|174:64,1,56.9999982604981,10|0,0:2|0:0,0:0:0:0:
212,122,38734,1,0,1:2:0:0:
379,160,38887,6,0,P|384:188|388:224,1,56.9999982604981,8|2,0:2|1:2,0:0:0:0:
463,232,39193,2,0,P|453:258|438:291,2,56.9999982604981,10|2|0,0:2|1:2|0:0,0:0:0:0:
512,175,39652,1,10,0:2:0:0:
236,193,39958,53,8,0:2:0:0:
240,203,40035,1,8,0:2:0:0:
242,214,40111,1,8,0:2:0:0:
244,225,40188,1,8,0:2:0:0:
245,236,40264,6,0,P|205:240|170:249,1,56.9999982604981,2|0,1:2|0:0,0:0:0:0:
151,316,40570,2,0,P|113:330|81:347,1,56.9999982604981,0|0,0:0|1:2,0:0:0:0:
35,261,40876,53,10,0:2:0:0:
49,271,41029,1,0,1:2:0:0:
22,99,41183,1,0,0:0:0:0:
0,175,41336,2,0,P|59:190|129:198,2,113.999996520996,2|0|0,1:2|1:2|1:2,0:0:0:0:
27,86,42101,1,10,0:2:0:0:
97,55,42254,2,0,P|91:14|85:-7,2,56.9999982604981,0|0|0,1:2|0:0|0:0,0:0:0:0:
176,151,42713,6,0,P|213:164|248:157,1,56.9999982604981,2|0,1:2|0:0,0:0:0:0:
245,86,43019,2,0,P|208:73|173:80,1,56.9999982604981,0|2,0:0|1:2,0:0:0:0:
302,194,43325,2,0,P|307:162|317:131,1,56.9999982604981,10|0,0:2|0:0,0:0:0:0:
340,66,43632,1,0,1:2:0:0:
408,197,43785,54,0,P|446:221|457:248,1,56.9999982604981,8|2,0:2|1:2,0:0:0:0:
445,309,44091,2,0,P|490:300|520:297,2,56.9999982604981,10|2|0,0:2|1:2|0:0,0:0:0:0:
298,282,44550,2,0,B|232:292|260:315|190:327,1,113.999996520996,10|0,0:2|0:0,0:0:0:0:
123,300,45009,1,0,0:0:0:0:
37,168,45162,6,0,P|111:180|136:222,1,113.999996520996,2|0,1:2|0:0,0:0:0:0:
228,180,45621,2,0,P|227:123|232:66,1,113.999996520996,0|0,1:2|0:0,0:0:0:0:
273,1,46081,1,0,0:0:0:0:
314,128,46234,54,0,P|385:114|411:66,1,113.999996520996,0|0,1:2|0:0,0:0:0:0:
335,53,46693,1,0,1:2:0:0:
485,33,46846,2,0,P|479:89|469:145,1,113.999996520996
397,249,47305,2,0,P|400:217|405:187,1,56.9999982604981,0|8,1:2|0:2,0:0:0:0:
496,292,47611,6,0,B|440:302|458:320|386:335,2,113.999996520996,2|0|10,1:2|0:0|0:2,0:0:0:0:
323,375,48529,1,0,1:2:0:0:
253,349,48683,2,0,P|209:357|187:365,1,56.9999982604981,8|2,0:2|1:2,0:0:0:0:
158,205,48989,53,10,0:2:0:0:
225,245,49142,2,0,P|192:274|161:286,1,56.9999982604981,2|0,1:2|0:0,0:0:0:0:
159,126,49448,2,0,P|200:139|226:160,1,56.9999982604981,10|0,0:2|1:2,0:0:0:0:
89,251,49754,1,8,0:2:0:0:
77,176,49907,1,8,0:2:0:0:
158,205,50060,5,2,0:0:0:0:
256,192,51438,12,0,52356,0:0:0:0:
112,53,52509,6,0,P|184:91|190:161,1,142.500005435944,6|0,1:2|1:2,0:0:0:0:
136,200,52968,1,2,0:0:0:0:
23,123,53121,2,0,P|76:128|106:136,1,71.2500027179719,10|0,0:2|0:0,0:0:0:0:
79,252,53427,2,0,P|26:257|-4:265,1,71.2500027179719,2|0,1:2|1:2,0:0:0:0:
182,281,53734,5,2,1:2:0:0:
226,343,53887,2,0,P|294:324|319:255,1,142.500005435944,8|0,0:2|0:0,0:0:0:0:
382,130,54346,2,0,P|374:183|374:217,1,71.2500027179719,10|0,0:2|0:0,0:0:0:0:
472,73,54652,1,0,1:2:0:0:
490,147,54805,1,8,0:2:0:0:
390,18,54958,6,0,B|303:30|342:60|244:74,1,142.500005435944,6|0,1:2|1:2,0:0:0:0:
195,25,55417,1,2,0:0:0:0:
137,140,55570,2,0,B|121:106|121:106|134:63,1,71.2500027179719,10|0,0:2|0:0,0:0:0:0:
71,188,55876,2,0,B|80:220|80:220|64:254,1,71.2500027179719,2|0,1:2|1:2,0:0:0:0:
187,333,56183,37,2,1:2:0:0:
247,285,56336,2,0,P|236:210|220:142,1,142.500005435944,8|0,0:2|0:0,0:0:0:0:
317,224,56795,2,0,P|360:242|399:235,1,71.2500027179719,10|0,0:2|1:2,0:0:0:0:
473,129,57101,1,0,0:0:0:0:
400,153,57254,1,8,0:2:0:0:
507,291,57407,6,0,P|406:313|347:316,1,142.500005435944,4|0,1:2|1:2,0:0:0:0:
255,241,57866,1,10,0:0:0:0:
255,241,57943,1,8,0:0:0:0:
255,241,58019,2,0,P|202:218|169:228,1,71.2500027179719,10|0,0:2|0:0,0:0:0:0:
163,330,58325,2,0,P|215:352|248:342,1,71.2500027179719,2|0,1:2|1:2,0:0:0:0:
118,246,58632,5,2,1:2:0:0:
68,303,58785,2,0,B|94:235|94:235|71:161,1,142.500005435944,8|0,0:2|0:0,0:0:0:0:
126,21,59244,2,0,P|66:32|46:40,1,71.2500027179719,10|0,0:2|0:0,0:0:0:0:
7,95,59550,1,0,1:2:0:0:
236,154,59856,38,0,B|313:125|280:100|373:71,1,142.500005435944,4|0,1:2|1:2,0:0:0:0:
482,76,60315,2,0,B|405:47|438:22|345:-7,1,142.500005435944,2|0,0:0|0:0,0:0:0:0:
225,4,60774,2,0,P|210:46|220:83,1,71.2500027179719,2|0,1:2|1:2,0:0:0:0:
363,157,61081,5,2,1:2:0:0:
408,218,61234,1,8,0:2:0:0:
411,231,61310,1,8,0:2:0:0:
415,244,61387,2,0,P|408:288|405:325,1,71.2500027179719,10|0,0:2|1:2,0:0:0:0:
274,226,61693,2,0,P|308:254|339:275,1,71.2500027179719,10|8,0:2|0:2,0:0:0:0:
187,339,61999,2,0,P|228:323|262:307,1,71.2500027179719,8|8,0:2|0:2,0:0:0:0:
73,337,62305,6,0,B|100:259|65:271|95:178,1,142.500005435944,6|2,1:2|0:0,0:0:0:0:
146,144,62764,1,2,1:2:0:0:
0,83,62917,2,0,P|30:121|67:133,1,71.2500027179719,10|0,0:2|0:0,0:0:0:0:
177,35,63223,37,2,1:2:0:0:
247,7,63376,1,2,0:0:0:0:
349,95,63529,2,0,P|326:176|324:191,1,71.2500027179719,2|8,1:2|0:2,0:0:0:0:
413,44,63836,5,2,1:2:0:0:
342,18,63989,1,2,0:0:0:0:
253,127,64142,2,0,P|251:211|253:226,1,71.2500027179719,10|0,0:2|0:0,0:0:0:0:
271,333,64448,2,0,P|313:319|329:287,1,71.2500027179719,2|10,1:2|0:2,0:0:0:0:
503,198,64754,6,0,B|440:208|440:208|425:221|425:221|349:235,2,142.500005435944,6|2|10,1:2|0:0|0:2,0:0:0:0:
223,272,65672,1,2,1:2:0:0:
166,323,65825,2,0,P|113:306|98:213,1,142.500005435944,0|8,0:0|0:2,0:0:0:0:
166,159,66285,1,2,1:2:0:0:
221,108,66438,2,0,P|152:118|74:143,1,142.500005435944,0|0,0:0|1:2,0:0:0:0:
0,15,66897,2,0,P|52:21|81:28,1,71.2500027179719,2|10,0:0|0:2,0:0:0:0:
270,40,67203,38,0,B|313:73|303:126|303:126|373:123|421:172|413:257,1,285.000010871888,6|10,1:2|0:2,0:0:0:0:
472,23,68121,1,2,1:2:0:0:
412,69,68274,2,0,P|404:110|401:148,1,71.2500027179719,10|2,0:2|1:2,0:0:0:0:
328,219,68581,2,0,P|336:260|339:298,1,71.2500027179719,8|2,0:2|1:2,0:0:0:0:
273,374,68887,2,0,P|258:274|249:224,1,142.500005435944,2|0,0:0|0:0,0:0:0:0:
102,221,69346,6,0,P|140:237|177:236,1,71.2500027179719,2|10,1:2|0:2,0:0:0:0:
86,120,69652,2,0,P|177:160|239:151,1,142.500005435944,6|2,1:2|0:0,0:0:0:0:
274,102,70111,1,0,1:2:0:0:
152,68,70264,2,0,P|141:23|132:-3,1,71.2500027179719,10|0,0:2|0:0,0:0:0:0:
20,61,70570,2,0,P|8:94|0:129,1,71.2500027179719,2|0,1:2|0:0,0:0:0:0:
163,79,70876,5,2,1:2:0:0:
261,26,71029,1,8,0:2:0:0:
275,23,71106,1,8,0:2:0:0:
289,21,71183,2,0,P|329:41|349:78,1,71.2500027179719,10|0,0:2|1:2,0:0:0:0:
444,54,71489,2,0,P|446:98|424:134,1,71.2500027179719,10|0,0:2|0:0,0:0:0:0:
343,214,71795,37,2,1:2:0:0:
359,141,71948,1,10,0:2:0:0:
258,275,72101,38,0,P|249:208|230:142,1,132.999995941162,6|0,1:1|1:1,0:0:0:0:
170,194,72560,1,0,0:0:0:0:
25,224,72713,6,0,P|34:157|53:91,1,132.999995941162,10|0,0:1|1:1,0:0:0:0:
123,62,73172,1,0,1:1:0:0:
232,146,73325,54,0,P|264:139|297:135,1,66.4999979705811,2|8,1:1|0:1,0:0:0:0:
354,192,73632,1,2,1:1:0:0:
324,262,73785,1,0,0:0:0:0:
452,283,73938,5,10,0:1:0:0:
482,353,74091,1,0,0:0:0:0:
441,275,74244,2,0,P|433:226|433:171,1,99.7499969558717,2|0,1:1|0:0,0:0:0:0:
512,122,74550,54,0,P|450:94|384:75,1,132.999995941162,6|0,1:1|1:1,0:0:0:0:
359,148,75009,1,0,0:0:0:0:
281,0,75162,6,0,P|217:24|157:57,1,132.999995941162,10|0,0:1|1:1,0:0:0:0:
140,129,75621,1,8,0:1:0:0:
65,287,75774,54,0,P|49:257|37:227,1,66.4999979705811,2|8,1:1|0:1,0:0:0:0:
68,157,76081,1,2,1:1:0:0:
126,204,76234,1,0,0:0:0:0:
222,207,76387,5,10,0:1:0:0:
201,281,76540,1,0,1:1:0:0:
230,197,76693,2,0,P|282:182|340:195,1,99.7499969558717,2|0,0:1|0:0,0:0:0:0:
312,265,76999,54,0,P|377:283|440:311,1,132.999995941162,6|0,1:1|1:1,0:0:0:0:
511,280,77458,1,0,0:0:0:0:
512,93,77611,6,0,P|452:127|388:151,1,132.999995941162,10|0,0:1|1:1,0:0:0:0:
325,108,78070,1,8,0:1:0:0:
312,265,78223,2,0,P|271:253|235:253,1,66.4999979705811,2|8,1:1|0:1,0:0:0:0:
184,204,78529,1,2,1:1:0:0:
162,278,78683,1,0,0:0:0:0:
28,162,78836,54,0,P|38:120|67:65,1,99.7499969558717,10|0,0:1|0:0,0:0:0:0:
74,91,79142,2,0,P|104:123|142:144,1,66.4999979705811,2|8,1:1|0:1,0:0:0:0:
246,46,79448,6,0,P|308:18|374:-1,1,132.999995941162,6|0,1:1|1:1,0:0:0:0:
436,40,79907,1,0,0:0:0:0:
350,156,80060,54,0,P|346:112|338:71,1,66.4999979705811,10|8,0:1|0:1,0:0:0:0:
426,145,80366,1,8,0:1:0:0:
420,189,80519,1,8,0:1:0:0:
475,270,80672,5,2,1:2:0:0:
0,299,81591,54,0,P|53:285|112:285,1,104.500003189087,10|10,0:2|0:2,0:0:0:0:
269,190,82203,6,0,P|273:156|282:126,1,52.2500015945435,0|0,0:0|1:2,0:0:0:0:
200,146,82509,2,0,P|196:94|174:47,1,104.500003189087,10|0,0:2|0:0,0:0:0:0:
59,0,82968,54,0,P|53:38|47:60,1,52.2500015945435,2|0,1:2|0:0,0:0:0:0:
72,125,83274,1,0,1:2:0:0:
131,246,83581,5,0,1:2:0:0:
76,299,83734,2,0,P|51:307|25:314,2,52.2500015945435,10|0|0,0:2|1:2|0:0,0:0:0:0:
139,259,84193,1,0,0:0:0:0:
261,355,84346,54,0,P|259:313|255:288,1,52.2500015945435,2|0,1:2|0:0,0:0:0:0:
344,296,84652,2,0,P|346:338|350:363,1,52.2500015945435,0|2,0:0|1:2,0:0:0:0:
425,313,84958,2,0,P|463:291|469:216,1,104.500003189087,10|0,0:2|1:2,0:0:0:0:
410,194,85417,1,8,0:2:0:0:
434,106,85570,6,0,P|429:58|424:40,1,52.2500015945435,2|10,1:2|0:2,0:0:0:0:
372,0,85876,1,2,1:2:0:0:
311,45,86029,1,0,0:0:0:0:
150,0,86183,54,0,P|159:54|179:112,1,104.500003189087,10|0,0:2|0:0,0:0:0:0:
157,174,86642,1,0,0:0:0:0:
115,312,86795,6,0,P|122:345|124:378,1,52.2500015945435,2|0,1:2|0:0,0:0:0:0:
213,258,87101,1,0,0:0:0:0:
197,332,87254,1,0,1:2:0:0:
226,247,87407,54,0,P|257:195|319:190,1,104.500003189087,10|0,0:2|0:0,0:0:0:0:
374,204,87866,1,0,1:2:0:0:
476,54,88019,6,0,P|484:88|484:113,1,52.2500015945435,2|0,1:2|0:0,0:0:0:0:
381,15,88325,2,0,P|373:49|373:74,1,52.2500015945435,0|0,1:2|0:0,0:0:0:0:
226,93,88632,54,0,P|260:101|285:101,1,52.2500015945435,10|0,0:2|0:0,0:0:0:0:
232,17,88938,1,0,1:2:0:0:
164,49,89091,1,8,0:2:0:0:
126,214,89244,6,0,P|138:166|111:101,1,104.500003189087,2|0,1:2|3:2,0:0:0:0:
52,74,89703,1,2,1:2:0:0:
74,0,89856,1,10,0:2:0:0:
214,199,90162,53,0,1:2:0:0:
288,177,90315,1,8,0:2:0:0:
324,244,90468,2,0,P|332:278|332:303,2,52.2500015945435,2|10|2,1:2|0:2|1:2,0:0:0:0:
179,359,91081,6,0,P|213:351|238:351,1,52.2500015945435,10|0,0:2|0:0,0:0:0:0:
417,383,91387,53,8,0:2:0:0:
419,372,91463,1,8,0:2:0:0:
421,361,91540,1,8,0:2:0:0:
421,350,91616,1,8,0:2:0:0:
418,339,91693,1,2,1:2:0:0:
462,272,91846,6,0,P|487:276|512:283,2,52.2500015945435,0|0|0,0:0|0:0|1:2,0:0:0:0:
421,198,92305,2,0,P|446:191|471:186,1,52.2500015945435,10|0,0:2|1:2,0:0:0:0:
495,109,92611,1,0,0:0:0:0:
346,0,92764,54,0,P|349:60|375:112,1,104.500003189087,2|0,1:2|1:2,0:0:0:0:
331,170,93223,1,0,0:0:0:0:
266,129,93376,1,0,1:2:0:0:
153,220,93529,6,0,P|178:215|204:209,1,52.2500015945435,10|0,0:2|1:2,0:0:0:0:
181,131,93836,2,0,P|155:135|129:141,1,52.2500015945435
46,300,94295,53,0,3:2:0:0:
0,238,94448,2,0,P|14:207|23:168,1,52.2500015945435,0|2,3:2|1:2,0:0:0:0:
44,87,94754,2,0,P|88:58|153:68,1,104.500003189087,10|0,0:2|1:2,0:0:0:0:
216,61,95213,1,8,0:2:0:0:
375,54,95366,5,2,1:2:0:0:
309,91,95519,1,10,0:2:0:0:
390,68,95672,2,0,P|385:99|384:132,1,52.2500015945435,2|0,1:2|0:0,0:0:0:0:
505,220,95978,54,0,P|474:215|441:214,1,52.2500015945435,10|0,0:2|0:0,0:0:0:0:
396,264,96285,1,0,0:0:0:0:
332,224,96438,1,0,0:0:0:0:
207,285,96591,6,0,P|185:332|183:388,1,104.500003189087,2|0,1:2|0:0,0:0:0:0:
284,286,97050,1,0,1:2:0:0:
127,262,97203,2,0,P|95:250|63:247,1,52.2500015945435,10|0,0:2|0:0,0:0:0:0:
130,113,97509,53,0,0:0:0:0:
46,146,97662,1,0,1:2:0:0:
123,124,97815,6,0,P|125:160|132:190,1,52.2500015945435,2|0,1:2|0:0,0:0:0:0:
208,101,98121,2,0,P|205:64|198:34,1,52.2500015945435,0|0,1:2|0:0,0:0:0:0:
285,165,98427,54,0,P|337:165|388:156,1,104.500003189087,10|0,0:2|1:2,0:0:0:0:
427,88,98887,1,8,0:2:0:0:
512,242,99040,6,0,B|465:225|399:231,1,104.500003189087,2|0,1:2|3:2,0:0:0:0:
423,306,99499,1,2,1:2:0:0:
345,297,99652,2,0,P|346:323|350:349,1,52.2500015945435,10|0,0:2|0:0,0:0:0:0:
233,227,99958,53,0,1:2:0:0:
202,297,100111,1,8,0:2:0:0:
132,261,100264,2,0,P|99:261|73:266,2,52.2500015945435,2|10|2,1:2|0:2|1:2,0:0:0:0:
179,117,100876,5,10,0:2:0:0:
397,82,101489,54,0,P|436:76|471:36,2,85.4999973907472,2|0|0,1:2|0:0|1:2,0:0:0:0:
312,166,102101,2,0,P|244:150|194:118,1,113.999996520996,10|0,0:2|0:0,0:0:0:0:
181,53,102560,1,2,1:2:0:0:
64,12,102713,6,0,P|97:33|108:70,1,56.9999982604981,0|0,0:0|1:2,0:0:0:0:
36,83,103019,1,0,0:0:0:0:
135,158,103172,2,0,P|154:218|165:287,2,113.999996520996,0|0|0,1:2|1:2|0:0,0:0:0:0:
24,286,103938,54,0,B|121:293|73:345|188:353,1,170.999994781494,2|2,1:2|1:2,0:0:0:0:
245,238,104550,2,0,P|295:225|321:215,1,56.9999982604981,10|0,0:2|0:0,0:0:0:0:
362,318,104856,2,0,P|312:305|286:295,1,56.9999982604981,0|8,1:2|0:2,0:0:0:0:
376,184,105162,5,2,1:2:0:0:
383,163,105315,1,10,0:2:0:0:
512,241,105468,1,2,1:2:0:0:
478,309,105621,2,0,P|461:225|446:179,2,113.999996520996
512,125,106387,54,0,P|456:102|441:45,1,113.999996520996,2|0,1:2|0:0,0:0:0:0:
501,9,106846,1,0,1:2:0:0:
366,85,106999,2,0,P|326:76|294:71,1,56.9999982604981,10|0,0:2|0:0,0:0:0:0:
210,15,107305,1,0,0:0:0:0:
137,29,107458,1,0,1:2:0:0:
221,30,107611,6,0,P|234:98|240:169,1,113.999996520996,2|0,1:2|1:2,0:0:0:0:
340,159,108070,2,0,P|327:227|321:298,1,113.999996520996
270,329,108529,1,0,1:2:0:0:
275,345,108683,1,8,0:2:0:0:
175,260,108836,54,0,P|133:236|112:234,1,56.9999982604981,2|0,1:2|0:0,0:0:0:0:
86,304,109142,2,0,P|128:328|149:330,1,56.9999982604981,0|2,0:0|1:2,0:0:0:0:
104,159,109448,2,0,P|30:183|6:227,1,113.999996520996,10|0,0:2|1:2,0:0:0:0:
221,196,109907,6,0,P|235:150|247:123,1,56.9999982604981,8|2,0:2|1:2,0:0:0:0:
149,51,110213,2,0,P|158:77|166:105,1,56.9999982604981,10|2,0:2|1:2,0:0:0:0:
77,22,110519,1,0,0:0:0:0:
234,50,110672,2,0,P|259:61|284:76,1,56.9999982604981,10|0,0:2|0:0,0:0:0:0:
416,25,110978,1,8,0:2:0:0:
426,29,111055,1,8,0:2:0:0:
437,31,111132,1,8,0:2:0:0:
448,31,111208,1,8,0:2:0:0:
459,27,111285,54,0,B|478:79|478:79|448:136|448:136|465:196,1,170.999994781494,2|0,1:2|1:2,0:0:0:0:
424,319,111897,1,10,0:2:0:0:
380,256,112050,2,0,P|388:206|394:179,1,56.9999982604981,0|0,1:2|0:0,0:0:0:0:
283,384,112356,1,2,1:2:0:0:
325,320,112509,2,0,P|306:272|298:246,1,56.9999982604981,0|0,0:0|1:2,0:0:0:0:
210,184,112815,5,0,0:0:0:0:
140,213,112968,2,0,P|198:225|230:288,2,113.999996520996,0|0|0,1:2|1:2|0:0,0:0:0:0:
71,379,113734,54,0,P|77:322|86:266,1,113.999996520996,2|0,1:2|3:2,0:0:0:0:
63,193,114193,1,2,1:2:0:0:
151,120,114346,1,10,0:2:0:0:
89,75,114499,2,0,P|47:90|17:89,1,56.9999982604981,0|0,0:0|1:2,0:0:0:0:
44,12,114805,1,8,0:2:0:0:
207,65,114958,6,0,B|278:86|252:102|312:120,1,113.999996520996,2|2,1:2|1:2,0:0:0:0:
382,0,115417,2,0,B|399:71|372:57|386:118,1,113.999996520996
506,139,115876,2,0,P|457:149|437:170,1,56.9999982604981
498,215,116183,1,2,1:2:0:0:
269,185,116489,54,0,P|220:175|190:171,1,56.9999982604981,0|0,0:0|1:2,0:0:0:0:
343,302,116795,2,0,P|417:287|465:283,1,113.999996520996,10|0,0:2|0:0,0:0:0:0:
445,360,117254,1,0,1:2:0:0:
283,384,117407,2,0,P|261:358|256:328,1,56.9999982604981,2|0,1:2|0:0,0:0:0:0:
138,244,117713,1,0,1:2:0:0:
182,306,117866,2,0,P|238:305|274:260,1,113.999996520996
340,146,118325,5,0,1:2:0:0:
360,218,118478,1,8,0:2:0:0:
277,98,118632,53,2,1:2:0:0:
211,211,118785,2,0,P|191:143|165:80,1,123.499994346619,8|2,0:2|1:2,0:0:0:0:
93,80,119244,1,10,0:2:0:0:
25,216,119397,5,8,0:2:0:0:
145,253,119550,1,8,0:2:0:0:
0,288,119703,1,8,0:2:0:0:
188,368,119856,6,0,B|179:316|179:316|165:311|165:311|158:264,1,114,6|0,1:1|1:2,0:0:0:0:
343,316,120468,6,0,B|353:264|353:264|367:258|367:258|374:212,1,114,6|0,1:1|0:0,0:0:0:0:
494,200,121081,6,0,B|414:187|445:127|359:116,1,161.500003080368,6|0,1:1|0:0,0:0:0:0:
307,172,121540,1,0,1:1:0:0:
268,17,121693,2,0,P|275:73|292:102,1,80.750001540184,10|0,0:1|0:0,0:0:0:0:
182,184,121999,2,0,P|226:218|259:227,1,80.750001540184,0|0,1:1|0:0,0:0:0:0:
81,128,122305,37,2,1:1:0:0:
211,109,122458,1,8,0:1:0:0:
130,6,122611,1,2,1:1:0:0:
0,25,122764,1,0,0:0:0:0:
90,141,122917,6,0,P|79:180|75:220,1,80.750001540184,10|0,0:1|0:0,0:0:0:0:
249,225,123223,2,0,P|237:276|235:316,1,80.750001540184,2|8,1:1|0:1,0:0:0:0:
421,215,123529,5,6,1:1:0:0:
371,353,123683,2,0,B|332:363|332:363|307:324|306:284|331:246,1,161.500003080368,0|0,0:0|1:1,0:0:0:0:
474,120,124142,2,0,P|418:128|346:161,1,121.125002310276,10|0,0:1|0:0,0:0:0:0:
342,169,124448,2,0,P|290:156|251:149,1,80.750001540184,0|0,1:1|0:0,0:0:0:0:
134,70,124754,37,2,1:1:0:0:
263,41,124907,1,8,0:1:0:0:
70,145,125060,5,2,1:1:0:0:
196,184,125213,1,0,0:0:0:0:
79,16,125366,2,0,B|90:80|90:80|83:105|83:105|96:178,1,161.500003080368,10|0,0:1|0:0,0:0:0:0:
71,248,125825,1,8,0:1:0:0:
268,312,125978,6,0,P|222:290|183:295,1,80.750001540184,6|0,1:1|0:0,0:0:0:0:
365,276,126285,2,0,P|410:297|449:292,1,80.750001540184,0|0,0:0|1:1,0:0:0:0:
370,122,126591,2,0,P|289:156|283:238,1,161.500003080368,10|0,0:1|1:1,0:0:0:0:
282,121,127050,1,8,0:1:0:0:
475,44,127203,37,2,1:1:0:0:
446,167,127356,1,8,0:1:0:0:
334,0,127509,5,2,1:1:0:0:
370,122,127662,1,0,0:0:0:0:
189,33,127815,5,10,0:1:0:0:
282,121,127968,1,0,0:0:0:0:
79,135,128121,37,2,1:1:0:0:
204,164,128274,1,8,0:1:0:0:
110,280,128427,6,0,B|135:244|173:239|173:239|184:248|184:248|222:257|259:217,1,161.500003080368,6|0,1:1|0:0,0:0:0:0:
411,365,128887,2,0,B|385:329|347:324|347:324|336:333|336:333|298:342|261:302,1,161.500003080368,2|0,1:1|0:0,0:0:0:0:
128,360,129346,2,0,P|186:343|200:315,1,80.750001540184,2|0,1:1|0:0,0:0:0:0:
52,227,129652,5,2,1:1:0:0:
32,333,129805,1,8,0:1:0:0:
67,210,129958,2,0,B|108:199|108:199|147:211,1,80.750001540184,2|0,1:1|0:0,0:0:0:0:
110,280,130264,2,0,B|95:235|115:197|115:197|97:170|97:170|115:135|98:101,1,185.249991519928,2|0,1:1|1:2,0:0:0:0:
347,86,130876,38,0,P|401:105|458:36,1,142.500005435944,6|0,1:2|1:2,0:0:0:0:
400,0,131336,1,2,0:0:0:0:
278,121,131489,2,0,P|278:162|282:195,1,71.2500027179719,10|0,0:2|0:0,0:0:0:0:
411,251,131795,2,0,P|411:210|407:177,1,71.2500027179719,2|0,1:2|1:2,0:0:0:0:
321,322,132101,5,2,1:2:0:0:
273,381,132254,2,0,B|197:376|224:321|134:314,1,142.500005435944,8|0,0:2|0:0,0:0:0:0:
0,255,132713,2,0,P|35:259|70:259,1,71.2500027179719,10|0,0:2|0:0,0:0:0:0:
203,140,133019,1,0,1:2:0:0:
189,215,133172,1,8,0:2:0:0:
52,169,133325,6,0,P|32:100|30:29,1,142.500005435944,6|0,1:2|1:2,0:0:0:0:
101,0,133785,1,2,0:0:0:0:
219,50,133938,2,0,P|178:66|142:47,1,71.2500027179719,10|0,0:2|0:0,0:0:0:0:
301,8,134244,2,0,P|341:-8|377:10,1,71.2500027179719,2|0,1:2|1:2,0:0:0:0:
472,183,134550,37,2,1:2:0:0:
512,118,134703,2,0,P|462:68|386:98,1,142.500005435944,8|0,0:2|0:0,0:0:0:0:
358,256,135162,2,0,P|393:270|427:272,1,71.2500027179719,10|0,0:2|1:2,0:0:0:0:
309,140,135468,1,0,0:0:0:0:
236,164,135621,1,8,0:2:0:0:
179,320,135774,6,0,P|107:317|39:298,1,142.500005435944,4|0,1:2|1:2,0:0:0:0:
29,129,136234,1,10,0:0:0:0:
29,129,136310,1,8,0:0:0:0:
29,129,136387,2,0,P|25:166|17:202,1,71.2500027179719,10|0,0:2|0:0,0:0:0:0:
140,215,136693,2,0,P|143:177|151:141,1,71.2500027179719,2|0,1:2|1:2,0:0:0:0:
240,268,136999,5,2,1:2:0:0:
301,314,137152,2,0,P|342:360|420:344,1,142.500005435944,8|0,0:2|0:0,0:0:0:0:
357,203,137611,2,0,P|322:196|286:200,1,71.2500027179719,10|0,0:2|0:0,0:0:0:0:
453,174,137917,1,0,1:2:0:0:
423,245,138070,1,8,0:2:0:0:
325,120,138223,38,0,P|277:77|248:2,1,142.500005435944,4|0,1:2|1:2,0:0:0:0:
135,65,138683,2,0,P|71:61|-2:93,1,142.500005435944,2|0,0:0|0:0,0:0:0:0:
19,241,139142,2,0,P|16:287|17:318,1,71.2500027179719,2|0,1:2|1:2,0:0:0:0:
50,384,139448,5,2,1:2:0:0:
107,290,139601,1,8,0:2:0:0:
114,278,139677,1,8,0:2:0:0:
123,267,139754,2,0,P|177:277|200:289,1,71.2500027179719,10|0,0:2|1:2,0:0:0:0:
309,353,140060,2,0,P|290:301|289:275,1,71.2500027179719,10|8,0:2|0:2,0:0:0:0:
291,149,140366,2,0,P|255:190|233:204,1,71.2500027179719,8|8,0:2|0:2,0:0:0:0:
391,108,140672,6,0,P|451:71|517:107,1,142.500005435944,6|2,1:2|0:0,0:0:0:0:
487,175,141132,1,2,1:2:0:0:
407,265,141285,2,0,P|395:227|373:195,1,71.2500027179719,10|0,0:2|0:0,0:0:0:0:
273,35,141591,37,2,1:2:0:0:
196,21,141744,1,2,0:0:0:0:
161,118,141897,2,0,P|169:156|166:195,1,71.2500027179719,2|8,1:2|0:2,0:0:0:0:
44,221,142203,5,2,1:2:0:0:
95,161,142356,1,2,0:0:0:0:
231,237,142509,2,0,P|243:275|265:307,1,71.2500027179719,10|0,0:2|0:0,0:0:0:0:
388,351,142815,2,0,P|355:337|327:361,1,71.2500027179719,2|10,1:2|0:2,0:0:0:0:
160,379,143121,6,0,B|132:377|108:364|108:364|82:373|82:373|59:359|11:360,2,142.500005435944,6|2|10,1:2|0:0|0:2,0:0:0:0:
262,192,144040,1,2,1:2:0:0:
317,137,144193,2,0,P|294:74|213:74,1,142.500005435944,0|8,0:0|0:2,0:0:0:0:
96,0,144652,1,2,1:2:0:0:
47,60,144805,2,0,P|37:127|38:207,1,142.500005435944,0|0,0:0|1:2,0:0:0:0:
17,275,145264,2,0,P|53:288|101:291,1,71.2500027179719,2|10,0:0|0:2,0:0:0:0:
240,362,145570,38,0,B|337:363|312:243|391:243|461:272|434:363|373:357,1,285.000010871888,6|10,1:2|0:2,0:0:0:0:
456,43,146489,1,2,1:2:0:0:
388,0,146642,2,0,P|350:48|358:153,1,142.500005435944,10|8,0:2|0:2,0:0:0:0:
395,186,147101,1,2,1:2:0:0:
444,124,147254,1,2,0:0:0:0:
508,240,147407,2,0,P|467:247|433:256,1,71.2500027179719,10|0,0:2|0:0,0:0:0:0:
335,288,147713,2,0,P|294:281|260:272,1,71.2500027179719,2|10,1:2|0:2,0:0:0:0:
100,171,148019,6,0,P|14:177|9:246,1,142.500005435944,6|2,1:2|0:0,0:0:0:0:
132,241,148478,1,0,1:2:0:0:
129,77,148632,2,0,P|142:36|170:7,1,71.2500027179719,10|0,0:2|0:0,0:0:0:0:
256,21,148938,2,0,P|274:51|280:85,1,71.2500027179719,2|0,1:2|0:0,0:0:0:0:
344,183,149244,6,0,B|429:176|408:249|489:224|489:224|461:206|444:180,2,213.750008153916,2|0|2,1:2|1:2|1:2,0:0:0:0:
290,239,150468,6,0,P|288:280|283:341,1,95,0|0,1:0|0:0,0:0:0:0:
212,319,151387,1,0,0:0:0:0:
156,263,151693,2,0,P|125:264|105:267,1,47.5,8|0,0:0|0:0,0:0:0:0:
42,225,152305,1,0,0:0:0:0:
167,91,152917,6,0,P|203:118|251:113,1,95,0|0,1:0|0:0,0:0:0:0:
310,61,153836,1,0,0:0:0:0:
383,88,154142,1,8,0:0:0:0:
323,138,154448,2,0,L|317:168,2,23.75,0|0|8,0:0|0:0|0:0,0:0:0:0:
482,217,155366,54,0,P|434:217|387:238,1,95,0|0,1:0|0:0,0:0:0:0:
357,306,156285,1,0,0:0:0:0:
291,348,156591,2,0,P|282:319|273:299,1,47.5,0|0,1:0|1:0,0:0:0:0:
213,259,157203,1,8,0:0:0:0:
151,146,157815,6,0,P|109:163|89:207,1,95,0|0,1:0|0:0,0:0:0:0:
130,273,158734,1,0,1:0:0:0:
71,321,159040,1,8,0:0:0:0:
21,263,159346,2,0,L|23:234,2,23.75,0|0|8,0:0|1:0|0:0,0:0:0:0:
42,23,160264,54,0,P|140:2|202:-1,2,142.5,2|2|2,1:2|0:0|0:0,0:0:0:0:
151,137,161489,2,0,P|246:167|301:196,2,142.5,10|10|2,0:2|0:2|0:0,0:0:0:0:
276,268,162713,6,0,P|341:245|362:168,2,142.5,2|2|2,1:2|0:0|1:2,0:0:0:0:
97,263,163938,2,0,P|125:233|182:229,1,95,10|0,0:2|0:0,0:0:0:0:
161,302,164397,1,2,1:2:0:0:
269,363,164550,2,0,P|310:368|363:376,1,95,8|2,0:2|0:0,0:0:0:0:
427,335,165009,1,0,0:0:0:0:
487,221,165162,54,0,B|464:171|451:192|432:135,1,95,2|0,1:2|0:0,0:0:0:0:
434,1,165621,2,0,B|458:75|478:43|512:118,1,142.5
334,152,166387,6,0,P|274:145|248:108,2,95,2|0|2,1:2|1:2|0:0,0:0:0:0:
376,86,167152,1,0,0:0:0:0:
345,17,167305,1,0,0:0:0:0:
345,17,167458,1,0,0:0:0:0:
191,37,167611,54,0,P|176:104|171:147,1,95,2|0,1:2|0:0,0:0:0:0:
100,165,168070,2,0,P|120:254|126:312,1,142.5,0|0,0:0|1:2,0:0:0:0:
239,365,168836,6,0,P|277:384|297:385,2,47.5,10|0|0,0:2|0:0|0:0,0:0:0:0:
220,291,169295,1,0,1:2:0:0:
336,269,169448,1,10,0:2:0:0:
347,253,169754,53,8,0:2:0:0:
231,275,169907,1,8,0:2:0:0:
363,341,170060,6,0,P|377:269|392:229,1,104.500003189087,2|0,1:2|0:0,0:0:0:0:
492,203,170519,1,2,1:2:0:0:
492,203,170672,2,0,P|472:186|446:184,1,52.2500015945435,8|0,0:2|0:0,0:0:0:0:
374,75,170978,53,2,1:2:0:0:
315,123,171132,2,0,P|301:162|298:185,1,52.2500015945435,10|2,0:2|1:2,0:0:0:0:
208,116,171438,2,0,P|202:90|192:66,2,52.2500015945435,8|0|2,0:2|1:2|0:0,0:0:0:0:
92,41,171897,2,0,P|122:110|134:161,1,104.500003189087,8|10,0:2|0:2,0:0:0:0:
84,201,172356,1,8,0:2:0:0:
162,292,172509,6,0,P|224:285|257:243,1,104.500003189087,2|0,1:2|0:0,0:0:0:0:
228,374,172968,1,2,1:2:0:0:
228,374,173121,2,0,P|272:353|287:352,1,52.2500015945435,8|0,0:2|0:0,0:0:0:0:
310,208,173427,53,2,1:2:0:0:
379,239,173581,2,0,P|418:233|444:226,1,52.2500015945435,8|2,0:2|1:2,0:0:0:0:
512,118,173887,2,0,P|473:112|447:105,2,52.2500015945435,8|0|2,0:2|1:2|0:0,0:0:0:0:
374,157,174346,5,12,0:2:0:0:
269,134,174499,1,8,0:3:0:0:
292,29,174652,1,4,0:3:0:0:
397,52,174805,1,0,1:2:0:0:
333,93,174958,53,2,1:2:0:0:
333,93,176183,5,2,0:2:0:0:
333,93,177407,54,0,P|266:106|219:129,1,113.999996520996,0|0,1:0|1:0,0:0:0:0:
192,197,177866,1,10,0:0:0:0:
8,27,178325,6,0,P|75:40|122:63,1,113.999996520996,10|0,0:0|1:0,0:0:0:0:
149,131,178784,1,10,0:0:0:0:
97,346,179091,53,0,1:0:0:0:
143,286,179244,2,0,P|185:279|225:273,1,56.9999982604981,8|4,0:3|0:3,0:0:0:0:
263,232,179550,2,0,P|305:239|345:245,1,56.9999982604981,0|8,1:0|0:0,0:0:0:0:
405,322,179856,5,0,1:0:0:0:
497,80,180468,6,0,P|413:83|340:97,1,152,6|2,1:2|1:2,0:0:0:0:
310,171,180927,1,0,0:0:0:0:
271,20,181080,2,0,P|229:7|196:4,1,76,10|0,0:2|0:0,0:0:0:0:
72,110,181386,2,0,P|94:73|105:41,1,76,0|0,1:2|1:2,0:0:0:0:
134,158,181692,5,2,1:2:0:0:
92,225,181845,2,0,B|104:243|108:268|99:287|99:287|76:309|44:314|0:307,1,152,8|0,0:2|0:0,0:0:0:0:
187,215,182304,2,0,P|227:222|261:239,1,76,10|0,0:2|0:0,0:0:0:0:
298,384,182610,2,0,P|331:360|367:348,1,76,0|8,1:2|0:0,0:0:0:0:
502,300,182916,6,0,B|414:275|463:238|352:198,1,152,6|2,1:2|1:2,0:0:0:0:
332,268,183376,1,0,0:0:0:0:
471,180,183529,2,0,P|487:138|522:123,1,76,10|0,0:2|0:0,0:0:0:0:
424,0,183835,2,0,P|434:48|435:80,1,76,0|0,1:2|1:2,0:0:0:0:
290,27,184141,38,0,P|229:26|163:12,1,114,2|0,1:2|0:0,0:0:0:0:
156,27,184447,2,0,P|168:64|211:53,1,76,2|0,1:2|0:0,0:0:0:0:
330,95,184753,2,0,P|302:147|313:212,1,114,10|0,0:2|0:0,0:0:0:0:
295,217,185059,1,2,0:0:0:0:
213,145,185212,1,8,0:2:0:0:
81,226,185365,6,0,B|66:196|51:158|64:115|64:115|67:131|77:149,1,152,6|2,1:2|1:2,0:0:0:0:
136,104,185825,1,0,0:0:0:0:
217,259,185978,2,0,P|192:230|159:212,1,76,10|0,0:2|0:0,0:0:0:0:
194,339,186284,2,0,P|231:341|267:330,1,76,0|8,1:2|0:2,0:0:0:0:
477,275,186590,6,0,P|406:263|348:333,1,152,2|2,1:2|1:2,0:0:0:0:
401,380,187049,1,0,0:0:0:0:
285,255,187202,2,0,P|318:219|339:184,1,76,10|0,0:2|0:0,0:0:0:0:
347,20,187508,1,0,1:2:0:0:
394,103,187661,1,8,0:2:0:0:
269,0,187814,38,0,P|218:50|132:70,1,152,6|2,1:2|1:2,0:0:0:0:
78,21,188274,1,0,0:0:0:0:
200,141,188427,2,0,P|215:190|218:226,1,76,10|0,0:2|0:0,0:0:0:0:
41,166,188733,2,0,P|90:151|126:148,1,76,0|0,1:2|1:2,0:0:0:0:
25,251,189039,5,2,1:2:0:0:
93,311,189192,1,8,0:2:0:0:
93,311,189269,1,8,0:2:0:0:
93,311,189345,1,10,0:2:0:0:
171,273,189498,1,0,1:2:0:0:
14,327,189651,5,10,0:2:0:0:
110,232,189804,1,0,0:0:0:0:
163,352,189957,37,2,1:2:0:0:
249,326,190110,1,8,0:2:0:0:
359,383,190263,6,0,P|360:329|436:238,1,152,6|2,1:2|0:0,0:0:0:0:
491,263,190723,1,2,1:2:0:0:
402,133,190876,2,0,P|395:92|392:56,1,76,10|0,0:2|0:0,0:0:0:0:
295,19,191182,5,2,1:2:0:0:
210,0,191335,1,2,0:0:0:0:
318,106,191488,2,0,P|277:113|241:116,1,76,2|8,1:2|0:2,0:0:0:0:
144,69,191794,37,2,1:2:0:0:
68,108,191947,1,2,0:0:0:0:
145,239,192100,2,0,P|162:201|174:167,1,76,10|0,0:2|0:0,0:0:0:0:
236,233,192406,1,2,1:2:0:0:
261,309,192559,1,10,0:2:0:0:
121,340,192712,6,0,P|81:289|-5:308,2,152,6|2|10,1:2|0:0|0:2,0:0:0:0:
318,367,193631,1,2,1:2:0:0:
339,295,193784,2,0,P|404:285|502:298,1,152,0|8,0:0|0:2,0:0:0:0:
422,142,194243,1,2,1:2:0:0:
352,109,194396,2,0,B|276:146|336:181|231:227,1,152,0|0,0:0|1:2,0:0:0:0:
69,228,194855,1,2,0:0:0:0:
152,283,195008,1,0,1:2:0:0:
218,135,195161,6,0,B|161:150|149:205|149:205|114:160|99:92|148:-27|314:-22|375:102|338:194|255:231|255:231|280:281|361:312|484:225|419:110|419:110|480:126|523:79|511:21,1,1064,6|2,1:2|1:2,0:0:0:0:
436,34,197457,1,10,0:2:0:0:
510,122,197610,38,0,P|517:200|512:274,1,152,6|2,1:2|0:0,0:0:0:0:
447,310,198070,1,0,1:2:0:0:
377,374,198223,2,0,B|386:332|358:341|366:292,1,76,10|0,0:2|0:0,0:0:0:0:
319,222,198529,2,0,B|301:259|283:235|267:275,1,76,2|0,1:2|0:0,0:0:0:0:
188,307,198835,5,2,1:2:0:0:
150,384,198988,1,8,0:2:0:0:
196,298,199141,2,0,P|183:263|160:223,1,76,2|0,1:2|0:0,0:0:0:0:
52,104,199447,5,10,0:2:0:0:
137,64,199600,1,8,0:3:0:0:
177,149,199753,1,4,0:3:0:0:
92,189,199906,1,0,1:0:0:0:
226,76,200059,38,0,B|330:71|262:24|375:12,1,152,6|0,1:2|1:2,0:0:0:0:
406,77,200519,1,2,0:0:0:0:
361,215,200672,2,0,P|377:176|409:157,1,76,10|0,0:2|0:0,0:0:0:0:
456,263,200978,2,0,P|440:302|408:321,1,76,2|0,1:2|1:2,0:0:0:0:
269,279,201284,5,2,1:2:0:0:
189,335,201437,2,0,P|117:365|78:306,1,152,8|0,0:2|0:0,0:0:0:0:
218,213,201896,2,0,P|219:165|212:131,1,76,10|0,0:2|0:0,0:0:0:0:
75,42,202202,1,0,1:2:0:0:
169,61,202355,1,8,0:2:0:0:
322,0,202508,6,0,P|306:68|321:159,1,152,6|0,1:2|1:2,0:0:0:0:
387,177,202968,1,2,0:0:0:0:
286,222,203121,2,0,P|244:230|210:198,1,76,10|0,0:2|0:0,0:0:0:0:
93,290,203427,2,0,P|135:298|169:266,1,76,2|0,1:2|1:2,0:0:0:0:
47,356,203733,37,2,1:2:0:0:
171,370,203886,2,0,B|240:333|240:333|319:349,1,152,8|0,0:2|0:0,0:0:0:0:
398,190,204345,2,0,P|399:235|397:269,1,76,10|0,0:2|1:2,0:0:0:0:
483,211,204651,1,0,0:0:0:0:
461,130,204804,1,8,0:2:0:0:
310,227,204957,6,0,P|247:203|262:122,1,152,4|0,1:2|1:2,0:0:0:0:
207,12,205416,1,10,0:0:0:0:
207,12,205493,1,8,0:0:0:0:
207,12,205570,2,0,P|169:0|130:0,1,76,10|0,0:2|0:0,0:0:0:0:
68,92,205876,2,0,P|105:96|140:110,1,76,2|0,1:2|1:2,0:0:0:0:
159,274,206182,5,2,1:2:0:0:
77,295,206335,2,0,B|4:243|79:208|1:151,1,152,8|0,0:2|0:0,0:0:0:0:
118,187,206794,2,0,P|156:191|194:190,1,76,10|0,0:2|0:0,0:0:0:0:
251,263,207100,1,0,1:2:0:0:
216,345,207253,1,8,0:2:0:0:
323,199,207406,38,0,P|338:252|418:302,1,152,4|0,1:2|1:2,0:0:0:0:
461,231,207865,1,2,0:0:0:0:
386,145,208019,2,0,P|427:136|462:124,1,76,10|0,0:2|0:0,0:0:0:0:
403,29,208325,2,0,P|362:16|326:9,1,76,2|0,1:2|1:2,0:0:0:0:
229,36,208631,5,2,1:2:0:0:
166,80,208784,1,8,0:2:0:0:
161,94,208860,1,8,0:2:0:0:
157,108,208937,1,10,0:2:0:0:
194,175,209090,1,0,1:2:0:0:
8,184,209243,5,10,0:2:0:0:
92,149,209396,1,8,0:2:0:0:
190,252,209549,37,8,0:2:0:0:
121,224,209702,1,8,0:2:0:0:
220,322,209855,6,0,P|247:214|274:148,1,152,6|2,1:2|0:0,0:0:0:0:
314,120,210314,1,2,1:2:0:0:
346,309,210468,2,0,P|332:255|319:222,1,76,10|0,0:2|0:0,0:0:0:0:
508,215,210774,5,2,1:2:0:0:
489,289,210927,1,2,0:0:0:0:
439,140,211080,2,0,P|372:174|366:193,1,76,2|8,1:2|0:2,0:0:0:0:
358,0,211386,37,2,1:2:0:0:
374,73,211539,1,2,0:0:0:0:
223,12,211692,2,0,P|250:37|287:42,1,76,10|0,0:2|0:0,0:0:0:0:
213,113,211998,2,0,P|156:123|125:135,1,76,2|10,1:2|0:2,0:0:0:0:
0,293,212304,6,0,P|52:251|50:201,1,114,6|0,1:2|0:0,0:0:0:0:
64,189,212610,2,0,P|116:206|146:220,1,76,2|0,0:0|1:2,0:0:0:0:
170,284,212916,1,10,0:2:0:0:
386,363,213223,5,2,1:2:0:0:
303,264,213376,2,0,B|225:288|265:338|184:361,1,152,0|8,0:0|0:2,0:0:0:0:
117,340,213835,1,2,1:2:0:0:
223,221,213988,2,0,P|313:238|371:259,1,152,0|0,0:0|1:2,0:0:0:0:
474,360,214447,2,0,P|437:338|434:304,1,76,2|10,0:0|0:2,0:0:0:0:
407,123,214753,38,0,B|427:82|470:70|470:70|528:110|547:206|500:268,1,304,6|10,1:2|0:2,0:0:0:0:
381,14,215672,1,2,1:2:0:0:
321,61,215825,2,0,P|274:73|235:94,1,76,10|2,0:2|1:2,0:0:0:0:
193,30,216131,2,0,P|146:18|107:-3,1,76,8|2,0:2|1:2,0:0:0:0:
0,92,216437,2,0,P|85:107|105:170,1,152,2|0,0:0|0:0,0:0:0:0:
67,225,216896,2,0,P|36:200|31:163,1,76,2|10,1:2|0:2,0:0:0:0:
180,113,217202,6,0,P|197:203|204:272,1,152,6|2,1:2|0:0,0:0:0:0:
162,326,217661,1,0,1:2:0:0:
265,383,217814,2,0,P|278:334|282:299,1,76,10|0,0:2|0:0,0:0:0:0:
341,214,218121,2,0,P|346:251|357:288,1,76,2|0,1:2|0:0,0:0:0:0:
279,166,218427,5,2,1:2:0:0:
345,130,218580,1,8,0:2:0:0:
360,134,218656,1,8,0:2:0:0:
375,140,218733,1,10,0:2:0:0:
416,207,218886,1,0,1:2:0:0:
456,79,219039,38,0,P|422:24|333:17,1,152,10|2,0:2|1:2,0:0:0:0:
289,71,219498,1,10,0:2:0:0:
200,157,219651,38,0,B|210:217|210:217|206:221|206:221|218:290,1,132.999995941162,6|0,1:1|1:1,0:0:0:0:
169,345,220110,1,0,0:0:0:0:
74,245,220263,6,0,B|62:180|62:180|66:175|66:175|56:115,1,132.999995941162,10|0,0:1|1:1,0:0:0:0:
0,64,220722,1,0,1:1:0:0:
139,0,220876,2,0,L|153:81,1,66.4999979705811,2|8,1:1|0:1,0:0:0:0:
321,48,221182,53,2,1:1:0:0:
248,68,221335,1,0,0:0:0:0:
386,151,221488,5,10,0:1:0:0:
313,131,221641,1,0,0:0:0:0:
395,165,221794,2,0,L|413:58,1,99.7499969558717,2|0,1:1|0:0,0:0:0:0:
474,0,222100,54,0,B|499:28|491:59|491:59|487:64|487:64|477:96|503:128,1,132.999995941162,6|0,1:1|1:1,0:0:0:0:
468,192,222559,1,0,0:0:0:0:
302,216,222712,6,0,B|338:227|346:258|346:258|346:265|346:265|353:297|392:311,1,132.999995941162,10|0,0:1|1:1,0:0:0:0:
392,384,223171,1,8,0:1:0:0:
512,270,223325,2,0,P|469:280|457:300,1,66.4999979705811,2|8,1:1|0:1,0:0:0:0:
295,365,223631,53,2,1:1:0:0:
312,292,223784,1,0,0:0:0:0:
194,321,223937,5,10,0:1:0:0:
177,248,224090,1,0,1:1:0:0:
202,337,224243,2,0,P|139:324|86:318,1,99.7499969558717,2|0,0:1|0:0,0:0:0:0:
1,265,224549,54,0,P|76:246|98:177,1,132.999995941162,6|0,1:1|1:1,0:0:0:0:
47,142,225008,1,0,0:0:0:0:
233,163,225161,6,0,P|158:144|136:75,1,132.999995941162,10|0,0:1|1:1,0:0:0:0:
187,40,225620,1,8,0:1:0:0:
313,138,225774,2,0,P|299:84|301:55,1,66.4999979705811,2|8,1:1|0:1,0:0:0:0:
409,39,226080,1,2,1:1:0:0:
340,7,226233,1,0,0:0:0:0:
494,127,226386,54,0,P|458:191|453:231,1,99.7499969558717,10|0,0:1|0:0,0:0:0:0:
467,231,226692,2,0,P|483:288|488:319,1,66.4999979705811,2|8,1:1|0:1,0:0:0:0:
335,329,226998,6,0,B|251:338|289:367|194:381,1,132.999995941162,6|0,1:1|1:1,0:0:0:0:
148,337,227457,1,0,0:0:0:0:
124,215,227610,53,10,0:1:0:0:
242,256,227763,1,8,0:1:0:0:
285,111,227916,5,8,0:1:0:0:
214,82,228070,1,8,0:1:0:0:
153,128,228223,2,0,B|113:135|113:135|108:140|108:140|47:153,3,95,2|2|2|2,1:2|0:2|0:2|0:2,0:0:0:0:
242,256,229447,53,2,1:2:0:0:
257,242,229753,2,0,P|290:248|313:255,1,47.5,10|8,0:2|0:2,0:0:0:0:
345,183,230059,2,0,P|299:171|252:163,2,95,2|0|2,1:2|1:2|1:2,0:0:0:0:
442,37,230978,5,0,1:2:0:0:
426,21,231284,2,0,P|368:46|359:85,1,95,10|0,0:2|1:2,0:0:0:0:
295,116,231743,1,8,0:2:0:0:
191,54,231896,53,2,1:2:0:0:
178,71,232202,2,0,P|136:61|120:51,1,47.5,2|0,0:0|1:2,0:0:0:0:
176,146,232508,2,0,P|105:129|79:112,2,95,10|0|2,0:2|1:2|1:2,0:0:0:0:
34,217,233427,5,0,1:2:0:0:
49,234,233733,2,0,P|68:298|78:347,1,95,10|0,0:2|1:2,0:0:0:0:
137,368,234192,1,8,0:2:0:0:
250,318,234345,53,2,1:2:0:0:
238,304,234651,2,0,P|246:269|251:247,1,47.5,2|0,0:0|1:2,0:0:0:0:
322,275,234957,2,0,P|311:322|300:370,2,95,10|0|2,0:2|1:2|1:2,0:0:0:0:
484,349,235876,5,0,1:2:0:0:
469,369,236182,2,0,P|407:358|390:314,1,95,10|0,0:2|1:2,0:0:0:0:
426,263,236641,1,8,0:2:0:0:
488,187,236794,54,0,P|477:132|463:84,1,95,2|2,1:2|0:0,0:0:0:0:
390,43,237253,1,8,0:2:0:0:
390,43,237330,1,8,0:2:0:0:
390,43,237406,1,10,0:2:0:0:
336,97,237559,2,0,P|295:84|270:84,1,47.5,0|0,1:2|0:0,0:0:0:0:
196,151,237865,5,0,1:2:0:0:
