osu file format v14

[General]
AudioFilename: audio.mp3
AudioLeadIn: 0
PreviewTime: 52356
Countdown: 0
SampleSet: Soft
StackLeniency: 0.7
Mode: 0
LetterboxInBreaks: 0
WidescreenStoryboard: 0

[Editor]
Bookmarks: 10876,40264,72101,101489,130876,160264,180468,209855
DistanceSpacing: 0.5
BeatDivisor: 8
GridSize: 4
TimelineZoom: 1.7

[Metadata]
Title:Gingaroku
TitleUnicode:銀河録
Artist:Hanatan
ArtistUnicode:花たん
Creator:Ianos
Version:Collab Expert
Source:
Tags:Dogerinoo C5H10 sueishnao eIis Nirosue -Akito Akito harumaki gohan はるまきごはん hatsune miku 初音ミク vocaloid cover blue ending nova galaxy log 花雨ーはなふるー hana ame furu yurica cordelia japanese alternative rock utaite utau community mentorship program collab contest cycle 11
BeatmapID:2100450
BeatmapSetID:1003562

[Difficulty]
HPDrainRate:6
CircleSize:4.2
OverallDifficulty:8.5
ApproachRate:9.3
SliderMultiplier:2
SliderTickRate:1

[Events]
//Background and Video events
0,0,"70854385_p0.jpg",0,0
//Break Periods
//Storyboard Layer 0 (Background)
//Storyboard Layer 1 (Fail)
//Storyboard Layer 2 (Pass)
//Storyboard Layer 3 (Foreground)
//Storyboard Layer 4 (Overlay)
//Storyboard Sound Samples

[TimingPoints]
1081,612.244897959184,4,2,1,45,1,0
9040,-100,4,2,1,50,0,0
9652,-100,4,2,1,55,0,0
10264,-100,4,2,1,60,0,0
10876,-76.9230769230769,4,2,1,65,0,0
15774,-76.9230769230769,4,2,1,65,0,0
20672,-76.9230769230769,4,2,1,65,0,0
25570,-76.9230769230769,4,2,1,65,0,0
30468,-76.9230769230769,4,2,1,70,0,0
37815,-76.9230769230769,4,2,1,70,0,0
40264,-76.9230769230769,4,2,1,70,0,0
50060,-76.9230769230769,4,2,1,50,0,0
51285,-76.9230769230769,4,2,1,60,0,0
51897,-76.9230769230769,4,2,1,70,0,0
52509,-55.5555555555556,4,2,2,85,0,1
62305,-55.5555555555556,4,2,2,90,0,1
69652,-55.5555555555556,4,2,2,85,0,1
72101,-62.5,4,2,1,85,0,0
79448,-58.8235294117647,4,2,1,90,0,0
80672,-58.8235294117647,4,2,1,60,0,0
81591,-83.3333333333333,4,2,1,60,0,0
81897,-83.3333333333333,4,2,1,65,0,0
86795,-83.3333333333333,4,2,1,65,0,0
91693,-83.3333333333333,4,2,1,65,0,0
96591,-83.3333333333333,4,2,1,65,0,0
101489,-83.3333333333333,4,2,1,70,0,0
108836,-83.3333333333333,4,2,1,70,0,0
111285,-83.3333333333333,4,2,1,70,0,0
118632,-83.3333333333333,4,2,1,80,0,0
119856,-333.333333333333,4,2,2,90,0,0
121081,-50,4,2,2,100,0,1
125978,-50,4,2,2,100,0,1
130264,-50,4,2,1,90,0,1
130876,-55.5555555555556,4,2,2,90,0,1
140672,-55.5555555555556,4,2,2,95,0,1
148019,-55.5555555555556,4,2,2,90,0,1
150468,-100,4,2,1,60,0,0
160264,-100,4,2,1,65,0,0
170060,-100,4,2,1,65,0,0
174958,-100,4,2,1,65,0,0
177407,-100,4,2,1,70,0,0
179244,-100,4,2,1,75,0,0
179856,-100,4,2,1,65,0,0
180162,-100,4,2,1,65,0,0
180468,612.244897959184,4,2,2,95,1,1
180468,-52.6315789473684,4,2,2,95,0,1
190263,-52.6315789473684,4,2,2,100,0,1
195161,-52.6315789473684,4,2,2,100,0,1
197610,-52.6315789473684,4,2,2,95,0,1
200059,-52.6315789473684,4,2,2,95,0,1
209855,-52.6315789473684,4,2,2,100,0,1
217202,-52.6315789473684,4,2,2,95,0,1
219651,-52.6315789473684,4,2,1,85,0,0
226998,-52.6315789473684,4,2,1,90,0,0
228223,-83.3333333333333,4,2,1,60,0,0
229447,-83.3333333333333,4,2,1,55,0,0

[Colours]
Combo1 : 107,173,245
Combo2 : 50,105,250
Combo3 : 210,210,210
Combo4 : 142,151,249
Combo5 : 244,174,207

[HitObjects]
256,192,8427,12,8,10570,0:2:0:0:
88,326,10876,21,2,1:2:0:0:
114,258,11029,2,0,P|169:241|255:227,1,129.999994049073,0|0,0:0|1:2,0:0:0:0:
222,70,11489,2,0,L|214:137,1,64.9999970245363,10|0,0:2|1:2,0:0:0:0:
293,42,11795,1,0,0:0:0:0:
341,162,11948,6,0,B|402:140|402:140|475:159,1,129.999994049073,2|0,1:2|1:2,0:0:0:0:
298,308,12560,1,0,1:2:0:0:
345,251,12713,2,0,P|349:220|351:184,1,64.9999970245363,10|0,0:2|1:2,0:0:0:0:
428,319,13019,2,0,P|424:288|422:252,1,64.9999970245363
275,322,13325,54,0,L|200:311,1,64.9999970245363,2|0,1:2|0:0,0:0:0:0:
15,273,13632,1,0,0:0:0:0:
93,206,13785,1,2,1:2:0:0:
61,338,13938,2,0,P|58:270|74:206,1,129.999994049073,10|0,0:2|1:2,0:0:0:0:
195,56,14397,6,0,L|113:42,1,64.9999970245363,8|2,0:2|1:2,0:0:0:0:
250,132,14703,2,0,L|332:118,1,64.9999970245363,10|2,0:2|1:2,0:0:0:0:
393,247,15009,1,0,0:0:0:0:
470,166,15162,2,0,B|403:161|415:211|345:220,1,129.999994049073,10|0,0:2|0:0,0:0:0:0:
187,339,15621,1,0,0:0:0:0:
256,232,15774,54,0,L|281:368,1,129.999994049073,2|0,1:2|0:0,0:0:0:0:
356,376,16234,1,0,1:2:0:0:
243,218,16387,2,0,P|211:211|176:211,1,64.9999970245363,10|0,0:2|0:0,0:0:0:0:
123,268,16693,1,0,0:0:0:0:
67,215,16846,1,0,1:2:0:0:
255,127,16999,6,0,L|262:62,1,64.9999970245363,2|0,1:2|0:0,0:0:0:0:
336,161,17305,2,0,L|343:225,1,64.9999970245363,0|0,1:2|0:0,0:0:0:0:
512,73,17611,2,0,B|477:67|477:67|438:74,1,64.9999970245363,10|0,0:2|0:0,0:0:0:0:
426,151,17917,1,0,1:2:0:0:
426,151,18070,1,8,0:2:0:0:
271,75,18223,53,2,1:2:0:0:
203,105,18376,1,0,3:2:0:0:
203,105,18453,1,0,3:2:0:0:
203,105,18529,1,0,3:2:0:0:
134,70,18683,1,2,1:2:0:0:
33,210,18836,2,0,P|36:168|30:137,1,64.9999970245363,10|0,0:2|0:0,0:0:0:0:
102,244,19142,1,0,1:2:0:0:
167,210,19295,1,8,0:2:0:0:
265,326,19448,6,0,L|200:319,1,64.9999970245363,2|10,1:2|0:2,0:0:0:0:
281,244,19754,2,0,L|345:237,1,64.9999970245363,2|0,1:2|0:0,0:0:0:0:
238,176,20060,1,10,0:2:0:0:
155,41,20366,1,8,0:2:0:0:
146,56,20443,1,8,0:2:0:0:
117,45,20519,1,8,0:2:0:0:
84,62,20596,1,8,0:2:0:0:
42,40,20672,53,2,1:2:0:0:
107,158,20825,2,0,L|119:229,1,64.9999970245363
66,343,21132,1,0,1:2:0:0:
128,384,21285,2,0,P|192:351|266:358,1,129.999994049073,10|0,0:2|0:0,0:0:0:0:
377,166,21744,6,0,L|291:155,1,64.9999970245363,2|0,1:2|0:0,0:0:0:0:
212,251,22050,2,0,L|298:240,1,64.9999970245363,0|0,1:2|0:0,0:0:0:0:
428,384,22356,1,0,1:2:0:0:
486,331,22509,2,0,B|470:270|470:270|491:193,1,129.999994049073,10|0,0:2|0:0,0:0:0:0:
356,73,23121,53,2,1:2:0:0:
462,123,23274,1,0,0:0:0:0:
360,97,23427,1,0,0:0:0:0:
472,108,23581,1,2,1:2:0:0:
263,9,23734,2,0,P|257:78|261:152,1,129.999994049073,10|0,0:2|1:2,0:0:0:0:
72,110,24193,6,0,L|-18:101,1,64.9999970245363,8|2,0:2|1:2,0:0:0:0:
126,226,24499,2,0,L|30:237,1,64.9999970245363,10|2,0:2|1:2,0:0:0:0:
169,163,24805,1,0,0:0:0:0:
298,274,24958,53,10,0:2:0:0:
225,218,25111,1,0,0:0:0:0:
235,323,25264,2,0,P|242:286|242:246,1,64.9999970245363
360,205,25570,6,0,L|499:189,1,129.999994049073,2|0,1:2|0:0,0:0:0:0:
438,286,26029,1,0,1:2:0:0:
348,128,26183,2,0,B|353:162|353:162|348:195,1,64.9999970245363,10|0,0:2|0:0,0:0:0:0:
280,226,26489,1,0,0:0:0:0:
225,174,26642,1,0,1:2:0:0:
278,61,26795,54,0,L|201:50,1,64.9999970245363,2|0,1:2|0:0,0:0:0:0:
65,25,27101,2,0,L|142:14,1,64.9999970245363,0|0,1:2|0:0,0:0:0:0:
54,179,27407,2,0,P|54:146|59:114,1,64.9999970245363,10|0,0:2|0:0,0:0:0:0:
99,244,27713,1,0,1:2:0:0:
31,267,27866,1,8,0:2:0:0:
173,198,28019,6,0,B|150:256|150:256|166:328,1,129.999994049073,2|0,1:2|0:0,0:0:0:0:
238,348,28478,1,2,1:2:0:0:
420,235,28632,2,0,L|354:223,1,64.9999970245363,10|0,0:2|0:0,0:0:0:0:
295,265,28938,1,0,1:2:0:0:
401,151,29091,54,0,P|403:115|408:86,1,64.9999970245363,8|2,0:2|1:2,0:0:0:0:
505,220,29397,2,0,P|509:250|512:284,1,64.9999970245363,10|2,0:2|1:2,0:0:0:0:
288,122,29703,1,0,0:0:0:0:
259,51,29856,2,0,B|198:27|198:27|123:43,1,129.999994049073,10|0,0:2|0:0,0:0:0:0:
60,256,30468,6,0,L|69:192,1,64.9999970245363,2|0,1:2|0:0,0:0:0:0:
127,302,30774,1,0,0:0:0:0:
127,302,30927,1,0,1:2:0:0:
235,242,31081,53,10,0:2:0:0:
347,317,31234,1,0,1:2:0:0:
282,358,31387,1,0,0:0:0:0:
272,141,31540,6,0,P|266:211|271:280,2,129.999994049073,2|0|0,1:2|1:2|1:2,0:0:0:0:
435,37,32305,2,0,L|346:25,1,64.9999970245363,10|0,0:2|1:2,0:0:0:0:
484,101,32611,1,0,0:0:0:0:
484,101,32764,1,0,0:0:0:0:
386,296,32917,53,2,1:2:0:0:
393,176,33070,1,0,0:0:0:0:
363,308,33223,1,0,0:0:0:0:
394,191,33376,1,2,1:2:0:0:
459,266,33529,5,10,0:2:0:0:
283,286,33683,1,0,0:0:0:0:
302,359,33836,1,0,1:2:0:0:
169,252,33989,54,0,P|106:250|26:291,2,129.999994049073,8|10|0,0:2|0:2|0:0,0:0:0:0:
220,196,34754,1,10,0:2:0:0:
23,48,35060,1,0,0:0:0:0:
23,48,35213,1,0,0:0:0:0:
118,13,35366,6,0,P|111:59|110:99,1,64.9999970245363,2|0,1:2|0:0,0:0:0:0:
230,208,35672,1,0,0:0:0:0:
260,140,35825,2,0,B|321:114|321:114|399:126,1,129.999994049073,0|0,1:2|0:0,0:0:0:0:
414,281,36285,1,0,0:0:0:0:
471,230,36438,54,0,P|475:165|472:96,1,129.999994049073,0|0,1:2|0:0,0:0:0:0:
300,243,36897,1,0,1:2:0:0:
400,306,37050,2,0,P|327:338|254:291,1,129.999994049073
112,352,37509,1,0,1:2:0:0:
112,352,37662,1,0,0:0:0:0:
162,230,37815,6,0,L|173:321,1,64.9999970245363,2|0,1:2|0:0,0:0:0:0:
55,147,38121,2,0,L|44:238,1,64.9999970245363,0|2,0:0|1:2,0:0:0:0:
154,111,38427,1,10,0:2:0:0:
223,153,38581,1,0,0:0:0:0:
288,113,38734,1,0,1:2:0:0:
186,25,38887,54,0,P|156:18|102:14,1,64.9999970245363,8|2,0:2|1:2,0:0:0:0:
296,123,39193,2,0,P|326:116|380:111,1,64.9999970245363,10|2,0:2|1:2,0:0:0:0:
247,296,39499,1,0,0:0:0:0:
194,241,39652,2,0,L|118:233,1,64.9999970245363,10|0,0:2|0:0,0:0:0:0:
341,261,39958,1,8,0:2:0:0:
346,280,40035,1,8,0:2:0:0:
365,264,40111,1,8,0:2:0:0:
400,288,40188,1,8,0:2:0:0:
447,270,40264,6,0,L|457:195,1,64.9999970245363,2|0,1:2|0:0,0:0:0:0:
319,97,40570,1,0,0:0:0:0:
334,172,40723,1,0,1:2:0:0:
470,67,40876,2,0,L|428:58,1,32.4999985122681,10|0,0:2|0:0,0:0:0:0:
386,5,41029,1,0,1:2:0:0:
232,58,41183,53,0,0:0:0:0:
172,108,41336,2,0,P|166:144|164:175,1,64.9999970245363,2|0,1:2|0:0,0:0:0:0:
92,204,41642,2,0,P|98:240|100:271,1,64.9999970245363,0|0,1:2|0:0,0:0:0:0:
53,334,41948,1,0,1:2:0:0:
218,279,42101,2,0,B|249:268|249:268|303:276,1,64.9999970245363,10|0,0:2|1:2,0:0:0:0:
334,377,42407,1,0,0:0:0:0:
334,377,42560,1,0,0:0:0:0:
460,267,42713,6,0,P|462:234|467:202,1,64.9999970245363,2|0,1:2|0:0,0:0:0:0:
341,131,43019,1,0,0:0:0:0:
353,208,43172,1,2,1:2:0:0:
205,289,43325,53,10,0:2:0:0:
140,243,43478,1,0,0:0:0:0:
211,207,43632,1,0,1:2:0:0:
276,250,43785,2,0,P|266:293|260:339,1,64.9999970245363,8|2,0:2|1:2,0:0:0:0:
142,154,44091,6,0,B|132:124|132:124|139:77,2,64.9999970245363,10|2|0,0:2|1:2|0:0,0:0:0:0:
52,66,44550,2,0,P|121:52|186:32,1,129.999994049073,10|0,0:2|0:0,0:0:0:0:
245,74,45009,1,0,0:0:0:0:
390,51,45162,54,0,P|385:116|390:199,1,129.999994049073,2|0,1:2|0:0,0:0:0:0:
473,286,45621,1,0,1:2:0:0:
473,286,45774,2,0,P|474:252|472:218,1,64.9999970245363,10|0,0:2|0:0,0:0:0:0:
343,310,46081,5,0,0:0:0:0:
279,358,46234,2,0,B|205:351|235:312|151:301,1,129.999994049073,0|0,1:2|0:0,0:0:0:0:
0,380,46693,1,0,1:2:0:0:
39,310,46846,2,0,B|59:262|18:236|46:222|26:197|56:158,1,129.999994049073
118,199,47305,1,0,1:2:0:0:
76,55,47458,54,0,P|111:48|154:35,1,64.9999970245363,8|2,0:2|1:2,0:0:0:0:
225,87,47764,1,0,3:0:0:0:
225,87,47841,1,0,3:0:0:0:
225,87,47917,1,0,3:0:0:0:
364,22,48070,5,2,1:2:0:0:
424,73,48223,2,0,L|413:222,1,129.999994049073,10|0,0:2|1:2,0:0:0:0:
512,285,48683,2,0,L|504:216,1,64.9999970245363,8|2,0:2|1:2,0:0:0:0:
374,320,48989,53,10,0:2:0:0:
308,278,49142,2,0,P|277:289|232:286,1,64.9999970245363,2|0,1:2|0:0,0:0:0:0:
307,128,49448,2,0,P|331:148|348:176,1,64.9999970245363,10|0,0:2|1:2,0:0:0:0:
176,213,49754,1,8,0:2:0:0:
203,138,49907,1,8,0:2:0:0:
262,206,50060,5,2,0:0:0:0:
256,192,51438,12,0,52433,0:0:0:0:
255,51,52509,6,0,B|154:48|180:109|83:118,1,179.999994506836,6|0,1:2|1:2,0:0:0:0:
50,49,52968,1,2,0:0:0:0:
233,133,53121,2,0,P|288:141|340:154,1,89.9999972534181,10|0,0:2|0:0,0:0:0:0:
166,232,53427,2,0,P|209:222|254:216,1,89.9999972534181,2|0,1:2|1:2,0:0:0:0:
485,347,53734,6,0,P|419:301|318:319,1,179.999994506836,2|2,1:2|1:2,0:0:0:0:
368,378,54193,1,0,0:0:0:0:
438,268,54346,2,0,B|449:224|449:224|430:178,1,89.9999972534181,10|0,0:2|0:0,0:0:0:0:
242,282,54652,2,0,B|231:326|231:326|250:372,1,89.9999972534181,0|8,1:2|0:2,0:0:0:0:
317,140,54958,6,0,B|224:128|241:199|132:209,1,179.999994506836,6|0,1:2|1:2,0:0:0:0:
102,263,55417,1,2,0:0:0:0:
54,129,55570,2,0,B|94:112|94:112|147:120,1,89.9999972534181,10|0,0:2|0:0,0:0:0:0:
258,22,55876,2,0,B|218:39|218:39|165:31,1,89.9999972534181,2|0,1:2|1:2,0:0:0:0:
317,140,56183,37,2,1:2:0:0:
276,206,56336,1,8,0:2:0:0:
297,130,56489,1,2,1:2:0:0:
377,321,56642,6,0,P|368:278|363:226,1,89.9999972534181,0|10,0:0|0:2,0:0:0:0:
281,360,56948,1,0,1:2:0:0:
242,293,57101,2,0,P|251:249|256:198,1,89.9999972534181,0|8,0:0|0:2,0:0:0:0:
421,126,57407,6,0,P|337:101|244:63,1,179.999994506836,4|0,1:2|1:2,0:0:0:0:
21,29,57866,1,10,0:0:0:0:
21,29,57943,1,8,0:0:0:0:
21,29,58019,2,0,P|61:11|120:19,1,89.9999972534181,10|0,0:2|0:0,0:0:0:0:
106,196,58325,37,2,1:2:0:0:
92,120,58478,1,0,1:2:0:0:
40,237,58632,2,0,P|43:286|40:337,1,89.9999972534181,2|8,1:2|0:2,0:0:0:0:
145,375,58938,1,2,1:2:0:0:
145,375,59091,2,0,P|142:326|145:275,1,89.9999972534181,0|10,0:0|0:2,0:0:0:0:
265,147,59397,5,0,0:0:0:0:
335,186,59550,1,0,1:2:0:0:
265,222,59703,1,8,0:2:0:0:
470,60,59856,6,0,P|465:149|470:239,1,179.999994506836,4|0,1:2|1:2,0:0:0:0:
375,358,60315,1,2,0:0:0:0:
375,358,60468,2,0,P|379:313|376:256,1,89.9999972534181,10|0,0:2|0:0,0:0:0:0:
226,308,60774,37,2,1:2:0:0:
154,332,60927,1,0,1:2:0:0:
68,193,61081,6,0,B|110:211|110:211|173:198,1,89.9999972534181,2|8,1:2|0:2,0:0:0:0:
153,202,61310,1,8,0:2:0:0:
153,202,61387,1,10,0:2:0:0:
327,54,61540,5,0,1:2:0:0:
379,111,61693,2,0,P|430:122|471:135,1,89.9999972534181,10|8,0:2|0:2,0:0:0:0:
300,217,61999,2,0,P|343:203|387:194,1,89.9999972534181,8|8,0:2|0:2,0:0:0:0:
194,71,62305,38,0,P|105:109|89:218,1,179.999994506836,6|2,1:2|0:0,0:0:0:0:
32,243,62764,1,2,1:2:0:0:
162,312,62917,2,0,B|181:271|181:271|170:222,1,89.9999972534181,10|0,0:2|0:0,0:0:0:0:
0,357,63223,5,2,1:2:0:0:
71,331,63376,1,2,0:0:0:0:
214,384,63529,2,0,P|254:364|298:368,1,89.9999972534181,2|8,1:2|0:2,0:0:0:0:
487,291,63836,5,2,1:2:0:0:
420,252,63989,1,2,0:0:0:0:
474,311,64142,2,0,L|463:155,1,134.999995880127,10|0,0:2|0:0,0:0:0:0:
480,158,64448,37,2,1:2:0:0:
501,83,64601,1,10,0:2:0:0:
310,20,64754,6,0,P|354:105|333:217,1,179.999994506836,6|2,1:2|0:0,0:0:0:0:
280,229,65213,1,0,1:2:0:0:
108,131,65366,2,0,P|169:102|249:115,1,134.999995880127,10|0,0:2|0:0,0:0:0:0:
245,131,65672,5,2,1:2:0:0:
179,214,65825,2,0,P|182:267|179:310,1,89.9999972534181,0|2,0:0|1:2,0:0:0:0:
289,384,66132,1,8,0:2:0:0:
318,313,66285,1,2,1:2:0:0:
122,376,66438,2,0,B|81:357|81:357|19:368,1,89.9999972534181,0|10,0:0|0:2,0:0:0:0:
0,297,66744,1,0,1:2:0:0:
92,153,66897,37,2,0:0:0:0:
74,78,67050,1,10,0:2:0:0:
196,3,67203,6,0,B|288:-15|280:61|374:64,1,179.999994506836,6|2,1:2|0:0,0:0:0:0:
430,27,67662,1,2,1:2:0:0:
231,103,67815,2,0,P|218:168|211:245,1,134.999995880127,10|0,0:2|0:0,0:0:0:0:
230,258,68121,5,2,1:2:0:0:
299,292,68274,1,10,0:2:0:0:
368,236,68427,37,2,1:2:0:0:
163,314,68581,1,8,0:2:0:0:
343,368,68734,5,2,1:2:0:0:
276,176,68887,2,0,B|297:136|297:136|283:64,1,89.9999972534181,2|10,0:0|0:2,0:0:0:0:
57,134,69346,5,2,1:2:0:0:
26,206,69499,1,10,0:2:0:0:
43,121,69652,38,0,B|202:145|107:241|279:269,1,269.999991760254,6|0,1:2|1:2,0:0:0:0:
442,165,70264,2,0,P|364:157|241:165,1,179.999994506836,10|2,0:2|1:2,0:0:0:0:
262,161,70647,1,0,3:0:0:0:
262,161,70723,1,0,3:0:0:0:
145,254,70876,1,2,1:2:0:0:
264,327,71029,5,8,0:2:0:0:
276,304,71106,1,8,0:2:0:0:
266,280,71183,1,10,0:2:0:0:
125,131,71336,1,0,1:2:0:0:
174,78,71489,2,0,P|172:123|175:168,1,89.9999972534181,10|0,0:2|0:0,0:0:0:0:
67,348,71795,5,2,1:2:0:0:
51,273,71948,1,10,0:2:0:0:
189,182,72101,6,0,P|228:169|293:159,1,80,6|0,1:1|0:0,0:0:0:0:
382,274,72407,1,0,1:1:0:0:
453,246,72560,1,0,0:0:0:0:
366,43,72713,6,0,P|358:82|353:132,1,80,10|0,0:1|0:0,0:0:0:0:
240,30,73019,1,0,1:1:0:0:
163,53,73172,1,0,1:1:0:0:
81,201,73325,54,0,B|94:163|94:163|79:107,1,80,2|8,1:1|0:1,0:0:0:0:
93,302,73632,5,2,1:1:0:0:
169,277,73784,1,0,0:0:0:0:
318,340,73938,53,10,0:1:0:0:
178,292,74091,1,0,0:0:0:0:
358,255,74244,2,0,P|363:195|374:121,1,120,2|0,1:1|0:0,0:0:0:0:
259,87,74550,6,0,P|265:131|268:198,1,80,6|0,1:1|0:0,0:0:0:0:
78,317,74856,1,0,1:1:0:0:
62,240,75009,1,0,0:0:0:0:
190,305,75162,54,0,P|194:348|189:411,1,80,10|0,0:1|0:0,0:0:0:0:
304,292,75468,1,0,1:1:0:0:
377,318,75621,1,8,0:1:0:0:
512,160,75774,6,0,L|422:175,1,80,2|8,1:1|0:1,0:0:0:0:
380,0,76081,53,2,1:1:0:0:
397,77,76234,1,0,0:0:0:0:
358,208,76387,5,10,0:1:0:0:
385,88,76540,1,0,1:1:0:0:
284,232,76693,2,0,P|218:224|146:208,1,120,2|0,0:1|0:0,0:0:0:0:
187,78,76999,54,0,B|151:68|151:68|100:76,1,80,6|0,1:1|0:0,0:0:0:0:
69,246,77305,1,0,1:1:0:0:
99,176,77458,1,0,0:0:0:0:
207,354,77611,6,0,L|216:274,1,80,10|0,0:1|0:0,0:0:0:0:
440,141,77917,1,0,1:1:0:0:
370,106,78070,1,8,0:1:0:0:
255,200,78223,54,0,P|302:189|359:186,1,80,2|8,1:1|0:1,0:0:0:0:
415,362,78529,5,2,1:1:0:0:
512,270,78682,1,0,0:0:0:0:
440,141,78836,54,0,B|418:84|418:84|436:23,1,120,10|0,0:1|0:0,0:0:0:0:
328,75,79142,2,0,P|291:64|237:54,1,80,2|8,1:1|0:1,0:0:0:0:
93,131,79448,6,0,L|86:60,1,42.5000008106232,6|0,1:1|0:0,0:0:0:0:
135,25,79601,1,0,0:0:0:0:
41,242,79754,53,0,1:1:0:0:
117,216,79907,1,0,0:0:0:0:
253,328,80060,6,0,L|313:340,1,42.5000008106232,10|0,0:1|0:0,0:0:0:0:
366,305,80213,1,8,0:1:0:0:
211,227,80366,53,8,0:1:0:0:
159,346,80519,1,8,0:1:0:0:
177,144,80672,5,2,1:2:0:0:
356,272,81591,54,0,P|413:250|491:259,1,119.999996337891,10|10,0:2|0:2,0:0:0:0:
423,384,82203,5,0,0:0:0:0:
474,326,82356,1,0,1:2:0:0:
406,209,82509,2,0,P|403:177|405:137,1,59.9999981689454,10|0,0:2|1:2,0:0:0:0:
468,103,82815,1,0,0:0:0:0:
304,160,82968,54,0,P|278:153|234:144,1,59.9999981689454,2|0,1:2|0:0,0:0:0:0:
141,79,83274,2,0,P|167:72|211:63,1,59.9999981689454,0|0,1:2|0:0,0:0:0:0:
160,166,83581,1,0,1:2:0:0:
219,253,83734,2,0,B|229:288|229:288|214:328,1,59.9999981689454,10|0,0:2|1:2,0:0:0:0:
337,383,84040,2,0,B|315:325|315:325|337:258,1,119.999996337891,0|2,0:0|1:2,0:0:0:0:
308,87,84652,6,0,L|245:79,1,59.9999981689454,0|2,0:0|1:2,0:0:0:0:
183,142,84958,2,0,P|140:99|63:70,1,119.999996337891,10|0,0:2|1:2,0:0:0:0:
24,119,85417,1,8,0:2:0:0:
174,265,85570,53,2,1:2:0:0:
93,217,85723,2,0,L|99:287,1,59.9999981689454,10|2,0:2|1:2,0:0:0:0:
43,330,86029,1,0,0:0:0:0:
218,350,86183,2,0,P|255:341|293:337,1,59.9999981689454,10|0,0:2|0:0,0:0:0:0:
369,383,86489,1,0,0:0:0:0:
443,361,86642,1,0,0:0:0:0:
294,185,86795,6,0,L|440:162,1,119.999996337891,2|0,1:2|0:0,0:0:0:0:
206,143,87407,2,0,P|199:171|198:218,1,59.9999981689454,10|0,0:2|0:0,0:0:0:0:
311,259,87713,1,0,0:0:0:0:
294,185,87866,1,0,1:2:0:0:
453,92,88019,54,0,L|529:103,1,59.9999981689454,2|0,1:2|0:0,0:0:0:0:
387,19,88325,2,0,L|311:30,1,59.9999981689454,0|0,1:2|0:0,0:0:0:0:
165,75,88632,2,0,P|173:99|174:154,1,59.9999981689454,10|0,0:2|0:0,0:0:0:0:
72,220,88938,1,0,1:2:0:0:
56,141,89091,1,8,0:2:0:0:
215,222,89244,6,0,B|275:201|275:201|345:214,1,119.999996337891,2|0,1:2|3:2,0:0:0:0:
393,283,89703,1,2,1:2:0:0:
328,325,89856,2,0,L|322:384,1,59.9999981689454,10|0,0:2|0:0,0:0:0:0:
247,354,90162,1,0,1:2:0:0:
32,238,90315,54,0,L|-11:231,1,29.9999990844727,8|0,0:2|0:0,0:0:0:0:
42,254,90468,1,2,1:2:0:0:
115,240,90621,1,10,0:2:0:0:
88,384,90774,2,0,P|88:347|94:316,1,59.9999981689454,2|0,1:2|0:0,0:0:0:0:
192,201,91081,1,10,0:2:0:0:
80,38,91387,1,8,0:2:0:0:
88,53,91463,1,8,0:2:0:0:
63,79,91540,1,8,0:2:0:0:
89,108,91616,1,8,0:2:0:0:
65,153,91693,5,2,1:2:0:0:
175,69,91846,2,0,P|205:61|247:58,2,59.9999981689454,0|0|0,0:0|0:0|1:2,0:0:0:0:
286,167,92305,1,10,0:2:0:0:
322,95,92458,1,0,1:2:0:0:
362,163,92611,1,0,0:0:0:0:
440,44,92764,54,0,L|431:107,1,59.9999981689454,2|0,1:2|0:0,0:0:0:0:
464,242,93070,1,0,1:2:0:0:
501,170,93223,1,0,0:0:0:0:
376,179,93376,1,0,1:2:0:0:
432,344,93529,2,0,B|372:324|372:324|300:336,2,119.999996337891,10|0|2,0:2|0:0|1:2,0:0:0:0:
268,245,94295,5,0,3:2:0:0:
196,266,94448,1,0,3:2:0:0:
125,286,94601,1,2,1:2:0:0:
0,384,94754,2,0,L|5:316,1,59.9999981689454,10|0,0:2|0:0,0:0:0:0:
50,262,95060,1,0,1:2:0:0:
0,159,95213,54,0,P|59:158|108:190,1,119.999996337891,8|10,0:2|0:2,0:0:0:0:
134,59,95825,2,0,L|124:-20,2,59.9999981689454,0|10|0,0:0|0:2|0:0,0:0:0:0:
204,86,96285,1,0,0:0:0:0:
262,35,96438,1,0,0:0:0:0:
380,168,96591,6,0,L|394:49,1,119.999996337891,2|0,1:2|0:0,0:0:0:0:
297,109,97050,1,0,1:2:0:0:
395,185,97203,2,0,P|423:178|458:173,1,59.9999981689454,10|0,0:2|0:0,0:0:0:0:
508,303,97509,1,0,0:0:0:0:
436,281,97662,1,0,1:2:0:0:
322,293,97815,54,0,L|311:369,1,59.9999981689454,2|0,1:2|0:0,0:0:0:0:
251,230,98121,2,0,L|243:162,1,59.9999981689454,0|0,1:2|0:0,0:0:0:0:
197,284,98427,1,10,0:2:0:0:
429,225,98734,5,0,1:2:0:0:
356,199,98887,1,8,0:2:0:0:
289,48,99040,53,2,1:2:0:0:
125,149,99193,1,0,3:2:0:0:
125,149,99269,1,0,3:2:0:0:
125,149,99346,1,0,3:2:0:0:
43,95,99499,1,2,1:2:0:0:
215,94,99652,2,0,B|230:152|230:152|213:211,1,119.999996337891,10|0,0:2|1:2,0:0:0:0:
70,256,100111,6,0,L|132:247,1,59.9999981689454,8|2,0:2|1:2,0:0:0:0:
180,301,100417,1,10,0:2:0:0:
8,369,100570,54,0,L|48:378,1,29.9999990844727,2|0,1:2|0:0,0:0:0:0:
112,359,100723,1,0,0:0:0:0:
256,365,100876,5,10,0:2:0:0:
475,245,101489,53,2,1:2:0:0:
354,181,101718,1,0,0:0:0:0:
238,256,101948,1,0,1:2:0:0:
179,205,102101,6,0,L|192:143,1,59.9999981689454,10|0,0:2|1:2,0:0:0:0:
156,79,102407,1,0,0:0:0:0:
83,202,102560,1,2,1:2:0:0:
83,202,102713,2,0,L|92:283,1,59.9999981689454,0|0,0:0|1:2,0:0:0:0:
43,324,103019,1,0,0:0:0:0:
183,363,103172,54,0,P|218:348|262:339,1,59.9999981689454,0|10,1:2|0:2,0:0:0:0:
320,282,103478,2,0,P|348:290|376:302,2,59.9999981689454,0|0|0,1:2|0:0|0:0,0:0:0:0:
207,247,103938,6,0,P|217:206|223:146,1,89.9999972534181,2|0,1:2|0:0,0:0:0:0:
209,138,104244,2,0,L|149:145,1,59.9999981689454,0|2,0:0|1:2,0:0:0:0:
327,49,104550,2,0,B|317:78|317:78|332:128,1,59.9999981689454,10|0,0:2|0:0,0:0:0:0:
445,63,104856,1,0,1:2:0:0:
512,92,105009,1,8,0:2:0:0:
464,194,105162,54,0,P|434:193|404:196,1,59.9999981689454,2|10,1:2|0:2,0:0:0:0:
357,255,105468,1,2,1:2:0:0:
228,335,105621,1,0,0:0:0:0:
170,288,105774,1,10,0:2:0:0:
241,323,105927,2,0,P|244:259|241:200,1,119.999996337891
215,20,106387,6,0,P|155:44|141:117,1,119.999996337891,2|0,1:2|0:0,0:0:0:0:
200,137,106846,1,0,1:2:0:0:
83,225,106999,2,0,B|90:195|90:195|80:156,1,59.9999981689454,10|0,0:2|0:0,0:0:0:0:
0,254,107305,1,0,0:0:0:0:
23,324,107458,1,0,1:2:0:0:
146,346,107611,54,0,P|209:330|264:321,1,119.999996337891,2|0,1:2|1:2,0:0:0:0:
371,251,108070,1,0,0:0:0:0:
371,251,108223,2,0,P|341:238|299:227,1,59.9999981689454,10|0,0:2|0:0,0:0:0:0:
405,336,108529,1,0,1:2:0:0:
473,212,108683,1,8,0:2:0:0:
413,158,108836,6,0,B|391:102|434:88|406:21,1,119.999996337891,2|0,1:2|0:0,0:0:0:0:
306,0,109295,1,2,1:2:0:0:
322,72,109448,1,10,0:2:0:0:
210,202,109754,53,0,1:2:0:0:
150,157,109907,2,0,B|121:166|121:166|92:159,1,59.9999981689454,8|2,0:2|1:2,0:0:0:0:
3,244,110213,2,0,B|32:235|32:235|61:242,1,59.9999981689454,10|2,0:2|1:2,0:0:0:0:
167,370,110519,5,0,0:0:0:0:
228,324,110672,2,0,L|305:311,1,59.9999981689454,10|0,0:2|0:0,0:0:0:0:
405,342,110978,1,8,0:2:0:0:
392,313,111055,1,8,0:2:0:0:
404,286,111132,1,8,0:2:0:0:
384,251,111208,1,8,0:2:0:0:
393,227,111285,54,0,P|397:163|393:90,1,119.999996337891,2|0,1:2|0:0,0:0:0:0:
443,48,111744,1,0,1:2:0:0:
312,14,111897,1,10,0:2:0:0:
262,74,112050,2,0,P|263:108|261:156,1,59.9999981689454,0|0,1:2|0:0,0:0:0:0:
305,199,112356,1,2,1:2:0:0:
194,254,112509,2,0,B|185:226|185:226|192:194,1,59.9999981689454,0|0,0:0|1:2,0:0:0:0:
347,355,112815,5,0,0:0:0:0:
278,325,112968,1,0,1:2:0:0:
263,338,113121,1,10,0:2:0:0:
186,362,113274,1,0,1:2:0:0:
121,315,113427,2,0,L|61:322,1,59.9999981689454
2,170,113734,54,0,P|62:181|129:150,1,119.999996337891,2|0,1:2|3:2,0:0:0:0:
137,85,114193,1,2,1:2:0:0:
257,33,114346,1,10,0:2:0:0:
307,90,114499,2,0,L|372:98,1,59.9999981689454,0|0,0:0|1:2,0:0:0:0:
497,208,114805,5,8,0:2:0:0:
428,235,114958,2,0,B|417:205|417:205|426:163,1,59.9999981689454,2|10,1:2|0:2,0:0:0:0:
392,302,115264,1,2,1:2:0:0:
285,253,115417,1,0,0:0:0:0:
231,306,115570,2,0,P|201:313|161:328,1,59.9999981689454,10|0,0:2|0:0,0:0:0:0:
62,228,115876,2,0,P|90:237|119:244,1,59.9999981689454
244,164,116183,54,0,B|331:154|309:113|388:107,1,149.999995422363,2|0,1:2|0:0,0:0:0:0:
399,124,116642,1,0,1:2:0:0:
300,39,116795,2,0,B|313:69|313:69|304:114,1,59.9999981689454,10|0,0:2|0:0,0:0:0:0:
172,55,117101,5,0,0:0:0:0:
96,31,117254,1,0,1:2:0:0:
27,138,117407,2,0,P|71:134|117:136,1,89.9999972534181,2|0,1:2|0:0,0:0:0:0:
185,297,117713,53,0,1:2:0:0:
124,245,117866,1,0,0:0:0:0:
200,221,118019,2,0,L|268:230,1,59.9999981689454,10|0,0:2|0:0,0:0:0:0:
76,384,118325,5,0,1:2:0:0:
58,307,118478,1,8,0:2:0:0:
248,367,118632,53,2,1:2:0:0:
319,332,118785,2,0,P|353:339|378:341,1,59.9999981689454,8|0,0:2|0:0,0:0:0:0:
456,235,119091,5,2,1:2:0:0:
379,213,119244,1,10,0:2:0:0:
334,104,119397,53,8,0:2:0:0:
474,56,119550,1,8,0:2:0:0:
294,39,119703,1,8,0:2:0:0:
175,204,119856,22,0,B|172:183|172:183|174:174|174:174|169:148,1,52.4999983978272,6|0,1:1|0:0,0:0:0:0:
355,277,120468,6,0,B|358:256|358:256|356:247|356:247|361:221,1,52.4999983978272,6|0,1:1|0:0,0:0:0:0:
278,352,121081,6,0,B|212:276|263:190|277:211|329:135|270:61,1,300,6|0,1:1|1:1,0:0:0:0:
16,55,121693,38,0,B|109:45|91:137|205:149,1,200,10|0,0:1|1:1,0:0:0:0:
117,51,122152,1,0,0:0:0:0:
21,190,122305,6,0,L|10:252,1,50,2|0,1:1|0:0,0:0:0:0:
24,246,122458,2,0,L|32:196,1,50,8|0,0:1|0:0,0:0:0:0:
171,157,122611,6,0,L|164:229,1,50,2|0,1:1|0:0,0:0:0:0:
231,304,122764,2,0,L|235:254,1,50
319,147,122917,38,0,B|313:204|313:204|328:229|328:229|319:329,1,150,10|0,0:1|0:0,0:0:0:0:
379,349,123223,1,2,1:1:0:0:
495,215,123376,1,8,0:1:0:0:
448,69,123529,6,0,B|350:50|364:127|262:144,1,200,6|0,1:1|0:0,0:0:0:0:
372,120,123989,1,0,1:1:0:0:
262,41,124142,6,0,P|206:30|156:14,1,100,10|0,0:1|0:0,0:0:0:0:
136,213,124448,2,0,P|80:223|30:240,1,100,0|0,1:1|0:0,0:0:0:0:
69,62,124754,38,0,L|75:125,1,50,2|0,1:1|0:0,0:0:0:0:
89,120,124907,2,0,L|84:70,1,50,8|0,0:1|0:0,0:0:0:0:
230,135,125060,6,0,L|235:198,1,50,2|0,1:1|0:0,0:0:0:0:
300,290,125213,2,0,L|296:240,1,50
421,57,125366,6,0,B|414:80|414:80|422:117,1,50,10|0,0:1|0:0,0:0:0:0:
484,183,125519,2,0,B|380:168|425:97|304:90,1,200,0|8,1:1|0:1,0:0:0:0:
67,347,125978,38,0,B|234:315|156:210|337:188,1,300,6|0,1:1|1:1,0:0:0:0:
57,334,126591,2,0,B|182:315|149:256|242:206,1,200,10|0,0:1|1:1,0:0:0:0:
44,319,127050,1,8,0:1:0:0:
39,173,127203,6,0,L|32:123,1,50,2|0,1:1|0:0,0:0:0:0:
43,111,127356,2,0,L|49:160,1,50,8|0,0:1|0:0,0:0:0:0:
184,43,127509,6,0,L|178:92,1,50,2|0,1:1|0:0,0:0:0:0:
226,207,127662,2,0,L|233:157,1,50
422,107,127815,38,0,L|429:177,1,50,10|0,0:1|0:0,0:0:0:0:
311,342,127968,2,0,L|306:292,1,50
433,89,128121,6,0,L|440:159,1,50,2|0,1:1|0:0,0:0:0:0:
295,363,128274,2,0,L|290:313,1,50,8|0,0:1|0:0,0:0:0:0:
476,309,128427,6,0,B|367:279|420:216|297:196,1,200,6|0,1:1|0:0,0:0:0:0:
163,126,128887,38,0,L|219:104,1,50,2|0,1:1|0:0,0:0:0:0:
123,195,129040,2,0,B|143:240|143:240|123:317,1,100,8|0,0:1|0:0,0:0:0:0:
319,86,129346,6,0,B|299:131|299:131|319:208,1,100,2|0,1:1|0:0,0:0:0:0:
397,350,129652,5,2,1:1:0:0:
232,282,129805,37,8,0:1:0:0:
51,376,129958,6,0,L|33:266,1,100,2|0,1:1|0:0,0:0:0:0:
135,83,130264,2,0,B|128:137|128:137|144:175|144:175|137:211|137:211|151:235|151:235|143:282,1,200,2|4,1:1|0:3,0:0:0:0:
225,119,130723,1,0,1:2:0:0:
284,330,130876,6,0,B|364:331|352:253|450:256,1,179.999994506836,6|0,1:2|1:2,0:0:0:0:
498,311,131336,1,2,0:0:0:0:
363,176,131489,38,0,P|360:130|361:80,1,89.9999972534181,10|0,0:2|0:0,0:0:0:0:
468,26,131795,1,2,1:2:0:0:
457,103,131948,1,0,1:2:0:0:
257,188,132101,6,0,L|70:160,1,179.999994506836,2|2,1:2|1:2,0:0:0:0:
17,212,132560,1,0,0:0:0:0:
182,71,132713,6,0,P|222:93|269:90,1,89.9999972534181,10|0,0:2|0:0,0:0:0:0:
128,0,133019,1,0,1:2:0:0:
64,44,133172,1,8,0:2:0:0:
338,226,133325,38,0,B|373:137|373:137|358:95|347:41,1,179.999994506836,6|0,1:2|1:2,0:0:0:0:
406,0,133785,1,2,0:0:0:0:
472,157,133938,6,0,P|487:210|498:269,1,89.9999972534181,10|0,0:2|0:0,0:0:0:0:
412,378,134244,1,2,1:2:0:0:
394,302,134397,1,0,1:2:0:0:
239,322,134550,5,2,1:2:0:0:
179,270,134703,2,0,P|135:266|90:272,1,89.9999972534181,8|2,0:2|1:2,0:0:0:0:
251,345,135009,37,0,0:0:0:0:
237,200,135162,2,0,P|230:154|227:103,1,89.9999972534181,10|0,0:2|1:2,0:0:0:0:
284,55,135468,1,0,0:0:0:0:
284,55,135621,1,8,0:2:0:0:
8,281,135774,6,0,P|81:240|189:261,1,179.999994506836,4|0,1:2|1:2,0:0:0:0:
227,110,136234,1,10,0:0:0:0:
227,110,136310,1,8,0:0:0:0:
227,110,136387,2,0,L|137:97,1,89.9999972534181,10|0,0:2|0:0,0:0:0:0:
284,55,136693,2,0,L|374:42,1,89.9999972534181,2|0,1:2|1:2,0:0:0:0:
439,240,136999,5,2,1:2:0:0:
460,311,137152,1,8,0:2:0:0:
512,257,137305,1,2,1:2:0:0:
308,274,137458,38,0,B|323:315|323:315|311:373,1,89.9999972534181,0|10,0:0|0:2,0:0:0:0:
240,343,137764,1,0,0:0:0:0:
90,301,137917,2,0,P|45:298|0:305,1,89.9999972534181,0|8,1:2|0:2,0:0:0:0:
178,228,138223,6,0,B|280:217|252:163|339:154,1,179.999994506836,4|0,1:2|1:2,0:0:0:0:
214,11,138683,2,0,P|205:57|201:101,1,89.9999972534181,2|10,0:0|0:2,0:0:0:0:
136,140,138989,1,0,0:0:0:0:
35,73,139142,2,0,P|43:119|48:163,1,89.9999972534181,2|0,1:2|1:2,0:0:0:0:
306,62,139448,6,0,P|356:60|412:65,1,89.9999972534181,2|8,1:2|0:2,0:0:0:0:
396,63,139677,1,8,0:2:0:0:
396,63,139754,1,10,0:2:0:0:
443,304,139907,37,0,1:2:0:0:
374,271,140060,1,10,0:2:0:0:
461,137,140213,5,8,0:2:0:0:
305,232,140366,1,8,0:2:0:0:
510,337,140519,1,8,0:2:0:0:
213,267,140672,6,0,P|176:255|117:243,1,89.9999972534181,6|0,1:2|0:0,0:0:0:0:
211,347,140978,1,2,0:0:0:0:
286,377,141132,1,2,1:2:0:0:
320,159,141285,38,0,B|302:204|302:204|315:259,1,89.9999972534181,10|0,0:2|0:0,0:0:0:0:
446,308,141591,1,2,1:2:0:0:
418,238,141744,1,2,0:0:0:0:
240,89,141897,6,0,P|287:68|334:66,1,89.9999972534181,2|8,1:2|0:2,0:0:0:0:
183,16,142203,1,2,1:2:0:0:
141,79,142356,1,2,0:0:0:0:
11,123,142509,6,0,B|39:185|39:185|16:274,1,134.999995880127,10|0,0:2|0:0,0:0:0:0:
23,250,142815,1,2,1:2:0:0:
56,324,142968,1,10,0:2:0:0:
259,288,143121,38,0,P|256:240|260:182,1,89.9999972534181,6|0,1:2|0:0,0:0:0:0:
164,106,143427,2,0,P|167:154|163:212,1,89.9999972534181,2|0,0:0|1:2,0:0:0:0:
343,246,143734,1,10,0:2:0:0:
510,114,144040,5,2,1:2:0:0:
500,41,144193,2,0,B|456:23|456:23|402:32,1,89.9999972534181,0|2,0:0|1:2,0:0:0:0:
358,155,144499,6,0,L|361:110,1,44.999998626709,8|0,0:2|0:0,0:0:0:0:
416,205,144652,1,2,1:2:0:0:
221,279,144805,37,0,0:0:0:0:
301,367,144958,2,0,P|311:321|323:279,1,89.9999972534181,10|0,0:2|1:2,0:0:0:0:
246,108,145264,2,0,P|254:152|265:195,1,89.9999972534181,2|10,0:0|0:2,0:0:0:0:
127,383,145570,6,0,B|149:301|91:256|91:256|121:213|105:151,1,224.999993133545,6|0,1:2|0:0,0:0:0:0:
50,127,146029,1,2,1:2:0:0:
274,4,146183,6,0,P|227:-1|184:2,1,89.9999972534181,10|0,0:2|0:0,0:0:0:0:
143,69,146489,1,2,1:2:0:0:
245,213,146642,38,0,L|232:114,1,89.9999972534181,10|2,0:2|1:2,0:0:0:0:
346,279,146948,2,0,L|359:222,1,44.999998626709,8|0,0:2|0:0,0:0:0:0:
342,159,147101,1,2,1:2:0:0:
460,58,147254,6,0,P|482:123|483:191,1,134.999995880127,2|0,0:0|0:0,0:0:0:0:
483,188,147560,1,0,0:0:0:0:
444,260,147713,1,2,1:2:0:0:
511,364,147866,1,10,0:2:0:0:
274,326,148019,6,0,L|154:345,1,89.9999972534181,6|0,1:2|0:0,0:0:0:0:
70,259,148325,1,2,0:0:0:0:
5,299,148478,1,0,1:2:0:0:
216,246,148632,38,0,P|267:228|351:208,1,134.999995880127,10|0,0:2|0:0,0:0:0:0:
345,208,148938,1,2,1:2:0:0:
411,162,149091,1,0,0:0:0:0:
302,29,149244,6,0,P|313:76|321:131,1,89.9999972534181,2|8,1:2|0:2,0:0:0:0:
165,80,149550,2,0,P|154:123|147:168,1,89.9999972534181,10|0,0:2|1:2,0:0:0:0:
109,331,149856,5,2,0:0:0:0:
180,355,150009,1,0,0:0:0:0:
306,296,150162,37,2,1:2:0:0:
318,316,150315,1,0,0:0:0:0:
489,249,150468,38,0,L|501:358,1,100,0|0,1:0|0:0,0:0:0:0:
306,296,151540,5,0,1:0:0:0:
260,233,151693,2,0,B|214:219|214:219|157:230,1,100,8|0,0:0|0:0,0:0:0:0:
99,327,152305,1,0,0:0:0:0:
57,141,152917,54,0,P|65:96|55:37,1,100,0|0,1:0|0:0,0:0:0:0:
196,98,153836,5,0,0:0:0:0:
258,55,153989,1,0,1:0:0:0:
263,131,154142,2,0,B|278:181|278:181|262:241,2,100,8|0|8,0:0|0:0|0:0,0:0:0:0:
350,269,155060,1,0,0:0:0:0:
113,242,155366,54,0,L|-4:229,1,100,0|0,1:0|0:0,0:0:0:0:
146,316,155978,1,0,0:0:0:0:
280,241,156438,5,0,1:0:0:0:
351,270,156591,2,0,P|362:320|365:384,1,100,0|0,1:0|1:0,0:0:0:0:
481,305,157203,1,8,0:0:0:0:
462,83,157815,54,0,L|446:183,1,100,0|0,1:0|0:0,0:0:0:0:
365,105,158427,1,0,0:0:0:0:
214,43,158734,5,0,1:0:0:0:
238,117,158887,1,0,0:0:0:0:
190,181,159040,2,0,L|186:248,2,50,8|0|0,0:0|0:0|0:0,0:0:0:0:
130,282,159499,1,0,1:0:0:0:
133,106,159652,53,8,0:0:0:0:
304,54,160264,6,0,P|350:74|417:65,1,100,2|0,1:2|0:0,0:0:0:0:
476,109,160723,1,2,0:0:0:0:
476,109,160876,2,0,L|484:177,1,50
440,229,161183,1,2,0:0:0:0:
440,229,161336,1,2,1:2:0:0:
326,162,161489,2,0,P|338:215|344:268,1,100,10|0,0:2|0:0,0:0:0:0:
387,328,161948,2,0,L|437:343,2,50,10|0|0,0:2|0:0|0:0,0:0:0:0:
259,288,162407,2,0,L|206:294,1,50,2|0,0:0|0:0,0:0:0:0:
94,210,162713,54,0,B|143:222|143:222|209:198,1,100,2|0,1:2|0:0,0:0:0:0:
234,140,163172,2,0,L|227:76,1,50,2|0,0:0|0:0,0:0:0:0:
145,35,163478,1,0,0:0:0:0:
145,35,163632,2,0,L|141:88,1,50,2|0,1:2|0:0,0:0:0:0:
86,142,163938,2,0,L|35:153,2,50,10|0|0,0:2|0:0|0:0,0:0:0:0:
174,212,164397,1,2,1:2:0:0:
174,212,164550,2,0,P|230:207|293:212,1,100,8|2,0:2|0:0,0:0:0:0:
334,158,165009,1,0,0:0:0:0:
289,303,165162,6,0,B|338:285|338:285|398:297,1,100,2|0,1:2|0:0,0:0:0:0:
454,335,165621,2,0,L|460:400,1,50,0|2,0:0|0:0,0:0:0:0:
512,228,166081,1,0,0:0:0:0:
512,228,166234,1,0,1:2:0:0:
464,163,166387,2,0,B|484:118|484:118|468:62,1,100,2|0,1:2|1:2,0:0:0:0:
404,24,166846,2,0,P|356:39|304:48,1,100
265,112,167305,2,0,P|270:142|274:179,1,50
165,256,167611,54,0,L|182:150,1,100,2|0,1:2|0:0,0:0:0:0:
148,89,168070,1,0,0:0:0:0:
148,89,168223,2,0,L|142:32,1,50,2|0,0:0|0:0,0:0:0:0:
57,106,168529,2,0,L|50:162,1,50,0|0,1:2|0:0,0:0:0:0:
5,263,168836,2,0,P|53:247|110:253,1,100,10|0,0:2|0:0,0:0:0:0:
183,330,169295,1,0,1:2:0:0:
183,330,169448,2,0,P|231:314|288:320,1,100,10|8,0:2|0:2,0:0:0:0:
374,243,169907,1,8,0:2:0:0:
382,359,170060,6,0,P|379:313|382:255,1,100,2|0,1:2|0:0,0:0:0:0:
436,180,170519,1,2,1:2:0:0:
436,180,170672,1,8,0:2:0:0:
498,91,170978,1,2,1:2:0:0:
498,91,171055,1,0,3:0:0:0:
498,91,171132,2,0,L|446:86,1,50,10|2,0:2|1:2,0:0:0:0:
354,17,171438,1,8,0:2:0:0:
293,67,171591,2,0,L|243:61,1,50,0|2,1:2|0:0,0:0:0:0:
142,111,171897,2,0,P|191:140|211:194,1,100,8|10,0:2|0:2,0:0:0:0:
168,243,172356,1,8,0:2:0:0:
261,351,172509,54,0,P|257:303|260:251,1,100,2|0,1:2|0:0,0:0:0:0:
307,191,172968,1,2,1:2:0:0:
307,191,173121,2,0,L|371:197,1,50,8|0,0:2|0:0,0:0:0:0:
258,108,173427,1,2,1:2:0:0:
258,108,173581,2,0,L|323:97,1,50,8|2,0:2|1:2,0:0:0:0:
179,10,173887,2,0,B|185:37|185:37|178:69,2,50,8|0|2,0:2|1:2|0:0,0:0:0:0:
92,141,174346,5,12,0:2:0:0:
148,187,174499,1,8,0:3:0:0:
44,195,174652,1,4,0:3:0:0:
98,240,174805,1,0,1:2:0:0:
0,83,174958,53,2,1:2:0:0:
135,351,176183,5,2,0:2:0:0:
135,351,177407,54,0,L|253:334,1,100,0|0,1:0|1:0,0:0:0:0:
304,374,177866,1,10,0:0:0:0:
405,308,178172,5,0,1:0:0:0:
405,308,178325,2,0,B|384:262|384:262|395:201,1,100,10|0,0:0|1:0,0:0:0:0:
353,143,178785,1,10,0:0:0:0:
201,32,179091,53,0,1:0:0:0:
260,86,179244,2,0,L|269:148,1,50,8|4,0:3|0:3,0:0:0:0:
212,194,179550,2,0,L|203:256,1,50,0|8,1:0|0:0,0:0:0:0:
251,321,179856,5,0,1:0:0:0:
20,75,180468,6,0,B|104:16|133:75|212:25,1,189.999994926453,6|2,1:2|1:2,0:0:0:0:
272,60,180927,1,0,0:0:0:0:
433,7,181080,2,0,L|417:109,1,94.9999974632264,10|0,0:2|0:0,0:0:0:0:
231,189,181386,5,0,1:2:0:0:
208,115,181539,1,0,1:2:0:0:
153,257,181692,6,0,P|138:293|125:363,1,94.9999974632264,2|8,1:2|0:2,0:0:0:0:
311,133,181998,2,0,P|326:169|339:239,1,94.9999974632264,2|0,1:2|0:0,0:0:0:0:
276,369,182304,37,10,0:2:0:0:
211,335,182457,1,0,0:0:0:0:
137,172,182610,2,0,L|22:157,1,94.9999974632264,0|8,1:2|0:0,0:0:0:0:
323,303,182916,6,0,B|418:277|418:277|509:303,1,189.999994926453,6|2,1:2|1:2,0:0:0:0:
498,375,183376,1,0,0:0:0:0:
391,189,183529,2,0,L|381:86,1,94.9999974632264,10|0,0:2|0:0,0:0:0:0:
512,65,183835,5,0,1:2:0:0:
447,30,183988,1,0,1:2:0:0:
290,99,184141,38,0,P|245:79|182:78,1,94.9999974632264,2|8,1:2|0:2,0:0:0:0:
38,33,184447,2,0,P|83:13|146:12,1,94.9999974632264,2|0,1:2|0:0,0:0:0:0:
293,121,184753,6,0,P|251:94|189:83,1,94.9999974632264,10|0,0:2|1:2,0:0:0:0:
37,52,185059,2,0,P|79:27|142:19,1,94.9999974632264,2|8,0:0|0:2,0:0:0:0:
389,221,185365,6,0,P|386:127|411:20,1,189.999994926453,6|2,1:2|1:2,0:0:0:0:
479,18,185825,1,0,0:0:0:0:
512,189,185978,2,0,L|499:298,1,94.9999974632264,10|0,0:2|0:0,0:0:0:0:
413,374,186284,37,0,1:2:0:0:
413,374,186437,1,8,0:2:0:0:
311,284,186590,5,2,1:2:0:0:
221,309,186743,1,8,0:2:0:0:
131,188,186896,5,2,1:2:0:0:
244,225,187049,1,0,0:0:0:0:
1,230,187202,38,0,L|18:126,1,94.9999974632264,10|0,0:2|0:0,0:0:0:0:
150,282,187508,2,0,P|102:287|59:305,1,94.9999974632264,0|8,1:2|0:2,0:0:0:0:
102,102,187814,6,0,B|92:57|92:57|106:1,1,94.9999974632264,6|0,1:2|0:0,0:0:0:0:
171,40,188121,1,2,1:2:0:0:
247,20,188274,1,0,0:0:0:0:
312,181,188427,5,10,0:2:0:0:
381,210,188580,1,0,0:0:0:0:
392,31,188733,2,0,P|383:80|375:153,1,94.9999974632264,0|0,1:2|1:2,0:0:0:0:
506,177,189039,37,2,1:2:0:0:
474,300,189192,1,8,0:2:0:0:
474,300,189269,1,8,0:0:0:0:
474,300,189345,1,10,0:2:0:0:
381,210,189498,1,0,1:2:0:0:
252,368,189651,5,10,0:2:0:0:
207,185,189804,1,0,0:0:0:0:
323,51,189957,5,2,1:2:0:0:
276,262,190110,1,8,0:2:0:0:
142,101,190263,38,0,P|90:106|38:118,1,94.9999974632264,6|0,1:2|0:0,0:0:0:0:
189,171,190570,1,2,0:0:0:0:
258,138,190723,1,2,1:2:0:0:
363,266,190876,6,0,L|352:360,1,94.9999974632264,10|0,0:2|0:0,0:0:0:0:
447,220,191183,1,2,1:2:0:0:
512,255,191336,1,2,0:0:0:0:
265,350,191488,6,0,B|222:343|222:343|170:356,1,94.9999974632264,2|8,1:2|0:2,0:0:0:0:
118,241,191795,1,2,1:2:0:0:
96,315,191948,1,2,0:0:0:0:
0,158,192100,38,0,P|73:156|154:166,1,142.49999619484,10|0,0:2|0:0,0:0:0:0:
141,163,192406,1,2,1:2:0:0:
200,219,192559,1,10,0:2:0:0:
337,108,192712,6,0,P|341:160|352:207,1,94.9999974632264,6|0,1:2|0:0,0:0:0:0:
230,42,193019,2,0,P|226:94|215:141,1,94.9999974632264,2|0,0:0|1:2,0:0:0:0:
316,20,193325,1,10,0:2:0:0:
281,251,193631,5,2,1:2:0:0:
418,103,193784,2,0,L|527:91,1,94.9999974632264,0|2,0:0|1:2,0:0:0:0:
497,168,194090,1,8,0:2:0:0:
360,309,194243,37,2,1:2:0:0:
409,190,194396,2,0,B|396:247|424:285|424:285|388:309|385:377,1,189.999994926453,0|0,0:0|1:2,0:0:0:0:
315,175,194855,2,0,L|210:159,1,94.9999974632264,2|0,0:0|1:2,0:0:0:0:
2,294,195161,6,0,P|84:229|176:259,1,189.999994926453,6|2,1:2|0:0,0:0:0:0:
190,318,195621,1,2,1:2:0:0:
76,196,195774,2,0,L|85:101,1,94.9999974632264,10|0,0:2|0:0,0:0:0:0:
243,27,196080,5,2,1:2:0:0:
295,83,196233,2,0,L|342:88,1,47.4999987316132,10|0,0:2|0:0,0:0:0:0:
332,234,196386,37,2,1:2:0:0:
383,178,196539,2,0,L|442:172,1,47.4999987316132,8|0,0:2|0:0,0:0:0:0:
262,182,196692,5,2,1:2:0:0:
422,265,196845,1,2,0:0:0:0:
326,344,196998,2,0,P|330:297|337:250,1,94.9999974632264,10|0,0:2|0:0,0:0:0:0:
130,216,197304,5,2,1:2:0:0:
185,269,197457,2,0,L|195:333,1,47.4999987316132,10|0,0:2|0:0,0:0:0:0:
25,127,197610,38,0,L|5:245,1,94.9999974632264,6|0,1:2|0:0,0:0:0:0:
141,123,197916,1,2,0:0:0:0:
211,152,198070,1,0,1:2:0:0:
93,39,198223,6,0,P|147:15|193:11,1,94.9999974632264,10|0,0:2|0:0,0:0:0:0:
289,76,198529,1,2,1:2:0:0:
357,43,198683,1,0,0:0:0:0:
435,146,198835,5,2,1:2:0:0:
378,265,198988,2,0,L|371:317,1,47.4999987316132,8|0,0:2|0:0,0:0:0:0:
439,369,199141,1,2,1:2:0:0:
506,301,199294,37,0,0:0:0:0:
346,180,199447,2,0,L|287:189,1,47.4999987316132,10|0,0:2|0:0,0:0:0:0:
248,329,199600,5,8,0:3:0:0:
226,256,199753,1,4,0:3:0:0:
44,307,199906,1,0,1:0:0:0:
146,132,200059,6,0,B|122:226|122:226|150:320,1,189.999994926453,6|0,1:2|1:2,0:0:0:0:
96,372,200519,1,2,0:0:0:0:
242,158,200672,2,0,P|282:147|348:144,1,94.9999974632264,10|0,0:2|0:0,0:0:0:0:
232,54,200978,2,0,P|192:43|126:40,1,94.9999974632264,2|0,1:2|1:2,0:0:0:0:
323,232,201284,38,0,P|394:165|503:175,1,189.999994926453,2|2,1:2|1:2,0:0:0:0:
512,238,201743,1,0,0:0:0:0:
395,380,201896,2,0,L|406:286,1,94.9999974632264,10|0,0:2|0:0,0:0:0:0:
235,362,202202,1,0,1:2:0:0:
311,330,202355,1,8,0:2:0:0:
185,124,202508,6,0,L|158:320,1,189.999994926453,6|0,1:2|1:2,0:0:0:0:
101,362,202968,1,2,0:0:0:0:
13,224,203121,2,0,P|11:179|3:129,1,94.9999974632264,10|0,0:2|0:0,0:0:0:0:
89,7,203427,2,0,P|91:52|98:101,1,94.9999974632264,2|0,1:2|1:2,0:0:0:0:
320,60,203733,6,0,L|207:39,1,94.9999974632264,2|8,1:2|0:2,0:0:0:0:
393,134,204039,1,2,1:2:0:0:
274,190,204192,2,0,L|163:202,1,94.9999974632264,0|10,0:0|0:2,0:0:0:0:
402,145,204498,37,0,1:2:0:0:
429,219,204651,1,0,0:0:0:0:
390,285,204804,1,8,0:2:0:0:
268,79,204957,6,0,B|352:35|363:115|450:91,1,189.999994926453,4|0,1:2|1:2,0:0:0:0:
501,269,205416,1,10,0:0:0:0:
501,269,205493,1,8,0:0:0:0:
501,269,205570,2,0,P|498:217|512:175,1,94.9999974632264,10|0,0:2|0:0,0:0:0:0:
332,327,205876,1,2,1:2:0:0:
400,297,206029,1,0,1:2:0:0:
191,230,206182,5,2,1:2:0:0:
265,202,206335,1,8,0:2:0:0:
334,236,206488,1,2,1:2:0:0:
205,106,206641,38,0,L|223:-10,1,94.9999974632264,0|10,0:0|0:2,0:0:0:0:
143,23,206947,1,0,0:0:0:0:
358,81,207100,1,0,1:2:0:0:
330,151,207253,1,8,0:2:0:0:
191,230,207406,6,0,B|156:186|106:193|106:193|54:217|10:186,1,189.999994926453,4|0,1:2|1:2,0:0:0:0:
122,290,207865,2,0,L|132:395,1,94.9999974632264,2|10,0:0|0:2,0:0:0:0:
247,160,208172,1,0,0:0:0:0:
285,229,208325,2,0,L|265:344,1,94.9999974632264,2|0,1:2|1:2,0:0:0:0:
339,104,208631,2,0,P|332:63|336:-2,1,94.9999974632264,2|8,1:2|0:2,0:0:0:0:
484,100,208937,5,10,0:2:0:0:
416,72,209090,1,0,1:2:0:0:
461,276,209243,37,10,0:2:0:0:
398,179,209396,1,8,0:2:0:0:
272,241,209549,5,8,0:2:0:0:
247,78,209702,1,8,0:2:0:0:
84,284,209855,6,0,B|179:267|175:346|268:339,1,189.999994926453,6|2,1:2|0:0,0:0:0:0:
332,311,210314,1,2,1:2:0:0:
214,161,210468,2,0,B|149:189|149:189|55:164,1,142.49999619484,10|0,0:2|0:0,0:0:0:0:
79,170,210774,1,2,1:2:0:0:
186,28,210927,37,2,0:0:0:0:
247,78,211080,2,0,P|295:68|351:63,1,94.9999974632264,2|8,1:2|0:2,0:0:0:0:
458,203,211386,1,2,1:2:0:0:
439,278,211539,1,2,0:0:0:0:
458,77,211692,6,0,P|451:185|461:279,1,189.999994926453,10|2,0:2|1:2,0:0:0:0:
512,321,212151,1,10,0:2:0:0:
327,176,212304,6,0,P|247:204|208:328,1,189.999994926453,6|2,1:2|0:0,0:0:0:0:
258,348,212763,1,0,1:2:0:0:
105,384,212916,2,0,P|112:317|112:236,1,142.49999619484,10|0,0:2|0:0,0:0:0:0:
112,241,213223,1,2,1:2:0:0:
13,134,213376,37,0,0:0:0:0:
83,95,213529,2,0,B|127:110|127:110|204:84,1,94.9999974632264,2|8,1:2|0:2,0:0:0:0:
326,25,213835,1,2,1:2:0:0:
248,5,213988,1,0,0:0:0:0:
349,159,214141,6,0,P|416:154|503:157,1,142.49999619484,10|0,0:2|0:0,0:0:0:0:
491,156,214447,1,2,0:0:0:0:
407,71,214600,1,10,0:2:0:0:
332,357,214753,6,0,B|298:268|377:256|331:154,1,189.999994926453,6|2,1:2|0:0,0:0:0:0:
165,120,215212,1,2,1:2:0:0:
165,120,215289,1,0,3:0:0:0:
165,120,215365,2,0,P|186:189|275:210,1,142.49999619484,10|0,0:2|0:0,0:0:0:0:
234,9,215672,1,2,1:2:0:0:
157,26,215825,1,10,0:2:0:0:
365,109,215978,38,0,P|361:161|366:224,1,94.9999974632264,2|8,1:2|0:2,0:0:0:0:
317,263,216284,1,2,1:2:0:0:
184,213,216437,1,2,0:0:0:0:
138,279,216590,2,0,P|67:291|-6:312,1,142.49999619484,10|0,0:2|0:0,0:0:0:0:
0,310,216896,1,2,1:2:0:0:
102,371,217049,1,10,0:2:0:0:
92,189,217202,6,0,B|52:103|52:103|84:-5,1,189.999994926453,6|2,1:2|0:0,0:0:0:0:
228,129,217661,1,0,1:2:0:0:
228,129,217814,2,0,L|418:102,1,189.999994926453,10|2,0:2|1:2,0:0:0:0:
475,152,218274,1,0,0:0:0:0:
386,276,218427,5,2,1:2:0:0:
310,250,218580,1,8,0:2:0:0:
240,314,218733,37,10,0:2:0:0:
468,239,218886,1,0,1:2:0:0:
228,129,219039,6,0,B|118:146|163:205|51:223,1,189.999994926453,10|2,0:2|1:2,0:0:0:0:
8,167,219498,1,10,0:2:0:0:
22,334,219651,22,0,P|90:319|194:305,1,142.49999619484,6|0,1:1|0:0,0:0:0:0:
216,362,219957,1,0,1:1:0:0:
99,227,220110,1,0,0:0:0:0:
276,191,220263,6,0,P|317:124|298:47,1,142.49999619484,10|0,0:1|0:0,0:0:0:0:
242,18,220570,1,0,1:1:0:0:
407,116,220723,1,0,1:1:0:0:
360,251,220876,54,0,B|340:293|340:293|354:348,1,94.9999974632264,2|8,1:1|0:1,0:0:0:0:
441,204,221182,1,2,1:1:0:0:
448,225,221335,1,0,0:0:0:0:
407,116,221488,6,0,L|402:68,1,47.4999987316132,10|0,0:1|0:0,0:0:0:0:
302,178,221641,1,0,0:0:0:0:
222,131,221794,1,2,1:1:0:0:
222,131,221947,1,8,0:1:0:0:
48,222,222100,54,0,P|119:217|221:223,1,142.49999619484,6|0,1:1|0:0,0:0:0:0:
228,285,222406,1,0,1:1:0:0:
132,129,222559,1,0,0:0:0:0:
314,44,222712,6,0,B|284:109|284:109|307:199,1,142.49999619484,10|0,0:1|0:0,0:0:0:0:
302,253,223019,1,0,1:1:0:0:
377,117,223172,1,8,0:1:0:0:
510,257,223325,54,0,P|461:248|383:243,1,94.9999974632264,2|8,1:1|0:1,0:0:0:0:
339,337,223631,1,2,1:1:0:0:
337,360,223784,1,0,0:0:0:0:
302,253,223937,6,0,L|306:205,1,47.4999987316132,10|0,0:1|0:0,0:0:0:0:
189,284,224090,1,0,1:1:0:0:
127,223,224243,1,2,0:1:0:0:
127,223,224396,1,8,0:1:0:0:
23,352,224549,54,0,P|31:283|31:207,1,142.49999619484,6|0,1:1|0:0,0:0:0:0:
1,140,224855,1,0,1:1:0:0:
118,243,225008,1,0,0:0:0:0:
216,50,225161,6,0,P|213:124|220:197,1,142.49999619484,10|0,0:1|0:0,0:0:0:0:
278,241,225468,1,0,1:1:0:0:
129,142,225621,1,8,0:1:0:0:
305,86,225774,54,0,B|347:68|347:68|427:85,1,94.9999974632264,2|8,1:1|0:1,0:0:0:0:
466,192,226080,1,2,1:1:0:0:
441,187,226233,1,0,0:0:0:0:
338,284,226386,6,0,L|411:273,1,47.4999987316132,10|0,0:1|0:0,0:0:0:0:
512,359,226539,1,0,0:0:0:0:
292,372,226692,54,0,L|339:376,1,47.4999987316132,2|0,1:1|0:0,0:0:0:0:
476,278,226845,1,8,0:1:0:0:
280,213,226998,6,0,P|215:188|135:202,1,142.49999619484,6|0,1:1|0:0,0:0:0:0:
79,160,227304,1,0,1:1:0:0:
203,279,227457,1,0,0:0:0:0:
285,108,227610,54,0,P|333:98|394:93,1,94.9999974632264,10|8,0:1|0:1,0:0:0:0:
378,93,227840,1,0,3:0:0:0:
378,93,227917,1,8,0:1:0:0:
465,26,228070,1,8,0:1:0:0:
496,135,228223,6,0,B|487:185|487:185|492:200|492:200|481:268,3,119.999996337891,2|2|2|2,1:2|0:2|0:2|0:2,0:0:0:0:
398,330,229447,54,0,P|337:316|259:306,1,119.999996337891,2|10,1:2|0:2,0:0:0:0:
215,353,229906,1,8,0:2:0:0:
215,353,230059,1,2,1:2:0:0:
103,302,230365,1,0,1:2:0:0:
103,302,230519,2,0,L|92:232,1,59.9999981689454,8|2,0:2|1:2,0:0:0:0:
147,187,230825,1,8,0:2:0:0:
147,187,230978,2,0,L|154:126,1,59.9999981689454,0|0,1:2|0:0,0:0:0:0:
77,77,231284,2,0,P|145:89|201:61,1,119.999996337891,10|0,0:2|1:2,0:0:0:0:
255,108,231743,1,8,0:2:0:0:
353,42,231896,6,0,P|349:106|354:183,1,119.999996337891,2|2,1:2|0:0,0:0:0:0:
318,232,232355,1,0,1:2:0:0:
318,232,232508,2,0,B|256:217|256:217|182:241,1,119.999996337891,10|0,0:2|1:2,0:0:0:0:
164,304,232968,2,0,L|173:371,1,59.9999981689454,8|2,0:2|1:2,0:0:0:0:
89,282,233274,1,8,0:2:0:0:
89,282,233427,2,0,L|96:222,1,59.9999981689454,0|0,1:2|0:0,0:0:0:0:
50,158,233733,2,0,P|72:109|138:92,1,119.999996337891,10|0,0:2|1:2,0:0:0:0:
182,148,234192,1,8,0:2:0:0:
254,56,234345,54,0,P|322:53|392:59,1,119.999996337891,2|2,1:2|0:0,0:0:0:0:
424,119,234804,1,0,1:2:0:0:
424,119,234957,2,0,B|400:175|400:175|423:245,1,119.999996337891,10|0,0:2|1:2,0:0:0:0:
363,289,235416,2,0,L|301:276,1,59.9999981689454,8|2,0:2|1:2,0:0:0:0:
234,344,235723,1,8,0:2:0:0:
234,344,235876,2,0,P|255:291|250:223,1,119.999996337891,0|10,1:2|0:2,0:0:0:0:
188,185,236488,2,0,L|120:194,1,59.9999981689454,0|8,1:2|0:2,0:0:0:0:
32,83,236794,6,0,L|153:95,1,119.999996337891,2|2,1:2|0:0,0:0:0:0:
220,50,237253,1,8,0:2:0:0:
220,50,237330,1,8,0:2:0:0:
220,50,237406,1,10,0:2:0:0:
276,155,237559,2,0,L|352:145,1,59.9999981689454,0|0,1:2|0:0,0:0:0:0:
439,267,237865,53,0,1:2:0:0:
