osu file format v14

[General]
AudioFilename: audio.mp3
AudioLeadIn: 0
PreviewTime: 37404
Countdown: 0
SampleSet: Soft
StackLeniency: 0.4
Mode: 0
LetterboxInBreaks: 0
WidescreenStoryboard: 0

[Editor]
DistanceSpacing: 0.8
BeatDivisor: 4
GridSize: 32
TimelineZoom: 1.8

[Metadata]
Title:Attakain Dakara
TitleUnicode:あったかいんだからぁ
Artist:Hanatan
ArtistUnicode:花たん
Creator:torriru
Version:Special Soup
Source:
Tags:honeyworks because it's warm reisevia roda totsuki roda_totsuki japanese pop utaite jpop j-pop jrock j-rock rock
BeatmapID:2967837
BeatmapSetID:1442832

[Difficulty]
HPDrainRate:5.5
CircleSize:4
OverallDifficulty:8.5
ApproachRate:9
SliderMultiplier:1.8
SliderTickRate:1

[Events]
//Background and Video events
0,0,"attakain-bg.jpg",0,0
//Break Periods
2,51258,55952
//Storyboard Layer 0 (Background)
//Storyboard Layer 1 (Fail)
//Storyboard Layer 2 (Pass)
//Storyboard Layer 3 (Foreground)
//Storyboard Layer 4 (Overlay)
//Storyboard Sound Samples

[TimingPoints]
1493,352.941176470588,4,2,1,50,1,0
1493,-142.857142857143,4,2,1,50,0,0
7140,-125,4,2,1,60,0,0
11375,-125,4,2,1,45,0,0
11728,-125,4,2,1,55,0,0
12081,-125,4,2,1,65,0,0
12434,-125,4,2,1,75,0,0
13492,-666.666666666667,4,2,1,40,0,0
14110,-666.666666666667,4,2,1,5,0,0
14198,-100,4,2,1,70,0,0
25492,-100,4,2,1,40,0,0
26904,-125,4,2,1,60,0,0
32551,-111.111111111111,4,2,1,60,0,0
37140,-166.666666666667,4,2,1,60,0,0
38198,-100,4,2,1,75,0,1
42081,-71.4285714285714,4,2,1,75,0,1
42345,-71.4285714285714,4,2,1,5,0,1
42434,-100,4,2,1,75,0,1
48345,-100,4,2,1,5,0,1
48434,-100,4,2,1,75,0,1
49492,-100,4,2,1,75,0,0
51257,-142.857142857143,4,2,1,30,0,0
51258,352.941176470588,4,2,1,30,1,0
51258,-142.857142857143,4,2,1,30,0,0
56552,-200,4,2,1,30,0,0
56816,-200,4,2,1,30,0,0
56905,-125,4,2,1,50,0,0
59728,-111.111111111111,4,2,1,50,0,0
61140,-111.111111111111,4,2,1,45,0,0
61493,-111.111111111111,4,2,1,55,0,0
61846,-111.111111111111,4,2,1,65,0,0
62199,-111.111111111111,4,2,1,75,0,0
62552,-100,4,2,1,75,0,1
68199,-111.111111111111,4,2,1,65,0,1
71022,-105.263157894737,4,2,1,65,0,1
73846,-105.263157894737,4,2,1,65,0,0
74552,-666.666666666667,4,2,1,65,0,0
75257,-285.714285714286,4,2,1,65,0,0
76669,-285.714285714286,4,2,1,60,0,0
78081,-285.714285714286,4,2,1,50,0,0
79493,-285.714285714286,4,2,1,30,0,0

[Colours]
Combo1 : 255,198,198
Combo2 : 236,167,125
Combo3 : 174,236,131

[HitObjects]
0,112,1493,6,0,L|63:124,1,62.9999980773926,0|2,3:2|0:3,0:0:0:0:
96,108,1757,1,0,0:0:0:0:
96,108,1845,2,0,L|34:96,1,62.9999980773926,0|2,3:2|0:3,0:0:0:0:
184,80,2198,2,0,P|191:110|184:140,1,62.9999980773926,0|2,3:2|0:3,0:0:0:0:
172,172,2463,1,0,0:0:0:0:
172,172,2551,2,0,P|164:202|171:232,1,62.9999980773926,0|2,3:2|3:0,0:0:0:0:
268,308,2904,6,0,L|197:320,1,62.9999980773926,0|2,3:2|0:3,0:0:0:0:
173,324,3169,1,0,0:0:0:0:
173,324,3257,1,0,3:2:0:0:
344,264,3434,2,0,P|356:292|355:323,1,62.9999980773926,2|0,0:3|3:2,0:0:0:0:
268,220,3787,2,0,P|286:195|313:180,1,62.9999980773926,2|0,0:3|3:2,0:0:0:0:
432,272,4140,1,2,3:0:0:0:
432,272,4316,6,0,L|444:209,1,62.9999980773926,0|2,3:2|0:3,0:0:0:0:
432,188,4580,1,0,0:0:0:0:
432,188,4668,2,0,L|444:126,1,62.9999980773926,0|2,3:2|0:3,0:0:0:0:
461,40,5022,2,1,B|396:22|405:78|339:61,1,125.999996154785,0|0,3:2|3:2,0:0:0:0:
194,151,5728,6,0,L|206:88,1,62.9999980773926,0|2,3:2|0:3,0:0:0:0:
216,68,5992,1,0,0:0:0:0:
216,67,6081,1,0,3:2:0:0:
304,152,6257,2,0,L|292:214,1,62.9999980773926,2|0,0:3|3:2,0:0:0:0:
368,372,6610,1,2,0:3:0:0:
419,214,6787,1,0,3:2:0:0:
277,311,6963,1,8,0:0:0:0:
277,311,7051,1,8,0:0:0:0:
277,311,7140,6,1,B|237:291|196:321|217:324|179:350|142:337,1,144,6|0,3:2|3:2,0:0:0:0:
144,176,7669,1,2,0:0:0:0:
144,176,7845,2,0,P|158:209|157:245,1,72,2|8,3:2|0:3,0:0:0:0:
47,134,8198,1,2,3:2:0:0:
47,134,8375,1,4,0:3:0:0:
144,53,8551,6,1,B|189:46|189:46|232:73|232:73|278:65,1,144,6|2,3:2|3:2,0:0:0:0:
396,0,9081,1,8,0:0:0:0:
396,0,9169,1,8,0:0:0:0:
396,0,9257,2,0,L|405:51,3,36,8|8|8|8,0:3|0:3|0:0|0:0,0:0:0:0:
472,94,9610,2,0,L|463:145,3,36,2|0|10|8,3:2|0:0|0:0|0:0,0:0:0:0:
447,211,9963,6,0,L|369:226,1,72,6|0,3:2|0:0,0:0:0:0:
206,327,10316,1,10,0:0:0:0:
266,168,10492,1,8,0:3:0:0:
266,168,10581,1,4,0:3:0:0:
266,168,10669,2,0,P|279:200|279:236,1,72,2|2,3:2|3:2,0:0:0:0:
118,173,11022,1,8,0:0:0:0:
262,76,11198,1,4,0:3:0:0:
262,76,11287,1,4,0:3:0:0:
262,76,11375,5,10,0:0:0:0:
187,138,11551,1,10,0:0:0:0:
266,168,11728,1,10,0:0:0:0:
143,17,11904,1,10,0:0:0:0:
193,246,12081,5,10,0:0:0:0:
377,40,12257,1,10,0:0:0:0:
109,181,12434,1,10,0:0:0:0:
375,307,12610,1,10,0:0:0:0:
193,246,13492,6,0,L|202:194,1,47.2499985580445
121,112,14198,6,0,L|104:206,1,90,6|8,3:2|0:0,0:0:0:0:
103,235,14463,1,8,0:0:0:0:
103,235,14551,1,0,3:2:0:0:
0,300,14728,1,8,0:0:0:0:
0,300,14816,1,8,0:0:0:0:
0,300,14905,2,0,L|12:227,1,45,0|8,3:2|0:0,0:0:0:0:
110,190,15081,2,0,L|103:235,1,45,8|8,0:0|0:0,0:0:0:0:
0,0,15257,5,8,3:2:0:0:
22,3,15345,1,8,0:0:0:0:
44,7,15433,1,8,0:0:0:0:
66,11,15521,1,8,0:0:0:0:
88,15,15610,6,0,L|182:32,1,90,2|8,3:2|0:0,0:0:0:0:
211,40,15875,1,8,0:0:0:0:
211,40,15963,1,0,3:2:0:0:
354,75,16140,1,8,0:0:0:0:
354,75,16228,1,8,0:0:0:0:
354,75,16317,2,0,L|342:2,1,45,0|8,3:2|0:0,0:0:0:0:
256,144,16492,2,0,L|268:217,1,45,8|8,0:0|0:0,0:0:0:0:
452,216,16669,5,8,3:2:0:0:
432,204,16757,1,8,0:0:0:0:
410,200,16845,1,8,0:0:0:0:
388,202,16933,1,8,0:0:0:0:
368,212,17022,6,0,L|385:306,1,90,2|8,3:2|0:0,0:0:0:0:
393,335,17287,1,8,0:0:0:0:
393,335,17375,1,0,3:2:0:0:
276,232,17551,1,8,0:0:0:0:
276,232,17639,1,8,0:0:0:0:
276,232,17728,2,0,L|288:305,1,45,0|8,3:2|0:0,0:0:0:0:
208,380,17904,2,0,L|200:335,1,45,8|8,0:0|0:0,0:0:0:0:
44,192,18081,5,8,3:2:0:0:
64,180,18169,1,8,0:0:0:0:
86,176,18257,1,8,0:0:0:0:
108,178,18345,1,8,0:0:0:0:
128,188,18434,6,0,L|111:282,1,90,2|8,3:2|0:0,0:0:0:0:
109,311,18699,1,8,0:0:0:0:
109,311,18787,1,0,3:2:0:0:
276,232,18963,1,8,0:0:0:0:
276,232,19051,1,8,0:0:0:0:
276,232,19140,2,0,L|203:244,1,45,0|8,3:2|0:0,0:0:0:0:
273,92,19316,5,8,0:0:0:0:
304,72,19404,1,8,0:0:0:0:
341,68,19492,1,8,3:2:0:0:
377,79,19580,1,8,0:0:0:0:
404,104,19668,1,8,0:0:0:0:
418,138,19757,1,8,0:0:0:0:
417,176,19845,6,0,L|400:270,1,90,6|8,3:2|0:0,0:0:0:0:
400,295,20110,1,8,0:0:0:0:
400,295,20198,1,0,3:2:0:0:
276,232,20375,1,8,0:0:0:0:
276,232,20463,1,8,0:0:0:0:
276,232,20552,2,0,L|288:159,1,45,0|8,3:2|0:0,0:0:0:0:
424,131,20728,2,0,L|417:176,1,45,8|8,0:0|0:0,0:0:0:0:
503,12,20904,5,8,3:2:0:0:
471,16,20992,1,8,0:0:0:0:
440,21,21080,1,8,0:0:0:0:
409,27,21168,1,8,0:0:0:0:
383,30,21257,6,0,L|293:46,1,90,2|8,3:2|0:0,0:0:0:0:
271,54,21522,1,8,0:0:0:0:
271,54,21610,1,0,3:2:0:0:
104,16,21787,1,8,0:0:0:0:
104,16,21875,1,8,0:0:0:0:
104,16,21964,2,0,L|177:4,1,45,0|8,3:2|0:0,0:0:0:0:
168,168,22140,2,0,L|123:175,1,45,8|8,0:0|0:0,0:0:0:0:
60,256,22316,5,8,3:2:0:0:
45,280,22404,1,8,0:0:0:0:
40,306,22492,1,8,0:0:0:0:
43,333,22580,1,8,0:0:0:0:
55,357,22669,6,0,L|168:336,1,90,2|8,3:2|0:0,0:0:0:0:
178,338,22934,1,8,0:0:0:0:
178,338,23022,1,0,3:2:0:0:
296,188,23198,1,8,0:0:0:0:
296,188,23286,1,8,0:0:0:0:
296,188,23375,2,0,L|223:176,1,45,0|8,3:2|0:0,0:0:0:0:
308,312,23551,2,0,L|352:319,1,45,8|8,0:0|0:0,0:0:0:0:
448,104,23728,5,8,3:2:0:0:
452,136,23816,1,8,0:0:0:0:
457,167,23904,1,8,0:0:0:0:
463,198,23992,1,8,0:0:0:0:
468,224,24081,6,0,L|484:313,1,90,2|8,3:2|0:0,0:0:0:0:
493,347,24346,1,8,0:0:0:0:
493,347,24434,1,0,3:2:0:0:
364,267,24610,1,8,0:0:0:0:
364,267,24698,1,8,0:0:0:0:
364,267,24787,2,0,L|352:194,1,45,0|8,3:2|0:0,0:0:0:0:
448,104,24963,2,0,L|455:148,1,45,8|8,0:0|0:0,0:0:0:0:
264,40,25140,5,8,3:2:0:0:
319,30,25228,1,8,0:0:0:0:
374,20,25316,1,8,0:0:0:0:
430,10,25404,1,8,0:0:0:0:
485,0,25492,1,2,0:0:0:0:
24,240,26904,6,1,B|63:220|104:250|83:253|121:278|158:266,1,144,6|0,3:2|3:2,0:0:0:0:
157,112,27434,1,2,0:0:0:0:
157,112,27610,2,0,P|143:145|144:181,1,72,2|0,3:2|0:0,0:0:0:0:
282,94,27963,1,0,3:2:0:0:
159,22,28140,1,2,0:0:0:0:
159,22,28228,1,2,0:0:0:0:
159,22,28316,6,1,B|72:7|72:7|46:22|40:53,1,144,2|2,3:2|3:2,0:0:0:0:
143,180,28845,2,0,P|143:144|129:111,1,72,2|0,0:0|3:2,0:0:0:0:
82,252,29198,2,0,P|113:270|149:274,1,72,2|0,0:0|3:2,0:0:0:0:
279,199,29551,1,2,0:0:0:0:
279,199,29640,1,2,0:0:0:0:
279,199,29728,6,1,B|261:224|234:232|234:232|249:317,1,144,2|0,3:2|3:2,0:0:0:0:
371,220,30257,1,2,0:0:0:0:
371,220,30434,2,0,P|372:184|358:151,1,72,2|0,3:2|0:0,0:0:0:0:
252,109,30787,1,0,3:2:0:0:
372,17,30963,1,2,0:0:0:0:
372,17,31051,1,2,0:0:0:0:
372,17,31140,6,0,L|293:3,1,72,2|0,3:2|0:0,0:0:0:0:
181,121,31492,1,2,3:2:0:0:
181,121,31669,2,0,L|252:108,1,72,2|0,0:0|3:2,0:0:0:0:
191,234,32022,1,2,0:0:0:0:
96,136,32198,1,2,3:2:0:0:
154,317,32375,1,2,0:0:0:0:
154,317,32463,1,2,0:0:0:0:
154,317,32551,6,1,B|206:326|206:326|255:295|255:295|306:304,1,161.999995056153,6|8,3:2|0:0,0:0:0:0:
400,244,33081,1,2,0:0:0:0:
291,140,33257,2,0,P|275:177|276:217,1,80.9999975280763,2|2,3:2|0:0,0:0:0:0:
423,148,33610,1,10,0:0:0:0:
293,59,33787,1,2,0:0:0:0:
293,59,33875,1,2,0:0:0:0:
293,59,33964,6,0,L|214:45,1,80.9999975280763,2|2,3:2|0:0,0:0:0:0:
120,228,34316,1,10,0:0:0:0:
36,136,34492,2,0,L|115:122,1,80.9999975280763,2|0,0:0|3:2,0:0:0:0:
293,59,34845,1,2,0:0:0:0:
121,5,35022,1,10,0:0:0:0:
274,160,35198,1,2,0:0:0:0:
274,160,35287,1,2,0:0:0:0:
274,160,35375,6,0,P|314:161|351:145,1,80.9999975280763,2|0,3:2|0:0,0:0:0:0:
196,92,35728,2,0,P|174:126|169:166,1,80.9999975280763,10|0,0:0|0:0,0:0:0:0:
287,284,36081,1,2,3:2:0:0:
351,144,36257,1,2,0:0:0:0:
130,290,36434,5,8,0:0:0:0:
386,380,36610,1,10,0:0:0:0:
389,384,36963,1,2,0:0:0:0:
389,384,37140,2,0,L|398:330,1,53.9999983520508,2|2,0:0|0:0,0:0:0:0:
488,284,37492,6,0,L|479:338,1,53.9999983520508,2|2,0:0|0:0,0:0:0:0:
406,277,37845,2,0,L|397:331,1,53.9999983520508,2|2,0:0|0:0,0:0:0:0:
500,156,38198,6,1,B|443:146|443:146|389:180|389:180|332:170,1,180,6|8,3:2|0:0,0:0:0:0:
136,204,38728,1,2,0:3:0:0:
236,24,38904,2,0,P|256:64|253:112,1,90,0|2,3:2|0:3,0:0:0:0:
44,172,39257,2,0,P|68:134|111:112,1,90,8|2,0:0|0:3,0:0:0:0:
227,352,39610,6,0,L|136:336,1,90,0|2,3:2|0:3,0:0:0:0:
341,266,39963,1,8,0:0:0:0:
254,108,40140,2,0,P|234:147|234:192,1,90,2|0,0:3|3:2,0:0:0:0:
360,60,40492,2,0,P|335:22|292:0,1,90,2|8,0:3|0:0,0:0:0:0:
331,177,40845,1,2,0:3:0:0:
488,108,41022,6,1,B|466:143|430:149|430:149|449:257,1,180,0|8,3:2|0:0,0:0:0:0:
288,368,41551,1,2,0:3:0:0:
331,177,41728,2,0,L|347:266,1,90,0|2,3:2|0:3,0:0:0:0:
269,87,42081,6,0,P|359:72|425:134,1,188.999994232178,10|0,0:1|0:0,0:0:0:0:
331,177,42434,5,0,3:2:0:0:
480,11,42610,1,2,0:3:0:0:
476,228,42787,1,8,0:0:0:0:
329,24,42963,2,0,P|289:4|241:6,1,90,2|0,0:3|3:2,0:0:0:0:
139,205,43316,1,2,0:3:0:0:
49,0,43492,1,8,0:0:0:0:
246,125,43669,1,2,0:3:0:0:
28,184,43845,6,1,B|85:174|85:174|139:208|139:208|196:198,1,180,0|8,3:2|0:0,0:0:0:0:
360,342,44375,1,2,0:3:0:0:
330,143,44551,2,0,P|290:123|246:125,1,90,0|2,3:2|0:3,0:0:0:0:
387,249,44904,2,0,P|424:224|445:185,1,90,8|2,0:0|0:3,0:0:0:0:
254,272,45257,6,0,L|271:370,1,90,0|2,3:2|0:3,0:0:0:0:
65,304,45610,1,8,0:0:0:0:
187,179,45787,2,0,P|226:158|271:159,1,90,2|0,0:3|3:2,0:0:0:0:
375,324,46140,1,2,0:3:0:0:
397,125,46316,1,8,0:0:0:0:
254,272,46492,1,2,0:3:0:0:
382,37,46669,6,0,L|397:125,1,90,0|2,3:2|0:3,0:0:0:0:
499,253,47022,2,0,P|459:232|414:233,1,90,8|2,0:0|0:3,0:0:0:0:
201,338,47375,1,0,3:2:0:0:
291,108,47551,2,0,L|306:196,1,90,2|8,0:3|0:0,0:0:0:0:
98,157,47904,1,2,0:3:0:0:
252,29,48081,6,0,P|317:25|369:66,1,135,6|0,3:2|0:0,0:0:0:0:
291,108,48434,1,8,0:0:0:0:
453,24,48610,1,8,0:0:0:0:
453,24,48698,1,8,0:0:0:0:
453,24,48787,6,0,L|517:12,2,60,0|8|8,3:2|0:3|0:3,0:0:0:0:
380,126,49140,5,0,3:2:0:0:
376,106,49257,5,4,0:3:0:0:
373,86,49375,5,4,0:3:0:0:
369,66,49492,5,4,0:0:0:0:
52,384,56552,6,0,P|60:352|49:319,1,67.5
28,236,56905,6,1,B|67:216|108:246|87:249|125:274|162:262,1,144,6|0,3:2|3:2,0:0:0:0:
164,108,57434,1,2,0:0:0:0:
164,108,57610,2,0,P|150:141|151:177,1,72,2|2,3:2|0:0,0:0:0:0:
244,64,57963,2,0,P|222:35|190:18,1,72,2|2,3:2|0:0,0:0:0:0:
244,148,58316,6,0,L|385:122,1,144,6|2,3:2|3:2,0:0:0:0:
488,32,58846,2,0,P|474:64|474:100,1,72,2|0,0:0|3:2,0:0:0:0:
504,232,59199,1,2,0:0:0:0:
504,232,59375,2,0,P|482:203|451:186,1,72,2|2,3:2|0:0,0:0:0:0:
348,288,59728,6,0,L|442:271,1,80.9999975280763,6|0,3:2|0:0,0:0:0:0:
323,378,60081,2,0,L|417:361,1,80.9999975280763,2|0,3:2|0:0,0:0:0:0:
272,240,60434,1,2,3:2:0:0:
272,240,60610,2,0,P|252:280|257:317,1,80.9999975280763,2|0,0:0|3:2,0:0:0:0:
400,208,60963,1,2,0:0:0:0:
243,142,61140,5,8,0:0:0:0:
348,288,61316,1,10,0:0:0:0:
353,66,61493,1,10,0:0:0:0:
177,220,61669,1,10,0:0:0:0:
227,0,61846,5,10,0:0:0:0:
400,208,62022,1,10,0:0:0:0:
127,52,62199,1,10,0:0:0:0:
352,292,62375,1,10,0:0:0:0:
352,292,62463,1,8,0:0:0:0:
352,292,62552,6,0,P|437:296|496:212,1,180,6|10,3:2|0:1,0:0:0:0:
300,160,63081,1,2,0:3:0:0:
480,36,63257,2,0,L|463:128,1,90,0|2,3:2|0:3,0:0:0:0:
240,80,63610,2,0,P|280:60|328:63,1,90,8|2,0:0|0:3,0:0:0:0:
180,256,63963,6,0,L|91:239,1,90,0|2,3:2|0:3,0:0:0:0:
300,160,64316,1,8,0:0:0:0:
164,24,64493,2,0,P|144:63|145:108,1,90,2|0,0:3|3:2,0:0:0:0:
388,119,64846,2,0,P|363:81|324:61,1,90,2|8,0:3|0:0,0:0:0:0:
188,288,65199,1,8,0:0:0:0:
188,288,65287,1,8,0:0:0:0:
188,288,65375,6,1,B|245:278|245:278|299:312|299:312|356:302,1,180,0|8,3:2|0:0,0:0:0:0:
512,173,65905,1,2,0:3:0:0:
488,368,66081,2,0,L|505:279,1,90,0|2,3:2|0:3,0:0:0:0:
336,192,66434,2,0,P|375:212|420:210,1,90,8|2,0:0|0:3,0:0:0:0:
224,40,66787,5,0,3:2:0:0:
244,280,66963,1,2,0:3:0:0:
400,84,67140,1,8,0:0:0:0:
108,160,67316,2,0,L|198:175,1,90,2|0,0:3|3:2,0:0:0:0:
8,60,67669,1,2,0:3:0:0:
136,272,67846,1,8,0:0:0:0:
232,48,68022,1,8,0:0:0:0:
232,48,68110,1,8,0:0:0:0:
232,48,68199,6,1,B|276:25|323:60|299:63|342:91|384:78,1,161.999995056153,4|0,3:2|3:2,0:0:0:0:
508,0,68728,1,2,0:0:0:0:
508,0,68905,2,0,L|493:79,1,80.9999975280763,10|2,0:0|0:0,0:0:0:0:
396,157,69257,2,0,L|382:78,1,80.9999975280763,2|10,3:2|0:0,0:0:0:0:
493,275,69610,5,2,3:2:0:0:
297,219,69787,1,10,0:0:0:0:
493,171,69963,1,2,3:2:0:0:
373,319,70140,1,2,3:2:0:0:
373,319,70228,1,8,0:0:0:0:
373,319,70316,2,0,L|294:334,1,80.9999975280763,8|2,0:0|3:2,0:0:0:0:
218,204,70669,2,0,L|297:219,1,80.9999975280763,10|2,0:0|3:2,0:0:0:0:
188,372,71022,5,2,3:2:0:0:
113,189,71199,1,0,3:2:0:0:
289,302,71375,2,0,L|204:287,1,85.4999977169037,10|0,0:0|0:0,0:0:0:0:
398,142,71728,5,2,3:2:0:0:
387,318,71905,1,2,3:2:0:0:
218,204,72081,2,0,L|303:219,1,85.4999977169037,8|2,0:0|0:0,0:0:0:0:
193,0,72434,5,0,3:2:0:0:
113,189,72610,1,2,3:2:0:0:
312,129,72787,2,0,L|227:114,1,85.4999977169037,10|0,0:0|0:0,0:0:0:0:
386,173,73140,5,8,3:2:0:0:
375,189,73257,6,0,P|358:205|314:213,1,56.9999984779358,8|8,0:0|0:0,0:0:0:0:
390,81,73493,5,8,3:2:0:0:
410,83,73610,6,0,P|438:93|462:125,1,56.9999984779358,8|8,0:0|0:0,0:0:0:0:
446,255,74552,6,0,L|405:260,1,40.4999987640381,2|0,0:0|0:0,0:0:0:0:
326,214,75257,6,1,B|310:244|318:281|318:281|265:120|141:269|66:70|184:-21|260:38|277:65|277:65|288:36|335:-42|482:61|395:126|372:158,1,755.999976928712,6|2,3:2|0:0,0:0:0:0:
