osu file format v14

[General]
AudioFilename: audio.mp3
AudioLeadIn: 0
PreviewTime: 36787
Countdown: 0
SampleSet: Soft
StackLeniency: 0.7
Mode: 0
LetterboxInBreaks: 0
WidescreenStoryboard: 0

[Editor]
Bookmarks: 14198,26904,38198,51258,56905,62552
DistanceSpacing: 1
BeatDivisor: 4
GridSize: 4
TimelineZoom: 1.3

[Metadata]
Title:Attakain Dakara
TitleUnicode:あったかいんだからぁ
Artist:Hanatan
ArtistUnicode:花たん
Creator:Stjpa
Version:Normal
Source:
Tags:honeyworks hatsune miku vocaloid because it's warm pati p_i_k_u piku jbhyperion
BeatmapID:995803
BeatmapSetID:464644

[Difficulty]
HPDrainRate:3
CircleSize:2.7
OverallDifficulty:3
ApproachRate:3
SliderMultiplier:0.95
SliderTickRate:1

[Events]
//Background and Video events
0,0,"attakain-bg.png",0,0
//Break Periods
2,51258,55465
//Storyboard Layer 0 (Background)
//Storyboard Layer 1 (Fail)
//Storyboard Layer 2 (Pass)
//Storyboard Layer 3 (Foreground)
//Storyboard Sound Samples

[TimingPoints]
1493,352.941176470588,4,2,1,60,1,0
12787,-100,4,2,1,5,0,0
14198,-100,4,2,1,60,0,0
26904,-100,4,2,1,60,0,0
36787,-100,4,2,1,60,0,0
38198,-100,4,2,1,80,0,1
48787,-100,4,2,2,80,0,1
49492,-100,4,2,1,60,0,0
51258,352.941176470588,4,2,1,60,1,0
62552,-100,4,2,1,80,0,1
73140,-100,4,2,2,80,0,1
73846,-100,4,2,1,60,0,0

[Colours]
Combo1 : 255,209,164
Combo2 : 255,146,94
Combo3 : 255,188,121
Combo4 : 255,150,45

[HitObjects]
93,128,1493,6,0,P|69:165|71:230,1,95,8|8,0:0|0:0,0:0:0:0:
136,278,2198,2,0,P|181:265|233:287,1,95,8|8,0:0|0:0,0:0:0:0:
307,328,2904,2,0,P|351:343|396:330,2,95,8|8|8,0:0|0:0|0:0,0:0:0:0:
354,245,3963,1,8,0:0:0:0:
383,154,4316,6,0,P|390:103|360:56,1,95,8|8,0:0|0:0,0:0:0:0:
277,87,5022,2,0,P|269:137|299:184,1,95,8|8,0:0|0:0,0:0:0:0:
354,245,5728,2,0,P|309:267|258:263,1,95,8|8,0:0|0:0,0:0:0:0:
195,199,6434,1,8,0:0:0:0:
127,132,6787,1,8,0:0:0:0:
36,161,7140,6,0,P|23:204|46:255,1,95,12|8,0:0|0:0,0:0:0:0:
42,342,7845,2,0,P|88:333|120:299,1,95,8|8,0:0|0:0,0:0:0:0:
149,208,8551,1,12,0:0:0:0:
132,116,8904,1,8,0:0:0:0:
181,34,9257,2,0,L|279:42,1,95,8|4,0:0|0:3,0:0:0:0:
370,29,9963,6,0,P|403:59|412:118,1,95,12|4,0:0|0:3,0:0:0:0:
348,176,10669,2,0,P|315:206|306:265,1,95,8|12,0:3|0:3,0:0:0:0:
326,346,11375,2,0,P|281:348|231:316,1,95,8|8,0:0|0:0,0:0:0:0:
164,263,12081,1,0,0:0:0:0:
136,172,12434,2,0,L|143:111,1,47.5,0|0,0:0|0:0,0:0:0:0:
65,39,14198,6,0,P|110:25|170:47,1,95,12|12,0:0|0:3,0:0:0:0:
213,112,14904,2,0,P|258:123|303:109,1,95,8|12,0:3|0:3,0:0:0:0:
383,58,15610,1,12,0:3:0:0:
450,125,15963,2,0,P|459:190|439:232,2,95,12|12|12,0:3|0:3|0:3,0:0:0:0:
365,169,17022,6,0,P|351:214|358:260,1,95,12|12,0:3|0:3,0:0:0:0:
398,347,17728,2,0,P|339:355|304:339,1,95,12|12,0:3|0:3,0:0:0:0:
262,255,18434,1,12,0:3:0:0:
358,260,18787,2,0,P|400:231|418:190,2,95,12|12|12,0:3|0:3|0:3,0:0:0:0:
324,171,19845,6,0,P|279:134|241:130,1,95,12|12,0:3|0:3,0:0:0:0:
159,172,20551,2,0,L|163:269,1,95,12|12,0:3|0:3,0:0:0:0:
207,351,21257,1,12,0:3:0:0:
293,307,21610,2,0,P|341:321|378:369,2,95,12|12|12,0:3|0:3|0:3,0:0:0:0:
254,219,22669,6,0,L|250:124,1,95,12|12,0:3|0:3,0:0:0:0:
190,50,23375,2,0,P|144:37|97:43,1,95,12|12,0:3|0:3,0:0:0:0:
45,122,24081,2,0,P|30:166|38:213,2,95,12|12|12,0:3|0:3|0:3,0:0:0:0:
125,172,25140,1,12,0:3:0:0:
209,129,25492,5,2,0:0:0:0:
408,344,26904,6,0,P|366:353|306:334,1,95,12|8,0:0|0:0,0:0:0:0:
224,312,27610,2,0,L|111:315,1,95,8|8,0:0|0:0,0:0:0:0:
54,255,28316,2,0,P|31:303|44:362,2,95,8|8|8,0:0|0:0|0:0,0:0:0:0:
128,195,29375,1,8,0:0:0:0:
129,99,29728,6,0,P|112:47|81:17,1,95,8|8,0:0|0:0,0:0:0:0:
32,101,30434,2,0,L|23:202,1,95,8|8,0:0|0:0,0:0:0:0:
76,274,31140,2,0,P|124:290|167:275,1,95,8|8,0:0|0:0,0:0:0:0:
242,218,31845,1,8,0:0:0:0:
333,192,32198,1,8,0:0:0:0:
398,260,32551,6,0,P|348:285|298:277,1,95,4|4,0:0|0:3,0:0:0:0:
242,218,33257,2,0,L|218:118,1,95,8|4,0:0|0:3,0:0:0:0:
152,57,33963,2,0,P|191:35|242:35,2,95,8|4|8,0:0|0:3|0:0,0:0:0:0:
101,137,35022,1,4,0:3:0:0:
142,222,35375,6,0,P|151:270|123:323,1,95,8|4,0:0|0:3,0:0:0:0:
42,339,36081,1,8,0:0:0:0:
8,250,36434,2,0,L|10:181,1,47.5,4|4,0:3|0:3,0:0:0:0:
392,161,38198,6,0,P|341:174|295:159,1,95,12|4,0:0|0:3,0:0:0:0:
217,114,38904,2,0,P|204:165|219:211,1,95,8|4,0:0|0:3,0:0:0:0:
216,299,39610,2,0,P|162:287|133:252,2,95,8|4|8,0:0|0:3|0:0,0:0:0:0:
296,249,40669,1,4,0:3:0:0:
371,191,41022,6,0,P|421:198|456:230,1,95,8|4,0:0|0:3,0:0:0:0:
379,285,41728,2,0,P|329:278|294:246,1,95,8|4,0:0|0:3,0:0:0:0:
281,155,42434,2,0,L|303:59,2,95,8|4|8,0:0|0:3|0:0,0:0:0:0:
210,218,43492,1,4,0:3:0:0:
124,177,43845,6,0,P|109:129|120:83,1,95,8|4,0:0|0:3,0:0:0:0:
209,54,44551,2,0,B|256:67|256:67|305:62,1,95,8|4,0:0|0:3,0:0:0:0:
391,94,45257,2,0,P|397:43|368:-4,2,95,8|4|8,0:0|0:3|0:0,0:0:0:0:
338,173,46316,1,4,0:3:0:0:
276,245,46669,6,0,P|269:291|289:333,1,95,8|4,0:0|0:3,0:0:0:0:
384,339,47375,2,0,P|403:296|397:250,1,95,8|4,0:0|0:3,0:0:0:0:
338,173,48081,1,12,0:0:0:0:
249,139,48434,1,8,0:3:0:0:
159,170,48787,2,0,P|178:75|261:44,1,190,12|12,0:3|0:0,0:0:0:0:
77,148,56905,6,0,P|61:104|74:59,1,95,12|8,0:0|0:0,0:0:0:0:
160,98,57610,2,0,P|204:82|249:94,1,95,8|8,0:0|0:0,0:0:0:0:
208,180,58316,2,0,P|223:224|211:269,1,95,12|8,0:0|0:0,0:0:0:0:
124,227,59022,2,0,P|79:242|34:230,1,95,8|8,0:0|0:0,0:0:0:0:
78,145,59728,6,0,P|101:87|147:65,1,95,12|8,0:0|0:0,0:0:0:0:
219,90,60434,2,0,L|315:82,1,95,8|8,0:0|0:0,0:0:0:0:
401,120,61140,1,8,0:0:0:0:
412,214,61493,1,8,0:0:0:0:
339,275,61846,1,8,0:0:0:0:
245,259,62199,1,8,0:0:0:0:
304,172,62552,6,0,P|307:125|283:84,1,95,12|4,0:0|0:3,0:0:0:0:
199,41,63257,2,0,L|97:53,1,95,8|4,0:0|0:3,0:0:0:0:
30,112,63963,2,0,P|31:181|57:216,2,95,8|4|8,0:0|0:3|0:0,0:0:0:0:
120,143,65022,1,4,0:3:0:0:
207,180,65375,6,0,P|212:225|190:273,1,95,8|4,0:0|0:3,0:0:0:0:
102,301,66081,2,0,P|141:353|177:361,1,95,8|4,0:0|0:3,0:0:0:0:
259,336,66787,2,0,P|304:328|354:337,2,95,8|4|8,0:0|0:3|0:0,0:0:0:0:
189,269,67846,1,12,0:3:0:0:
252,196,68199,6,0,P|264:151|252:106,1,95,4|12,0:0|0:3,0:0:0:0:
185,38,68905,2,0,P|221:16|277:14,1,95,4|8,0:3|0:0,0:0:0:0:
338,81,69610,2,0,P|394:88|434:71,2,95,8|8|14,0:0|0:0|0:3,0:0:0:0:
272,13,70669,1,4,0:0:0:0:
196,71,71022,6,0,P|183:98|199:165,1,95,8|12,0:0|0:3,0:0:0:0:
282,198,71728,2,0,P|294:225|278:292,1,95,8|12,0:0|0:3,0:0:0:0:
197,332,72434,2,0,L|94:312,1,95,8|12,0:0|0:3,0:0:0:0:
53,232,73140,2,0,P|64:143|142:106,1,158.333333333333,12|4,0:3|0:3,0:0:0:0:
256,192,75257,12,2,79493,0:0:0:0:
