osu file format v14

[General]
AudioFilename: audio.mp3
AudioLeadIn: 0
PreviewTime: 36787
Countdown: 0
SampleSet: Soft
StackLeniency: 0.7
Mode: 0
LetterboxInBreaks: 0
WidescreenStoryboard: 0

[Editor]
Bookmarks: 14198,26904,38198,51258,56905,62552
DistanceSpacing: 1.2
BeatDivisor: 4
GridSize: 4
TimelineZoom: 1.3

[Metadata]
Title:Attakain Dakara
TitleUnicode:あったかいんだからぁ
Artist:Hanatan
ArtistUnicode:花たん
Creator:Stjpa
Version:Hard
Source:
Tags:honeyworks hatsune miku vocaloid because it's warm pati p_i_k_u piku jbhyperion
BeatmapID:995599
BeatmapSetID:464644

[Difficulty]
HPDrainRate:5
CircleSize:3.7
OverallDifficulty:6
ApproachRate:7.5
SliderMultiplier:1.35
SliderTickRate:1

[Events]
//Background and Video events
0,0,"attakain-bg.png",0,0
//Break Periods
2,51258,55493
//Storyboard Layer 0 (Background)
//Storyboard Layer 1 (Fail)
//Storyboard Layer 2 (Pass)
//Storyboard Layer 3 (Foreground)
//Storyboard Sound Samples

[TimingPoints]
1493,352.941176470588,4,2,1,60,1,0
8022,-100,4,2,2,60,0,0
8198,-100,4,2,1,60,0,0
8375,-100,4,2,2,60,0,0
8551,-100,4,2,1,60,0,0
11375,-100,4,2,1,30,0,0
11551,-100,4,2,1,35,0,0
11728,-100,4,2,1,40,0,0
11904,-100,4,2,1,45,0,0
12081,-100,4,2,1,50,0,0
12257,-100,4,2,1,55,0,0
12434,-100,4,2,1,60,0,0
12610,-100,4,2,1,65,0,0
14198,-100,4,2,1,60,0,0
25492,-100,4,2,1,60,0,0
26904,-100,4,2,1,60,0,0
38198,-90.9090909090909,4,2,1,80,0,1
48787,-90.9090909090909,4,2,2,80,0,1
49492,-100,4,2,1,60,0,0
51258,352.941176470588,4,2,1,60,1,0
62552,-90.9090909090909,4,2,1,80,0,1
73140,-90.9090909090909,4,2,2,80,0,1
73846,-100,4,2,1,60,0,0

[Colours]
Combo1 : 255,209,164
Combo2 : 255,146,94
Combo3 : 255,188,121
Combo4 : 255,150,45

[HitObjects]
34,162,1493,6,0,P|93:148|158:181,1,135,8|8,0:0|0:0,0:0:0:0:
199,249,2022,1,0,0:0:0:0:
247,313,2198,2,0,P|306:327|371:294,1,135,8|8,0:0|0:0,0:0:0:0:
426,235,2728,1,0,0:0:0:0:
435,154,2904,6,0,B|429:54|429:54|399:87,1,135,8|8,0:0|0:0,0:0:0:0:
350,140,3434,1,0,0:0:0:0:
281,97,3610,2,0,P|240:95|202:115,1,67.5,8|0,0:0|0:0,0:0:0:0:
149,151,3963,1,8,0:0:0:0:
71,293,4316,6,0,P|138:319|204:303,1,135,8|8,0:0|0:0,0:0:0:0:
255,248,4845,1,0,0:0:0:0:
319,198,5022,2,0,P|384:185|445:211,1,135,8|8,0:0|0:0,0:0:0:0:
305,294,5728,6,0,P|241:263|219:201,1,135,8|8,0:0|0:0,0:0:0:0:
235,126,6257,1,0,0:0:0:0:
213,47,6434,2,0,P|182:33|148:36,1,67.5,8|0,0:0|0:0,0:0:0:0:
78,76,6787,1,8,0:0:0:0:
42,153,6963,1,4,0:3:0:0:
42,153,7051,1,4,0:3:0:0:
42,153,7140,6,0,P|32:214|68:282,1,135,12|8,0:0|0:0,0:0:0:0:
136,313,7669,1,0,0:0:0:0:
205,271,7845,1,8,0:0:0:0:
212,190,8022,2,0,L|199:121,1,67.5,4|8,0:3|0:0,0:0:0:0:
165,49,8375,1,4,0:3:0:0:
239,13,8551,6,0,P|304:11|358:50,1,135,12|8,0:0|0:0,0:0:0:0:
344,131,9081,2,0,L|288:115,2,33.75,8|8|8,0:3|0:0|0:0,0:0:0:0:
406,182,9434,2,0,L|462:166,2,33.75,4|4|4,0:3|0:3|0:3,0:0:0:0:
341,231,9787,1,4,0:3:0:0:
341,231,9875,1,4,0:3:0:0:
341,231,9963,6,0,P|305:242|252:235,1,67.5,12|0,0:0|0:0,0:0:0:0:
205,200,10316,1,4,0:3:0:0:
132,165,10492,2,0,L|139:126,2,33.75,8|8|8,0:3|0:3|0:3,0:0:0:0:
69,216,10845,1,8,0:0:0:0:
75,296,11022,1,12,0:3:0:0:
146,353,11198,1,4,0:3:0:0:
146,353,11287,1,4,0:3:0:0:
146,353,11375,6,0,P|179:345|228:359,1,67.5,8|8,0:0|0:0,0:0:0:0:
291,367,11728,1,8,0:0:0:0:
368,344,11904,1,0,0:0:0:0:
310,286,12081,1,0,0:0:0:0:
388,265,12257,1,0,0:0:0:0:
332,205,12434,1,0,0:0:0:0:
411,188,12610,1,0,0:0:0:0:
220,97,14198,5,12,0:0:0:0:
152,142,14375,2,0,L|106:112,2,33.75,4|4|12,0:3|0:3|0:3,0:0:0:0:
137,221,14728,2,0,L|89:221,2,33.75,4|4|8,0:3|0:3|0:3,0:0:0:0:
207,260,15081,1,4,0:3:0:0:
283,235,15257,1,12,0:3:0:0:
374,101,15610,5,12,0:3:0:0:
318,41,15787,1,4,0:3:0:0:
318,41,15875,1,4,0:3:0:0:
318,41,15963,1,12,0:3:0:0:
231,48,16140,2,0,L|225:7,2,33.75,4|4|12,0:3|0:3|0:3,0:0:0:0:
262,122,16492,2,0,P|261:166|242:194,1,67.5,4|12,0:3|0:3,0:0:0:0:
127,289,17022,5,12,0:3:0:0:
61,336,17198,2,0,L|59:376,2,33.75,4|4|12,0:3|0:3|0:3,0:0:0:0:
45,256,17551,1,4,0:3:0:0:
45,256,17640,1,4,0:3:0:0:
45,256,17728,1,12,0:3:0:0:
102,199,17904,1,4,0:3:0:0:
181,216,18081,1,12,0:3:0:0:
321,303,18434,5,12,0:3:0:0:
391,264,18610,2,0,L|434:307,2,33.75,4|4|12,0:3|0:3|0:3,0:0:0:0:
422,189,18963,2,0,L|484:196,2,33.75,4|4|12,0:3|0:3|0:3,0:0:0:0:
370,126,19316,2,0,P|338:109|294:121,1,67.5,4|12,0:3|0:3,0:0:0:0:
237,154,19669,1,4,0:3:0:0:
179,96,19845,5,12,0:3:0:0:
94,108,20022,2,0,L|99:66,2,33.75,4|4|12,0:3|0:3|0:3,0:0:0:0:
66,184,20375,2,0,L|29:217,2,33.75,4|4|12,0:3|0:3|0:3,0:0:0:0:
146,173,20728,1,4,0:3:0:0:
175,248,20904,1,12,0:3:0:0:
302,147,21257,5,12,0:3:0:0:
374,110,21434,1,4,0:3:0:0:
374,110,21522,1,4,0:3:0:0:
374,110,21610,1,12,0:3:0:0:
450,137,21787,2,0,L|483:99,2,33.75,4|4|12,0:3|0:3|0:3,0:0:0:0:
389,190,22140,2,0,P|368:216|365:249,1,67.5,4|12,0:3|0:3,0:0:0:0:
244,358,22669,5,12,0:3:0:0:
176,313,22845,2,0,L|139:361,2,33.75,4|4|12,0:3|0:3|0:3,0:0:0:0:
217,243,23198,1,4,0:3:0:0:
217,243,23287,1,4,0:3:0:0:
217,243,23375,1,12,0:3:0:0:
134,213,23551,1,4,0:3:0:0:
116,136,23728,1,12,0:3:0:0:
277,122,24081,5,12,0:3:0:0:
349,86,24257,1,4,0:3:0:0:
349,86,24345,1,4,0:3:0:0:
349,86,24434,1,12,0:3:0:0:
427,67,24610,2,0,L|426:9,2,33.75,4|4|12,0:3|0:3|0:3,0:0:0:0:
460,141,24963,1,4,0:3:0:0:
414,208,25140,2,0,P|409:242|415:287,1,67.5,12|4,0:3|0:3,0:0:0:0:
458,340,25492,5,2,0:0:0:0:
97,62,26904,6,0,P|77:116|100:197,1,135,12|8,0:0|0:0,0:0:0:0:
154,244,27434,1,0,0:0:0:0:
225,207,27610,2,0,P|285:193|353:227,1,135,8|8,0:0|0:0,0:0:0:0:
208,303,28316,6,0,P|161:280|134:187,1,135,8|8,0:0|0:0,0:0:0:0:
144,126,28845,1,0,0:0:0:0:
215,86,29022,2,0,P|252:79|286:90,1,67.5,8|0,0:0|0:0,0:0:0:0:
343,138,29375,2,0,P|380:145|414:134,1,67.5,8|0,0:0|0:0,0:0:0:0:
436,60,29728,6,0,P|478:93|477:177,1,135,8|8,0:0|0:0,0:0:0:0:
461,248,30257,1,0,0:0:0:0:
398,299,30434,2,0,L|257:328,1,135,8|8,0:0|0:0,0:0:0:0:
188,183,31140,6,0,P|224:147|306:143,1,135,8|8,0:0|0:0,0:0:0:0:
385,154,31669,2,0,P|374:185|351:209,1,67.5,0|8,0:0|0:0,0:0:0:0:
274,235,32021,1,0,0:0:0:0:
201,271,32198,2,0,P|157:263|128:273,1,67.5,8|0,0:0|0:0,0:0:0:0:
169,342,32551,6,0,P|233:367|297:331,1,135,4|4,0:0|0:3,0:0:0:0:
341,278,33081,1,0,0:0:0:0:
392,215,33257,2,0,P|385:158|359:137,1,67.5,8|0,0:0|0:0,0:0:0:0:
313,197,33610,2,0,P|256:204|235:230,1,67.5,4|0,0:3|0:0,0:0:0:0:
189,263,33963,6,0,P|170:220|174:181,2,67.5,8|0|4,0:0|0:0|0:3,0:0:0:0:
265,290,34492,1,0,0:0:0:0:
206,346,34669,2,0,P|161:344|133:322,1,67.5,8|0,0:0|0:0,0:0:0:0:
87,273,35022,2,0,L|72:200,1,67.5,4|0,0:3|0:0,0:0:0:0:
80,124,35375,6,0,P|138:103|203:131,1,135,8|4,0:0|0:3,0:0:0:0:
263,184,35904,1,0,0:0:0:0:
298,256,36081,2,0,P|266:265|234:259,2,67.5,8|0|4,0:0|0:0|0:3,0:0:0:0:
369,217,36610,1,4,0:3:0:0:
194,138,38198,6,0,P|276:135|318:83,1,148.50000453186,12|4,0:0|0:3,0:0:0:0:
232,55,38728,1,0,0:0:0:0:
143,62,38904,2,0,P|104:108|130:201,1,148.50000453186,8|4,0:0|0:3,0:0:0:0:
173,260,39434,1,0,0:0:0:0:
241,316,39610,6,0,L|399:296,1,148.50000453186,8|4,0:0|0:3,0:0:0:0:
475,319,40140,1,0,0:0:0:0:
501,234,40316,2,0,L|494:152,1,74.2500022659302,8|0,0:0|0:0,0:0:0:0:
464,75,40669,2,0,P|409:89|386:131,1,74.2500022659302,4|0,0:3|0:0,0:0:0:0:
345,173,41022,6,0,P|312:116|337:39,1,148.50000453186,8|4,0:0|0:3,0:0:0:0:
398,101,41551,1,0,0:0:0:0:
430,184,41728,2,0,P|400:236|356:252,1,74.2500022659302,8|0,0:0|0:0,0:0:0:0:
300,244,42081,2,0,P|248:214|232:170,1,74.2500022659302,4|0,0:3|0:0,0:0:0:0:
172,148,42434,6,0,P|128:152|98:184,1,74.2500022659302,8|0,0:0|0:0,0:0:0:0:
167,232,42787,1,4,0:3:0:0:
210,307,42963,2,0,P|239:330|276:332,1,74.2500022659302,0|8,0:0|0:0,0:0:0:0:
330,258,43316,1,0,0:0:0:0:
322,169,43492,2,0,P|277:182|249:217,1,74.2500022659302,4|0,0:3|0:0,0:0:0:0:
330,258,43845,6,0,P|385:236|410:154,1,148.50000453186,8|4,0:0|0:3,0:0:0:0:
355,85,44375,1,0,0:0:0:0:
274,46,44551,2,0,P|236:42|192:60,1,74.2500022659302,8|0,0:0|0:0,0:0:0:0:
148,124,44904,2,0,L|148:213,1,74.2500022659302,4|0,0:3|0:0,0:0:0:0:
175,283,45257,6,0,P|219:259|231:228,2,74.2500022659302,8|0|4,0:0|0:0|0:3,0:0:0:0:
88,259,45787,1,0,0:0:0:0:
23,321,45964,2,0,P|37:354|68:373,1,74.2500022659302,8|0,0:0|0:0,0:0:0:0:
151,379,46316,2,0,L|227:359,1,74.2500022659302,4|0,0:3|0:0,0:0:0:0:
267,291,46669,6,0,P|328:254|406:285,1,148.50000453186,8|4,0:0|0:3,0:0:0:0:
452,347,47198,1,0,0:0:0:0:
485,264,47375,2,0,L|471:112,1,148.50000453186,8|4,0:0|0:3,0:0:0:0:
391,76,47904,1,0,0:0:0:0:
309,113,48081,6,0,P|288:143|287:179,1,74.2500022659302,12|0,0:0|0:0,0:0:0:0:
331,257,48434,1,8,0:3:0:0:
386,326,48610,1,4,0:3:0:0:
386,326,48698,1,4,0:3:0:0:
386,326,48787,6,0,B|393:353|393:353|387:382,2,49.5000015106202,12|4|4,0:3|0:3|0:3,0:0:0:0:
331,257,49140,2,0,B|324:230|324:230|330:201,2,49.5000015106202,12|4|4,0:3|0:3|0:3,0:0:0:0:
313,329,49492,5,12,0:0:0:0:
108,108,56905,6,0,P|144:116|192:100,1,67.5,12|0,0:0|0:0,0:0:0:0:
231,52,57258,2,0,P|267:44|315:60,1,67.5,8|0,0:0|0:0,0:0:0:0:
352,108,57610,2,0,L|332:184,1,67.5,8|0,0:0|0:0,0:0:0:0:
277,231,57963,2,0,L|297:307,1,67.5,8|0,0:0|0:0,0:0:0:0:
327,370,58316,6,0,P|370:325|371:294,1,67.5,12|0,0:0|0:0,0:0:0:0:
404,249,58669,2,0,P|397:208|375:183,1,67.5,8|0,0:0|0:0,0:0:0:0:
307,154,59022,2,0,P|314:113|336:88,1,67.5,8|0,0:0|0:0,0:0:0:0:
379,29,59375,2,0,P|325:12|288:29,1,67.5,8|0,0:0|0:0,0:0:0:0:
234,11,59728,6,0,L|178:67,1,67.5,12|0,0:0|0:0,0:0:0:0:
107,79,60081,2,0,L|106:157,1,67.5,8|0,0:0|0:0,0:0:0:0:
58,212,60434,2,0,L|103:276,1,67.5,8|0,0:0|0:0,0:0:0:0:
115,346,60787,2,0,L|190:365,1,67.5,8|0,0:0|0:0,0:0:0:0:
259,344,61140,5,8,0:0:0:0:
332,310,61316,1,8,0:0:0:0:
265,262,61493,1,8,0:0:0:0:
341,234,61669,1,8,0:0:0:0:
282,177,61846,5,8,0:0:0:0:
246,105,62022,1,8,0:0:0:0:
301,43,62199,1,8,0:0:0:0:
377,69,62375,1,12,0:3:0:0:
383,158,62552,6,0,P|359:223|407:301,1,148.50000453186,12|4,0:0|0:3,0:0:0:0:
438,367,63081,1,0,0:0:0:0:
349,366,63257,2,0,L|195:352,1,148.50000453186,8|4,0:0|0:3,0:0:0:0:
115,378,63787,1,0,0:0:0:0:
77,297,63963,6,0,P|135:237|207:244,1,148.50000453186,8|4,0:0|0:3,0:0:0:0:
278,275,64493,2,0,P|312:285|348:277,1,74.2500022659302,0|8,0:0|0:0,0:0:0:0:
312,195,64845,1,0,0:0:0:0:
277,112,65022,1,4,0:3:0:0:
330,40,65199,1,4,0:3:0:0:
330,40,65287,1,4,0:3:0:0:
330,40,65375,6,0,P|364:16|467:43,1,148.50000453186,8|4,0:0|0:3,0:0:0:0:
500,118,65905,1,0,0:0:0:0:
445,188,66081,2,0,L|469:334,1,148.50000453186,8|4,0:0|0:3,0:0:0:0:
385,377,66610,1,0,0:0:0:0:
318,318,66787,6,0,L|170:295,1,148.50000453186,8|4,0:0|0:3,0:0:0:0:
92,336,67316,1,0,0:0:0:0:
25,276,67493,2,0,P|2:323|11:363,2,74.2500022659302,8|0|12,0:0|0:0|0:3,0:0:0:0:
91,216,68022,1,4,0:3:0:0:
91,216,68110,1,4,0:3:0:0:
91,216,68199,6,0,L|83:57,1,148.50000453186,4|12,0:0|0:3,0:0:0:0:
157,18,68728,1,0,0:0:0:0:
229,70,68905,2,0,P|269:78|306:62,1,74.2500022659302,4|0,0:3|0:0,0:0:0:0:
375,113,69257,2,0,P|383:153|367:190,1,74.2500022659302,8|4,0:0|0:3,0:0:0:0:
294,227,69610,6,0,L|288:137,2,74.2500022659302,8|4|8,0:0|0:3|0:0,0:0:0:0:
294,316,70140,1,4,0:3:0:0:
294,316,70228,1,4,0:3:0:0:
294,316,70316,2,0,P|347:322|391:301,1,74.2500022659302,14|8,0:3|0:0,0:0:0:0:
431,255,70669,2,0,L|452:148,1,74.2500022659302,4|8,0:0|0:0,0:0:0:0:
418,96,71022,6,0,P|372:102|341:123,1,74.2500022659302,8|8,0:0|0:0,0:0:0:0:
287,181,71375,2,0,L|273:263,1,74.2500022659302,12|0,0:3|0:0,0:0:0:0:
215,321,71728,2,0,P|169:315|138:294,1,74.2500022659302,8|8,0:0|0:0,0:0:0:0:
85,234,72081,2,0,L|99:152,1,74.2500022659302,12|0,0:3|0:0,0:0:0:0:
171,111,72434,6,0,P|207:103|242:113,1,74.2500022659302,8|8,0:0|0:0,0:0:0:0:
324,133,72787,2,0,P|360:140|395:130,1,74.2500022659302,12|0,0:3|0:0,0:0:0:0:
456,65,73140,6,0,B|464:42|464:42|458:12,2,49.5000015106202,12|4|4,0:3|0:3|0:3,0:0:0:0:
395,129,73493,2,0,B|387:152|387:152|393:182,2,49.5000015106202,12|4|4,0:3|0:3|0:3,0:0:0:0:
256,192,74552,5,2,0:0:0:0:
256,192,75257,1,6,0:0:0:0:
256,192,75346,12,2,79493,0:0:0:0:
