osu file format v14

[General]
AudioFilename: audio.mp3
AudioLeadIn: 0
PreviewTime: 36787
Countdown: 0
SampleSet: Soft
StackLeniency: 0.7
Mode: 0
LetterboxInBreaks: 0
WidescreenStoryboard: 0

[Editor]
Bookmarks: 14198,21257,21963,26904,38198,51258,56905,62552
DistanceSpacing: 1
BeatDivisor: 4
GridSize: 4
TimelineZoom: 1.2

[Metadata]
Title:Attakain Dakara
TitleUnicode:あったかいんだからぁ
Artist:Hanatan
ArtistUnicode:花たん
Creator:Stjpa
Version:Advanced
Source:
Tags:honeyworks hatsune miku vocaloid because it's warm pati p_i_k_u piku jbhyperion
BeatmapID:1053956
BeatmapSetID:464644

[Difficulty]
HPDrainRate:4
CircleSize:3.5
OverallDifficulty:4
ApproachRate:5
SliderMultiplier:1.2
SliderTickRate:1

[Events]
//Background and Video events
0,0,"attakain-bg.png",0,0
//Break Periods
2,51258,55493
//Storyboard Layer 0 (Background)
//Storyboard Layer 1 (Fail)
//Storyboard Layer 2 (Pass)
//Storyboard Layer 3 (Foreground)
//Storyboard Sound Samples

[TimingPoints]
1493,352.941176470588,4,2,1,60,1,0
8022,-100,4,2,2,60,0,0
8198,-100,4,2,1,60,0,0
8375,-100,4,2,2,60,0,0
8551,-100,4,2,1,60,0,0
12787,-100,4,2,1,5,0,0
14198,-100,4,2,1,60,0,0
25492,-100,4,2,1,5,0,0
26904,-100,4,2,1,60,0,0
38198,-100,4,2,1,80,0,1
48787,-100,4,2,2,80,0,1
49492,-100,4,2,1,60,0,0
51258,352.941176470588,4,2,1,60,1,0
62552,-100,4,2,1,80,0,1
73140,-100,4,2,2,80,0,1
73846,-100,4,2,1,60,0,0

[Colours]
Combo1 : 255,209,164
Combo2 : 255,146,94
Combo3 : 255,188,121
Combo4 : 255,150,45

[HitObjects]
23,87,1493,6,0,B|102:68|102:68|165:84,1,120,8|8,0:0|0:0,0:0:0:0:
236,148,2198,2,0,P|298:142|346:102,1,120,8|8,0:0|0:0,0:0:0:0:
441,38,2904,2,0,B|426:99|426:99|456:170,1,120,8|8,0:0|0:0,0:0:0:0:
480,202,3434,2,0,P|477:255|412:298,1,120,0|0,0:0|0:0,0:0:0:0:
369,310,3963,1,8,0:0:0:0:
258,263,4316,6,0,P|245:203|270:137,1,120,8|8,0:0|0:0,0:0:0:0:
306,107,4845,1,0,0:0:0:0:
264,62,5022,2,0,B|219:50|219:50|131:58,1,120,8|8,0:0|0:0,0:0:0:0:
78,156,5728,2,0,B|83:197|83:197|103:233|103:233|106:295,1,120,8|8,0:0|0:0,0:0:0:0:
135,321,6257,2,0,P|192:325|255:290,1,120,0|0,0:0|0:0,0:0:0:0:
285,250,6787,1,8,0:0:0:0:
387,187,7140,6,0,P|374:247|405:311,1,120,12|8,0:0|0:0,0:0:0:0:
496,235,7845,2,0,L|490:170,1,60,8|4,0:0|0:3,0:0:0:0:
494,115,8198,2,0,L|471:53,1,60,8|4,0:0|0:3,0:0:0:0:
426,20,8551,1,12,0:0:0:0:
333,96,8904,2,0,B|277:111|277:111|198:93,1,120,8|8,0:0|0:0,0:0:0:0:
112,37,9610,2,0,P|91:73|95:111,1,60,4|4,0:3|0:3,0:0:0:0:
112,146,9963,5,12,0:0:0:0:
192,235,10316,2,0,B|219:244|219:244|252:236,1,60,4|8,0:3|0:3,0:0:0:0:
307,218,10669,2,0,B|311:127|311:127|335:84,1,120,8|12,0:3|0:3,0:0:0:0:
425,35,11375,2,0,B|452:25|452:25|482:33,2,60,8|8|8,0:0|0:0|0:0,0:0:0:0:
451,152,12081,2,0,B|423:161|423:161|393:153,2,60,0|0|0,0:0|0:0|0:0,0:0:0:0:
506,175,12610,1,0,0:0:0:0:
70,171,14198,6,0,P|51:226|68:293,1,120,12|12,0:0|0:3,0:0:0:0:
171,232,14904,2,0,P|199:224|228:231,2,60,8|4|12,0:3|0:3|0:3,0:0:0:0:
207,346,15610,1,12,0:3:0:0:
324,321,15963,2,0,P|332:292|325:263,1,60,12|4,0:3|0:3,0:0:0:0:
305,206,16316,2,0,P|297:177|304:148,1,60,12|4,0:3|0:3,0:0:0:0:
322,91,16669,1,12,0:3:0:0:
422,157,17022,6,0,P|443:102|428:43,1,120,12|12,0:3|0:3,0:0:0:0:
322,91,17728,2,0,B|330:65|330:65|327:31,2,60,12|4|12,0:3|0:3|0:3,0:0:0:0:
235,175,18434,1,12,0:3:0:0:
162,79,18787,2,0,P|131:76|98:84,1,60,12|4,0:3|0:3,0:0:0:0:
56,120,19140,2,0,P|53:151|61:184,1,60,12|4,0:3|0:3,0:0:0:0:
109,211,19492,2,0,P|112:242|104:275,1,60,12|4,0:3|0:3,0:0:0:0:
133,323,19845,6,0,B|208:319|208:319|255:291,1,120,12|12,0:3|0:3,0:0:0:0:
365,278,20551,2,0,P|379:304|382:333,2,60,12|4|12,0:3|0:3|0:3,0:0:0:0:
286,186,21257,2,0,P|280:157|284:128,1,60,12|4,0:3|0:3,0:0:0:0:
320,80,21609,1,12,0:3:0:0:
435,40,21963,2,0,P|441:69|437:98,1,60,12|4,0:3|0:3,0:0:0:0:
410,152,22316,1,12,0:3:0:0:
471,254,22669,6,0,P|415:270|332:243,1,120,12|12,0:3|0:3,0:0:0:0:
269,173,23375,2,0,P|273:143|268:114,2,60,12|4|12,0:3|0:3|0:3,0:0:0:0:
197,269,24081,1,12,0:3:0:0:
86,222,24434,2,0,P|91:192|86:162,1,60,12|4,0:3|0:3,0:0:0:0:
40,123,24787,2,0,P|35:93|40:63,1,60,12|4,0:3|0:3,0:0:0:0:
85,25,25140,2,0,P|114:20|144:25,1,60,12|4,0:3|0:3,0:0:0:0:
189,64,25492,5,2,0:0:0:0:
447,341,26904,6,0,B|434:263|434:263|443:215,1,120,12|8,0:0|0:0,0:0:0:0:
505,120,27610,2,0,P|441:100|382:116,1,120,8|8,0:0|0:0,0:0:0:0:
289,177,28316,2,0,B|271:234|271:234|287:299,1,120,8|8,0:0|0:0,0:0:0:0:
285,352,28845,2,0,P|224:362|165:329,1,120,0|0,0:0|0:0,0:0:0:0:
132,292,29375,1,8,0:0:0:0:
183,183,29728,6,0,P|194:123|170:54,1,120,8|8,0:0|0:0,0:0:0:0:
58,78,30434,2,0,P|47:138|71:207,1,120,8|8,0:0|0:0,0:0:0:0:
132,292,31140,2,0,P|197:307|256:280,1,120,8|8,0:0|0:0,0:0:0:0:
286,244,31669,2,0,B|273:184|273:184|299:106,1,120,0|0,0:0|0:0,0:0:0:0:
331,83,32198,1,8,0:0:0:0:
444,122,32551,6,0,L|453:187,1,60,4|0,0:0|0:0,0:0:0:0:
483,232,32904,2,0,L|474:356,1,120,4|8,0:3|0:0,0:0:0:0:
371,289,33610,1,4,0:3:0:0:
264,345,33963,2,0,P|213:357|196:350,1,60,8|0,0:0|0:0,0:0:0:0:
158,320,34316,2,0,B|172:241|172:241|163:194,1,120,4|8,0:3|0:0,0:0:0:0:
110,94,35022,1,4,0:3:0:0:
61,203,35375,6,0,B|53:242|53:242|67:321,2,120,8|4|8,0:0|0:3|0:0,0:0:0:0:
110,94,36434,2,0,B|141:90|141:90|176:99,1,60,4|4,0:3|0:3,0:0:0:0:
476,226,38198,6,0,P|420:243|347:219,1,120,12|4,0:0|0:3,0:0:0:0:
318,186,38728,1,0,0:0:0:0:
277,141,38904,2,0,B|239:118|239:118|151:106,1,120,8|4,0:0|0:3,0:0:0:0:
56,162,39610,2,0,P|84:211|75:282,1,120,8|4,0:0|0:3,0:0:0:0:
74,332,40140,2,0,B|111:354|111:354|200:350,1,120,0|0,0:0|0:0,0:0:0:0:
240,321,40669,1,4,0:3:0:0:
200,207,41022,6,0,B|182:147|182:147|200:76,1,120,8|4,0:0|0:3,0:0:0:0:
238,49,41551,1,0,0:0:0:0:
290,78,41728,2,0,B|320:91|320:91|375:91,1,60,8|0,0:0|0:0,0:0:0:0:
402,113,42081,1,4,0:3:0:0:
448,221,42434,2,0,P|456:285|421:338,1,120,8|4,0:0|0:3,0:0:0:0:
371,348,42963,2,0,B|292:351|292:351|252:332,1,120,0|0,0:0|0:0,0:0:0:0:
213,290,43492,1,4,0:3:0:0:
274,186,43845,6,0,P|287:127|268:60,1,120,8|4,0:0|0:3,0:0:0:0:
163,20,44551,2,0,P|125:24|102:38,1,60,8|0,0:0|0:0,0:0:0:0:
60,73,44904,1,4,0:3:0:0:
57,192,45257,2,0,B|49:221|49:221|55:259,2,60,8|0|4,0:0|0:0|0:3,0:0:0:0:
111,166,45787,2,0,P|171:149|229:173,1,120,0|0,0:0|0:0,0:0:0:0:
264,212,46316,1,4,0:3:0:0:
342,303,46669,6,0,P|397:322|454:305,2,120,8|4|8,0:0|0:3|0:0,0:0:0:0:
399,197,47728,1,4,0:3:0:0:
345,89,48081,2,0,P|283:70|219:93,1,120,12|8,0:0|0:3,0:0:0:0:
164,184,48787,2,0,B|166:233|166:233|183:267|183:267|183:325,2,120,12|12|12,0:3|0:3|0:0,0:0:0:0:
196,148,56905,6,0,P|185:208|204:273,2,120,12|8|8,0:0|0:0|0:0,0:0:0:0:
256,44,57963,1,8,0:0:0:0:
316,148,58316,2,0,P|327:208|308:273,2,120,12|8|8,0:0|0:0|0:0,0:0:0:0:
256,44,59375,1,8,0:0:0:0:
136,32,59728,6,0,P|105:46|67:125,1,120,12|8,0:0|0:0,0:0:0:0:
64,239,60434,2,0,P|78:270|157:308,1,120,8|8,0:0|0:0,0:0:0:0:
268,335,61140,2,0,B|296:341|296:341|333:333,2,60,8|8|8,0:0|0:0|0:0,0:0:0:0:
227,221,61846,2,0,P|228:190|216:157,1,60,8|8,0:0|0:0,0:0:0:0:
177,119,62199,1,8,0:0:0:0:
63,157,62552,6,0,B|74:83|74:83|102:36,1,120,12|4,0:0|0:3,0:0:0:0:
152,20,63081,1,0,0:0:0:0:
209,37,63257,2,0,P|269:51|340:29,1,120,8|4,0:0|0:3,0:0:0:0:
424,105,63963,2,0,B|436:164|436:164|422:228,1,120,8|4,0:0|0:3,0:0:0:0:
398,277,64493,2,0,P|338:290|277:262,1,120,0|0,0:0|0:0,0:0:0:0:
248,220,65022,1,4,0:3:0:0:
290,107,65375,6,0,P|231:96|173:119,1,120,8|4,0:0|0:3,0:0:0:0:
146,169,65905,1,0,0:0:0:0:
164,225,66081,2,0,P|172:278|137:339,1,120,8|4,0:0|0:3,0:0:0:0:
51,254,66787,2,0,B|47:220|47:220|50:133,1,120,8|4,0:0|0:3,0:0:0:0:
98,99,67316,2,0,P|129:109|211:82,1,120,0|0,0:0|0:0,0:0:0:0:
254,42,67846,1,12,0:3:0:0:
274,160,68199,6,0,P|256:217|282:296,1,120,4|12,0:0|0:3,0:0:0:0:
364,347,68905,2,0,B|378:319|378:319|381:286,1,60,4|0,0:3|0:0,0:0:0:0:
394,232,69257,1,8,0:0:0:0:
419,114,69610,2,0,B|448:106|448:106|482:115,2,60,8|4|8,0:0|0:3|0:0,0:0:0:0:
361,131,70140,2,0,B|299:138|299:138|231:118,1,120,4|8,0:3|0:0,0:0:0:0:
193,88,70669,1,4,0:0:0:0:
98,161,71022,6,0,L|83:233,2,60,8|8|12,0:0|0:0|0:3,0:0:0:0:
193,233,71728,2,0,L|208:305,2,60,8|8|12,0:0|0:0|0:3,0:0:0:0:
225,182,72257,2,0,P|276:162|341:181,1,120,0|8,0:0|0:0,0:0:0:0:
386,213,72787,1,12,0:3:0:0:
324,316,73140,6,0,L|332:382,2,40,12|4|4,0:3|0:3|0:3,0:0:0:0:
290,293,73493,2,0,L|282:227,2,40,12|4|4,0:3|0:3|0:3,0:0:0:0:
256,192,75257,12,2,79493,0:0:0:0:
