osu file format v14

[General]
AudioFilename: Attakain Dakara.mp3
AudioLeadIn: 0
PreviewTime: 37317
Countdown: 0
SampleSet: None
StackLeniency: 0.7
Mode: 0
LetterboxInBreaks: 0
EpilepsyWarning: 1
WidescreenStoryboard: 1

[Editor]
Bookmarks: 35729
DistanceSpacing: 1
BeatDivisor: 4
GridSize: 4
TimelineZoom: 1

[Metadata]
Title:Attakain Dakara
TitleUnicode:あったかいんだからぁ♪
Artist:Hanatan
ArtistUnicode:花たん
Creator:Down
Version:Soup Tabetai
Source:
Tags:honeyworks kumamushi hatsune miku vocaloid Because It's Warm left rose_pacifica taeyang
BeatmapID:847296
BeatmapSetID:388403

[Difficulty]
HPDrainRate:7
CircleSize:4
OverallDifficulty:8
ApproachRate:9
SliderMultiplier:1.7
SliderTickRate:2

[Events]
//Background and Video events
0,0,"attakain-bg.jpg",0,0
//Break Periods
2,51258,56305
//Storyboard Layer 0 (Background)
//Storyboard Layer 1 (Fail)
//Storyboard Layer 2 (Pass)
//Storyboard Layer 3 (Foreground)
//Storyboard Sound Samples

[TimingPoints]
1494,352.941176470588,4,2,1,65,1,0
1582,-100,4,3,1,65,0,0
2552,-100,4,2,1,65,0,0
2641,-100,4,3,1,65,0,0
2905,-100,4,2,2,65,0,0
2993,-100,4,3,1,65,0,0
4317,-100,4,2,1,65,0,0
4405,-100,4,3,1,65,0,0
5376,-100,4,2,1,65,0,0
5464,-100,4,3,1,65,0,0
5729,-100,4,2,2,65,0,0
5817,-100,4,3,1,65,0,0
6435,-100,4,2,1,65,0,0
6523,-100,4,3,1,65,0,0
7141,-100,4,2,1,65,0,0
7935,-100,4,3,3,65,0,0
8199,-100,4,2,1,65,0,0
8288,-100,4,3,3,65,0,0
8552,-100,4,2,2,65,0,0
8641,-100,4,3,3,65,0,0
8905,-100,4,2,1,65,0,0
8993,-100,4,3,3,65,0,0
9258,-100,4,2,2,65,0,0
9346,-100,4,3,1,65,0,0
9611,-100,4,2,1,65,0,0
9699,-100,4,3,1,65,0,0
9964,-100,4,2,1,65,0,0
10052,-100,4,3,1,65,0,0
10317,-100,4,2,1,65,0,0
10405,-100,4,3,1,65,0,0
10493,-100,4,3,3,65,0,0
10670,-100,4,2,1,65,0,0
10758,-100,4,3,3,65,0,0
11023,-100,4,2,1,65,0,0
11111,-100,4,3,1,65,0,0
11376,-100,4,2,2,65,0,0
11464,-100,4,3,3,65,0,0
11729,-100,4,2,1,65,0,0
11817,-100,4,3,3,65,0,0
12082,-100,4,2,1,65,0,0
12170,-100,4,3,3,65,0,0
12435,-100,4,2,1,65,0,0
12523,-100,4,3,3,65,0,0
14199,-100,4,3,2,65,0,0
25493,-100,4,3,1,65,0,0
26905,-100,4,2,1,65,0,0
26993,-100,4,3,1,65,0,0
27964,-100,4,2,1,65,0,0
28052,-100,4,3,1,65,0,0
28317,-100,4,2,2,65,0,0
28405,-100,4,3,1,65,0,0
29729,-100,4,2,1,65,0,0
29817,-100,4,3,1,65,0,0
30788,-100,4,2,1,65,0,0
30876,-100,4,3,1,65,0,0
31141,-100,4,2,2,65,0,0
31229,-100,4,3,1,65,0,0
31846,-100,4,2,1,65,0,0
31935,-100,4,3,1,65,0,0
32552,-100,4,2,1,65,0,0
32641,-100,4,3,1,65,0,0
32905,-100,4,2,1,65,0,0
32993,-100,4,3,1,65,0,0
33258,-100,4,2,1,65,0,0
33346,-100,4,3,1,65,0,0
33611,-100,4,2,1,65,0,0
33699,-100,4,3,1,65,0,0
33964,-100,4,2,2,65,0,0
34052,-100,4,3,1,65,0,0
34317,-100,4,2,1,65,0,0
34405,-100,4,3,1,65,0,0
34670,-100,4,2,2,65,0,0
34758,-100,4,3,1,65,0,0
35023,-100,4,2,1,65,0,0
35111,-100,4,3,1,65,0,0
35376,-100,4,2,1,65,0,0
35464,-100,4,3,1,65,0,0
35729,-100,4,2,1,65,0,0
35817,-100,4,3,1,65,0,0
36082,-100,4,2,1,65,0,0
36170,-100,4,3,1,65,0,0
36435,-100,4,2,1,65,0,0
36523,-100,4,3,1,65,0,0
38199,-100,4,3,1,65,0,1
39699,-100,4,3,2,65,0,1
39876,-100,4,3,1,65,0,1
46758,-100,4,3,2,65,0,1
46935,-100,4,3,1,65,0,1
48788,-100,4,3,3,65,0,1
49493,-100,4,3,3,65,0,0
51258,352.941176470588,4,3,1,65,1,0
56905,-100,4,2,1,65,0,0
56993,-100,4,3,1,65,0,0
57258,-100,4,2,1,65,0,0
57346,-100,4,3,1,65,0,0
57610,-100,4,2,1,65,0,0
57699,-100,4,3,1,65,0,0
57963,-100,4,2,1,65,0,0
58052,-100,4,3,1,65,0,0
58316,-100,4,2,1,65,0,0
58405,-100,4,3,1,65,0,0
58669,-100,4,2,1,65,0,0
58757,-100,4,3,1,65,0,0
59022,-100,4,2,1,65,0,0
59110,-100,4,3,1,65,0,0
59375,-100,4,2,1,65,0,0
59463,-100,4,3,1,65,0,0
59728,-100,4,2,1,65,0,0
59816,-100,4,3,1,65,0,0
60081,-100,4,2,1,65,0,0
60169,-100,4,3,1,65,0,0
60434,-100,4,2,1,65,0,0
60522,-100,4,3,1,65,0,0
60787,-100,4,2,1,65,0,0
60875,-100,4,3,1,65,0,0
61140,-100,4,2,1,65,0,0
61228,-100,4,3,3,65,0,0
61493,-100,4,2,1,65,0,0
61669,-100,4,3,1,75,0,0
61846,-100,4,2,1,65,0,0
61934,-100,4,3,1,65,0,0
62022,-100,4,3,3,65,0,0
62199,-100,4,2,1,65,0,0
62287,-100,4,3,3,65,0,0
62552,-100,4,3,1,75,0,1
62640,-100,4,3,2,75,0,1
62816,-100,4,3,1,75,0,1
63346,-100,4,3,2,75,0,1
63522,-100,4,3,1,75,0,1
64052,-100,4,3,2,75,0,1
64228,-100,4,3,1,75,0,1
65463,-100,4,3,2,75,0,1
65640,-100,4,3,1,75,0,1
66169,-100,4,3,2,75,0,1
66346,-100,4,3,1,75,0,1
66875,-100,4,3,2,75,0,1
67052,-100,4,3,1,75,0,1
68199,-83.3333333333333,4,3,1,75,0,1
68728,-100,4,3,1,75,0,1
71728,-86.9565217391304,4,3,1,75,0,1
72434,-76.9230769230769,4,3,1,75,0,1
73140,-66.6666666666667,4,3,1,75,0,1
74552,-100,4,3,1,100,0,0
75257,-100,4,2,0,75,0,0
79493,-100,4,3,1,5,0,0

[Colours]
Combo1 : 207,135,129
Combo2 : 165,130,172
Combo3 : 126,204,220
Combo4 : 199,225,119

[HitObjects]
160,120,1494,6,0,P|123:159|118:219,1,85,10|0,0:0|0:0,0:0:0:0:
200,196,1846,2,0,P|215:247|265:281,1,85,8|0,0:0|0:0,0:0:0:0:
284,196,2199,1,8,0:0:0:0:
354,151,2376,1,0,0:0:0:0:
440,152,2552,2,0,P|430:193|402:224,1,85,12|0,0:0|0:0,0:0:0:0:
318,79,2905,6,0,P|333:130|383:164,1,85,10|0,0:0|0:0,0:0:0:0:
312,228,3258,2,0,P|352:239|393:230,1,85,8|0,0:0|0:0,0:0:0:0:
440,152,3611,1,8,0:0:0:0:
488,228,3788,1,0,0:0:0:0:
448,304,3964,2,0,P|398:325|340:309,1,85,8|0,0:0|0:0,0:0:0:0:
292,284,4317,6,0,P|242:262|184:278,1,85,10|0,0:0|0:0,0:0:0:0:
153,326,4670,1,8,0:0:0:0:
235,346,4846,1,0,0:0:0:0:
132,242,5023,2,0,P|133:200|155:163,1,85,8|0,0:0|0:0,0:0:0:0:
257,86,5376,1,12,0:0:0:0:
275,201,5552,1,0,0:0:0:0:
379,123,5729,6,0,P|415:146|440:184,2,85,10|0|8,0:0|0:0|0:0,0:0:0:0:
328,56,6258,1,0,0:0:0:0:
252,20,6435,1,10,0:0:0:0:
208,92,6611,1,0,0:0:0:0:
132,56,6788,1,8,0:0:0:0:
56,96,6964,1,4,0:0:0:0:
56,96,7052,1,4,0:0:0:0:
56,96,7141,5,10,0:0:0:0:
168,210,7493,1,12,0:0:0:0:
100,164,7846,6,0,B|140:180|140:180|184:228,1,85,10|8,0:0|0:0,0:0:0:0:
92,248,8199,2,0,B|52:264|52:264|8:312,1,85,4|4,0:0|0:0,0:0:0:0:
100,332,8552,5,10,0:0:0:0:
268,356,8905,1,12,0:0:0:0:
332,272,9082,5,8,0:0:0:0:
337,250,9170,1,8,0:0:0:0:
334,228,9258,1,10,0:0:0:0:
324,211,9346,1,12,0:0:0:0:
311,196,9435,1,4,0:0:0:0:
290,184,9523,1,4,0:0:0:0:
269,179,9611,1,12,0:0:0:0:
176,216,9788,1,4,0:0:0:0:
176,216,9876,1,4,0:0:0:0:
176,216,9964,5,10,0:0:0:0:
276,76,10317,1,12,0:0:0:0:
344,124,10493,2,0,L|379:146,1,42.5,4|4,0:0|0:0,0:0:0:0:
356,44,10670,5,10,0:0:0:0:
200,116,10846,1,2,0:0:0:0:
328,200,11023,1,12,0:0:0:0:
276,76,11199,1,0,0:0:0:0:
276,76,11288,1,0,0:0:0:0:
276,76,11376,5,10,0:0:0:0:
176,216,11552,1,4,0:0:0:0:
100,72,11729,1,12,0:0:0:0:
200,116,11905,1,4,0:0:0:0:
114,272,12082,5,10,0:0:0:0:
1,135,12258,1,2,0:0:0:0:
200,116,12435,1,12,0:0:0:0:
22,242,12611,1,2,0:0:0:0:
324,168,14199,5,12,0:0:0:0:
248,116,14376,2,0,L|192:80,2,42.5,0|0|8,0:0|0:0|0:0,0:0:0:0:
332,72,14729,1,0,0:0:0:0:
352,72,14817,1,0,0:0:0:0:
372,76,14905,1,8,0:0:0:0:
392,84,14993,1,0,0:0:0:0:
412,96,15082,1,0,0:0:0:0:
428,112,15170,1,0,0:0:0:0:
444,128,15258,2,0,L|464:68,3,42.5,8|0|0|0,0:0|0:0|0:0|0:0,0:0:0:0:
440,168,15611,5,8,0:0:0:0:
376,268,15788,2,0,L|396:208,2,42.5,8|0|0,0:0|0:0|0:0,0:0:0:0:
348,168,16141,1,0,0:0:0:0:
328,168,16229,1,0,0:0:0:0:
308,172,16317,1,8,0:0:0:0:
288,180,16405,1,0,0:0:0:0:
268,192,16493,1,0,0:0:0:0:
248,196,16582,1,0,0:0:0:0:
223,201,16670,2,0,L|225:157,3,42.5,8|0|0|0,0:0|0:0|0:0|0:0,0:0:0:0:
202,235,17023,5,8,0:0:0:0:
128,280,17199,1,0,0:0:0:0:
128,280,17288,1,0,0:0:0:0:
128,280,17376,1,8,0:0:0:0:
93,201,17552,1,0,0:0:0:0:
152,136,17729,2,0,L|176:72,3,42.5,8|0|0|0,0:0|0:0|0:0|0:0,0:0:0:0:
180,80,18082,1,8,0:0:0:0:
200,72,18170,1,0,0:0:0:0:
220,68,18258,1,0,0:0:0:0:
240,68,18346,1,0,0:0:0:0:
260,68,18435,5,8,0:0:0:0:
371,95,18611,2,0,L|332:112,1,42.5
256,152,18788,1,8,0:0:0:0:
352,216,18964,1,0,0:0:0:0:
352,216,19052,1,0,0:0:0:0:
352,216,19141,1,8,0:0:0:0:
352,216,19229,1,0,0:0:0:0:
352,216,19317,1,0,0:0:0:0:
352,216,19405,1,0,0:0:0:0:
364,232,19493,1,8,0:0:0:0:
372,252,19582,1,0,0:0:0:0:
376,272,19670,1,0,0:0:0:0:
372,292,19758,1,0,0:0:0:0:
364,312,19846,5,8,0:0:0:0:
288,272,20023,1,0,0:0:0:0:
212,312,20199,1,0,0:0:0:0:
288,272,20376,1,0,0:0:0:0:
200,228,20552,1,8,0:0:0:0:
200,228,20641,1,0,0:0:0:0:
200,228,20729,1,0,0:0:0:0:
120,196,20905,1,8,0:0:0:0:
132,180,20993,1,0,0:0:0:0:
148,164,21082,1,0,0:0:0:0:
168,152,21170,1,0,0:0:0:0:
188,144,21258,5,8,0:0:0:0:
284,144,21435,1,8,0:0:0:0:
236,72,21611,1,0,0:0:0:0:
236,216,21788,1,0,0:0:0:0:
252,236,21876,1,0,0:0:0:0:
272,252,21964,1,8,0:0:0:0:
296,264,22052,1,0,0:0:0:0:
320,264,22141,1,0,0:0:0:0:
344,260,22229,1,0,0:0:0:0:
368,248,22317,1,8,0:0:0:0:
392,244,22405,1,0,0:0:0:0:
416,248,22493,1,0,0:0:0:0:
440,260,22582,1,0,0:0:0:0:
460,276,22670,5,8,0:0:0:0:
392,328,22846,1,0,0:0:0:0:
308,328,23023,1,8,0:0:0:0:
224,328,23199,1,0,0:0:0:0:
204,324,23288,1,0,0:0:0:0:
184,320,23376,1,8,0:0:0:0:
164,316,23464,1,0,0:0:0:0:
144,308,23552,1,0,0:0:0:0:
124,296,23641,1,0,0:0:0:0:
100,280,23729,1,8,0:0:0:0:
80,260,23817,1,0,0:0:0:0:
64,236,23905,1,0,0:0:0:0:
56,208,23993,1,0,0:0:0:0:
52,180,24082,5,8,0:0:0:0:
100,92,24258,1,0,0:0:0:0:
196,56,24435,1,8,0:0:0:0:
288,96,24611,1,0,0:0:0:0:
288,96,24699,1,0,0:0:0:0:
288,96,24788,2,0,L|286:158,1,42.5
200,148,24964,1,0,0:0:0:0:
200,148,25052,1,0,0:0:0:0:
200,148,25141,2,0,L|201:212,1,42.5
257,247,25317,1,0,0:0:0:0:
256,192,25493,12,0,26552,0:0:0:0:
364,76,26905,6,0,P|400:116|404:176,1,85,10|0,0:0|0:0,0:0:0:0:
324,148,27258,2,0,P|307:199|257:232,1,85,8|0,0:0|0:0,0:0:0:0:
240,148,27611,1,8,0:0:0:0:
192,220,27788,1,0,0:0:0:0:
152,144,27964,2,0,P|168:92|218:59,1,85,12|0,0:0|0:0,0:0:0:0:
68,140,28317,6,0,P|83:191|133:225,1,85,10|0,0:0|0:0,0:0:0:0:
60,284,28670,2,0,P|112:296|166:270,1,85,8|0,0:0|0:0,0:0:0:0:
288,208,29023,1,8,0:0:0:0:
216,252,29199,1,0,0:0:0:0:
141,288,29376,2,0,P|134:246|109:212,1,85,8|0,0:0|0:0,0:0:0:0:
112,128,29729,6,0,P|132:91|167:68,1,85,10|0,0:0|0:0,0:0:0:0:
252,88,30082,1,8,0:0:0:0:
332,116,30258,1,0,0:0:0:0:
409,150,30435,2,0,P|382:183|344:200,1,85,8|0,0:0|0:0,0:0:0:0:
284,260,30788,2,0,P|299:311|349:345,1,85,12|0,0:0|0:0,0:0:0:0:
366,264,31141,6,0,P|278:308|178:316,1,170,10|8,0:0|0:0,0:0:0:0:
120,308,31670,1,0,0:0:0:0:
39,278,31846,2,0,P|62:243|100:224,1,85,10|0,0:0|0:0,0:0:0:0:
88,140,32199,2,0,P|129:142|165:165,1,85,8|0,0:0|0:0,0:0:0:0:
184,246,32552,6,0,P|208:284|200:340,1,85,10|0,0:0|0:0,0:0:0:0:
120,308,32905,1,12,0:0:0:0:
268,192,33082,1,0,0:0:0:0:
419,208,33258,1,10,0:0:0:0:
380,292,33435,1,0,0:0:0:0:
288,284,33611,1,4,0:0:0:0:
350,145,33788,1,0,0:0:0:0:
288,284,33964,6,0,P|247:286|211:309,1,85,10|0,0:0|0:0,0:0:0:0:
128,332,34317,2,0,P|125:290|144:252,1,85,12|0,0:0|0:0,0:0:0:0:
128,168,34670,2,0,P|169:170|205:193,2,85,10|0|12,0:0|0:0|0:0,0:0:0:0:
44,180,35199,1,0,0:0:0:0:
68,96,35376,6,0,P|104:77|147:79,1,85,10|0,0:0|0:0,0:0:0:0:
204,144,35729,2,0,P|163:146|127:169,1,85,12|0,0:0|0:0,0:0:0:0:
188,228,36082,1,10,0:0:0:0:
236,296,36258,1,0,0:0:0:0:
344,324,36435,5,12,0:0:0:0:
156,356,36611,1,4,0:0:0:0:
152,96,38199,6,0,P|193:98|229:121,1,85,8|0,0:0|0:0,0:0:0:0:
168,180,38552,2,0,P|186:216|184:259,1,85,12|0,0:0|0:0,0:0:0:0:
104,236,38905,1,8,0:0:0:0:
124,320,39082,1,2,0:0:0:0:
44,292,39258,2,0,P|25:255|27:212,1,85,12|2,0:0|0:0,0:0:0:0:
40,112,39611,6,0,B|80:71|80:71|139:92|194:55,1,170,8|12,0:0|0:0,0:0:0:0:
272,72,40141,1,2,0:0:0:0:
352,48,40317,2,0,P|354:90|336:128,1,85,8|2,0:0|0:0,0:0:0:0:
396,188,40670,2,0,P|360:210|318:213,1,85,12|2,0:0|0:0,0:0:0:0:
320,300,41023,6,0,P|355:322|397:325,1,85,8|2,0:0|0:0,0:0:0:0:
448,256,41376,1,12,0:0:0:0:
396,188,41552,1,2,0:0:0:0:
312,208,41729,2,0,P|276:230|234:233,1,85,8|2,0:0|0:0,0:0:0:0:
236,96,42082,1,12,0:0:0:0:
184,164,42258,1,0,0:0:0:0:
316,128,42435,5,8,0:0:0:0:
451,104,42611,1,2,0:0:0:0:
328,43,42788,1,12,0:0:0:0:
392,164,42964,1,2,0:0:0:0:
412,28,43141,1,8,0:0:0:0:
328,43,43317,1,2,0:0:0:0:
244,68,43493,2,0,P|210:93|193:131,1,85,4|2,0:0|0:0,0:0:0:0:
76,250,43846,6,0,P|114:233|140:200,1,85,8|2,0:0|0:0,0:0:0:0:
155,119,44199,2,0,P|194:134|220:168,1,85,12|2,3:0|0:0,0:0:0:0:
268,240,44552,1,8,0:0:0:0:
224,312,44729,1,2,0:0:0:0:
148,352,44905,1,12,0:0:0:0:
64,340,45082,1,2,0:0:0:0:
20,268,45258,6,0,L|128:208,1,85,8|2,0:0|0:0,0:0:0:0:
156,168,45611,2,0,L|48:108,1,85,12|2,0:0|0:0,0:0:0:0:
8,88,45964,1,8,0:0:0:0:
80,44,46141,2,0,B|124:32|124:32|164:42,2,85,2|12|2,0:0|0:0|0:0,0:0:0:0:
244,56,46670,6,0,B|301:60|301:60|322:118|386:137,1,170,8|12,0:0|0:0,0:0:0:0:
448,188,47199,1,2,0:0:0:0:
439,272,47376,2,0,P|399:259|372:228,1,85,8|2,3:0|0:0,0:0:0:0:
300,183,47729,2,0,P|286:222|296:264,1,85,12|2,3:0|0:0,0:0:0:0:
334,340,48082,6,0,P|292:349|225:315,1,85
184,288,48435,1,8,0:0:0:0:
104,264,48611,1,4,0:0:0:0:
80,252,48699,1,4,0:0:0:0:
53,242,48788,2,0,P|35:264|29:291,2,56.6666666666667,8|8|8,0:0|0:0|0:0,0:0:0:0:
110,175,49141,2,0,P|137:181|164:174,2,56.6666666666667,12|12|4,0:0|0:0|0:0,0:0:0:0:
30,163,49493,1,10,0:0:0:0:
292,88,56905,6,0,P|332:152|292:232,1,170,10|12,3:0|0:0,0:0:0:0:
244,160,57434,1,0,0:0:0:0:
168,200,57610,1,10,0:0:0:0:
112,264,57787,1,0,0:0:0:0:
196,284,57963,1,12,0:0:0:0:
168,200,58140,1,0,0:0:0:0:
36,240,58316,5,10,0:0:0:0:
36,240,58493,1,0,0:0:0:0:
136,348,58669,1,12,0:0:0:0:
136,348,58846,1,0,0:0:0:0:
276,308,59022,1,10,0:0:0:0:
244,168,59199,1,0,0:0:0:0:
132,256,59375,1,12,0:0:0:0:
276,308,59552,1,0,0:0:0:0:
308,228,59728,6,0,P|333:150|281:87,1,170,10|12,2:0|0:0,0:0:0:0:
281,87,60257,1,0,0:0:0:0:
207,44,60434,2,0,P|193:83|203:124,1,85,10|0,0:0|0:0,0:0:0:0:
356,123,60787,2,0,P|364:82|351:43,1,85,12|0,2:0|0:0,0:0:0:0:
208,44,61140,5,10,0:0:0:0:
104,116,61316,1,8,0:0:0:0:
196,204,61493,1,12,0:0:0:0:
36,248,61669,1,12,0:0:0:0:
36,248,61757,1,4,0:0:0:0:
36,248,61846,1,10,0:0:0:0:
144,356,62022,1,4,0:0:0:0:
196,204,62199,1,12,0:0:0:0:
96,68,62375,1,2,0:0:0:0:
120,164,62552,6,0,P|188:119|263:153,1,170,8|8,3:0|0:0,0:0:0:0:
268,240,63081,1,2,0:0:0:0:
324,304,63257,2,0,P|341:223|417:195,1,170,8|8,3:0|0:0,0:0:0:0:
404,280,63787,1,2,0:0:0:0:
404,280,63963,6,0,L|272:164,1,170,8|8,0:0|0:0,0:0:0:0:
208,116,64493,1,2,0:0:0:0:
56,60,64669,2,0,P|97:54|136:72,1,85,8|2,3:0|3:0,3:0:0:0:
272,184,65022,2,0,P|237:207|195:208,1,85,8|2,3:0|3:0,3:0:0:0:
104,328,65375,6,0,L|128:148,1,170,8|8,3:0|3:0,3:0:0:0:
136,71,65905,1,2,0:0:0:0:
216,40,66081,2,0,B|272:56|272:56|272:76|280:128|336:140,1,170,8|8,0:0|0:0,0:0:0:0:
356,60,66610,1,2,0:0:0:0:
416,128,66787,6,0,P|385:204|304:219,1,170,8|8,3:0|0:0,0:0:0:0:
224,192,67316,1,2,0:0:0:0:
145,241,67493,2,0,P|183:255|208:289,1,85,8|2,3:0|0:0,2:0:0:0:
88,167,67846,1,0,0:0:0:0:
224,192,68022,1,2,0:0:0:0:
224,192,68110,1,0,0:0:0:0:
224,192,68199,6,0,P|176:276|88:344,1,203.999993774414,8|8,0:0|0:0,0:0:0:0:
48,268,68728,1,0,0:0:0:0:
52,184,68905,2,0,P|82:154|123:146,1,85,12|0,3:0|0:0,2:0:0:0:
128,60,69257,2,0,P|168:71|196:102,1,85,8|4,3:0|0:0,2:0:0:0:
248,172,69610,5,8,0:0:0:0:
332,152,69787,1,4,0:0:0:0:
308,232,69963,1,8,0:0:0:0:
276,92,70140,1,0,0:0:0:0:
216,252,70316,1,12,0:0:0:0:
332,152,70493,1,0,0:0:0:0:
167,182,70669,1,12,0:0:0:0:
308,232,70846,1,0,0:0:0:0:
380,280,71022,6,0,P|349:309|308:317,1,85,8|8,3:0|0:0,2:0:0:0:
224,304,71375,1,12,0:0:0:0:
73,181,71728,6,8,P|103:210|165:217,1,97.7500018644333,8|0,3:0|0:0,2:0:0:0:
277,212,72081,1,12,0:0:0:0:
450,126,72434,6,0,P|390:124|325:77,1,110.499994941712,8|8,0:0|0:0,0:0:0:0:
232,44,72787,1,12,3:0:0:0:
102,133,73140,5,12,0:0:0:0:
96,140,73257,2,12,L|-21:108,1,85.0000032424928,4|4,0:0|0:0,0:0:0:0:
144,225,73493,1,4,0:0:0:0:
151,231,73610,2,12,L|239:208,1,85.0000032424928,4|4,0:0|0:0,0:0:0:0:
256,192,74552,5,0,0:0:0:0:
256,192,75257,5,4,0:0:0:0:
256,192,75346,12,0,79493,0:0:0:0:
