osu file format v14

[General]
AudioFilename: Attakain Dakara.mp3
AudioLeadIn: 0
PreviewTime: 37317
Countdown: 0
SampleSet: Soft
StackLeniency: 0.7
Mode: 0
LetterboxInBreaks: 0
EpilepsyWarning: 1
WidescreenStoryboard: 1

[Editor]
DistanceSpacing: 1.2
BeatDivisor: 4
GridSize: 4
TimelineZoom: 1

[Metadata]
Title:Attakain Dakara
TitleUnicode:あったかいんだからぁ♪
Artist:Hanatan
ArtistUnicode:花たん
Creator:Down
Version:Hard
Source:
Tags:honeyworks kumamushi hatsune miku vocaloid Because It's Warm left rose_pacifica taeyang
BeatmapID:848551
BeatmapSetID:388403

[Difficulty]
HPDrainRate:6
CircleSize:4
OverallDifficulty:6
ApproachRate:7.5
SliderMultiplier:1.3
SliderTickRate:2

[Events]
//Background and Video events
0,0,"attakain-bg.jpg",0,0
//Break Periods
2,51258,56080
//Storyboard Layer 0 (Background)
//Storyboard Layer 1 (Fail)
//Storyboard Layer 2 (Pass)
//Storyboard Layer 3 (Foreground)
//Storyboard Sound Samples

[TimingPoints]
1494,352.941176470588,4,2,1,65,1,0
1582,-100,4,3,1,65,0,0
2552,-100,4,2,1,65,0,0
2905,-100,4,2,2,65,0,0
2993,-100,4,3,1,65,0,0
4317,-100,4,2,1,65,0,0
4405,-100,4,3,1,65,0,0
5376,-100,4,2,1,65,0,0
5464,-100,4,3,1,65,0,0
5729,-100,4,2,2,65,0,0
5817,-100,4,3,1,65,0,0
6435,-100,4,2,1,65,0,0
6523,-100,4,3,1,65,0,0
7141,-100,4,2,1,65,0,0
8023,-100,4,3,3,65,0,0
8199,-100,4,2,1,65,0,0
8376,-100,4,3,3,65,0,0
8552,-100,4,2,2,65,0,0
8905,-100,4,2,1,65,0,0
9258,-100,4,2,2,69,0,0
9611,-100,4,2,1,69,0,0
10846,-100,4,3,3,69,0,0
11023,-100,4,2,1,69,0,0
11376,-100,4,2,2,69,0,0
11729,-100,4,2,1,69,0,0
14111,-100,4,3,2,69,0,0
25493,-100,4,3,1,30,0,0
26905,-100,4,2,1,69,0,0
26993,-100,4,3,1,69,0,0
27964,-100,4,2,1,69,0,0
28317,-100,4,2,2,69,0,0
28405,-100,4,3,1,69,0,0
29729,-100,4,2,1,69,0,0
29817,-100,4,3,1,69,0,0
30788,-100,4,2,1,69,0,0
31141,-100,4,2,2,69,0,0
31317,-100,4,3,1,69,0,0
31846,-100,4,2,1,69,0,0
31935,-100,4,3,1,69,0,0
32552,-100,4,2,1,69,0,0
32905,-100,4,3,4,69,0,0
32993,-100,4,2,1,69,0,0
33964,-100,4,2,2,69,0,0
34317,-100,4,2,1,69,0,0
34670,-100,4,2,2,69,0,0
35023,-100,4,2,1,69,0,0
36611,-100,4,3,1,69,0,0
38199,-100,4,3,1,69,0,1
38288,-100,4,3,2,69,0,1
38464,-100,4,3,1,69,0,1
39699,-100,4,3,2,69,0,1
39876,-100,4,3,1,69,0,1
41111,-100,4,3,2,69,0,1
41288,-100,4,3,1,69,0,1
42523,-100,4,3,2,69,0,1
42699,-100,4,3,1,69,0,1
43935,-100,4,3,2,69,0,1
44111,-100,4,3,1,69,0,1
46758,-100,4,3,2,69,0,1
46935,-100,4,3,1,69,0,1
47464,-100,4,3,2,69,0,1
47641,-100,4,3,1,69,0,1
48346,-100,4,3,3,69,0,1
49493,-100,4,3,3,69,0,0
51258,352.941176470588,4,3,1,65,1,0
56905,-100,4,2,1,65,0,0
59728,-100,4,2,1,65,0,0
60081,-100,4,3,4,65,0,0
60169,-100,4,3,1,65,0,0
60434,-100,4,2,1,65,0,0
61140,-100,4,3,5,65,0,0
61228,-100,4,3,1,65,0,0
61493,-100,4,2,1,65,0,0
62375,-100,4,3,3,65,0,0
62552,-100,4,3,1,75,0,1
62640,-100,4,3,2,75,0,1
62816,-100,4,3,1,75,0,1
63346,-100,4,3,2,75,0,1
63522,-100,4,3,1,75,0,1
64052,-100,4,3,2,75,0,1
64228,-100,4,3,1,75,0,1
65463,-100,4,3,2,75,0,1
65640,-100,4,3,1,75,0,1
66169,-100,4,3,2,75,0,1
66346,-100,4,3,1,75,0,1
66963,-100,4,3,2,75,0,1
67052,-100,4,3,1,75,0,1
67669,-100,4,3,2,75,0,1
67757,-100,4,3,1,75,0,1
75257,-100,4,2,0,75,0,1
79493,-100,4,3,1,5,0,0

[Colours]
Combo1 : 207,135,129
Combo2 : 165,130,172
Combo3 : 126,204,220
Combo4 : 199,225,119

[HitObjects]
184,128,1494,6,8,P|244:84|308:112,1,130,10|8,0:0|0:0,0:0:0:0:
256,164,2023,1,0,0:0:0:0:
256,164,2199,2,8,P|317:175|365:133,1,130,8|12,0:0|0:0,0:0:0:0:
362,53,2729,1,0,0:0:0:0:
362,53,2905,6,8,P|422:72|444:132,1,130,10|8,0:0|0:0,0:0:0:0:
425,207,3435,1,0,0:0:0:0:
356,244,3611,2,8,P|312:256|276:252,1,65,8|0,0:0|0:0,0:0:0:0:
220,252,3964,2,8,P|175:240|146:218,1,65,8|0,0:0|0:0,0:0:0:0:
124,160,4317,6,8,P|148:100|208:78,1,130,10|8,0:0|0:0,0:0:0:0:
204,160,4846,1,0,0:0:0:0:
124,160,5023,2,8,P|70:120|10:135,1,130,8|12,0:0|0:0,0:0:0:0:
56,200,5552,1,0,0:0:0:0:
52,280,5729,6,8,B|92:316|92:316|180:316,1,130,10|8,0:0|0:0,0:0:0:0:
244,288,6258,1,0,0:0:0:0:
304,336,6435,2,8,P|321:295|308:249,1,65,10|0,0:0|0:0,0:0:0:0:
268,216,6788,2,8,P|223:214|184:241,1,65,8|0,0:0|0:0,0:0:0:0:
144,172,7141,6,8,P|208:140|284:144,1,130,10|12,0:0|0:0,0:0:0:0:
311,76,7670,1,0,0:0:0:0:
234,62,7846,2,0,P|202:66|150:84,1,65,10|4,0:0|0:0,0:0:0:0:
97,103,8199,2,0,P|71:129|61:172,1,65,12|2,0:0|0:0,0:0:0:0:
112,216,8552,6,8,P|128:248|164:272,1,65,10|0,0:0|0:0,0:0:0:0:
188,200,8905,2,8,P|223:202|262:182,1,65,12|0,0:0|0:0,0:0:0:0:
212,124,9258,2,8,P|231:94|234:50,1,65,10|0,0:0|0:0,0:0:0:0:
156,64,9611,2,8,P|139:32|103:8,1,65,12|8,0:0|0:0,0:0:0:0:
80,84,9964,5,10,0:0:0:0:
188,200,10317,1,12,0:0:0:0:
244,56,10670,1,10,0:0:0:0:
320,76,10846,1,8,0:0:0:0:
396,96,11023,1,12,0:0:0:0:
448,244,11376,6,8,P|384:284|316:256,1,130,10|12,0:0|0:0,0:0:0:0:
276,220,11905,1,8,0:0:0:0:
232,156,12082,2,8,L|148:124,1,65,10|8,0:0|0:0,0:0:0:0:
156,56,12435,2,8,L|72:88,1,65,12|8,0:0|0:0,0:0:0:0:
360,140,14199,5,8,0:0:0:0:
288,112,14376,2,8,L|260:64,2,32.5,0|0|8,0:0|0:0|0:0,0:0:0:0:
296,188,14729,2,8,L|260:228,2,32.5,0|0|8,0:0|0:0|0:0,0:0:0:0:
356,240,15082,1,0,0:0:0:0:
300,296,15258,1,8,0:0:0:0:
228,156,15611,5,8,0:0:0:0:
150,147,15788,2,8,L|107:113,2,32.5,0|0|8,0:0|0:0|0:0,0:0:0:0:
178,219,16141,2,8,L|160:258,2,32.5,0|0|8,0:0|0:0|0:0,0:0:0:0:
228,156,16493,1,0,0:0:0:0:
284,100,16670,1,8,0:0:0:0:
432,144,17023,5,8,0:0:0:0:
472,212,17199,2,8,L|508:244,2,32.5,0|0|8,0:0|0:0|0:0,0:0:0:0:
392,212,17552,1,0,0:0:0:0:
392,212,17641,1,0,0:0:0:0:
392,212,17729,1,8,0:0:0:0:
344,272,17905,2,8,B|312:256|312:256|260:248,1,65,0|8,0:0|0:0,0:0:0:0:
111,234,18435,5,8,0:0:0:0:
88,156,18611,2,8,L|56:108,2,32.5,0|0|8,0:0|0:0|0:0,0:0:0:0:
140,95,18964,2,8,L|108:47,2,32.5,0|0|8,0:0|0:0|0:0,0:0:0:0:
164,172,19317,1,0,0:0:0:0:
236,200,19493,1,8,0:0:0:0:
228,120,19670,1,0,0:0:0:0:
228,120,19846,5,8,0:0:0:0:
283,63,20023,2,0,L|330:38,2,32.5,0|0|8,0:0|0:0|0:0,0:0:0:0:
304,140,20376,2,8,L|340:180,2,32.5,0|0|8,0:0|0:0|0:0,0:0:0:0:
256,204,20729,1,0,0:0:0:0:
212,268,20905,2,0,P|188:292|134:301,1,65,8|0,0:0|0:0,0:0:0:0:
148,224,21258,5,8,0:0:0:0:
192,160,21435,2,8,L|208:116,2,32.5,0|0|8,0:0|0:0|0:0,0:0:0:0:
113,158,21788,2,8,L|129:114,2,32.5,0|0|8,0:0|0:0|0:0,0:0:0:0:
64,220,22141,1,0,0:0:0:0:
73,297,22317,2,0,B|102:309|102:309|152:297,1,65
148,224,22670,5,8,0:0:0:0:
192,160,22846,1,0,0:0:0:0:
192,160,22935,1,0,0:0:0:0:
192,160,23023,1,8,0:0:0:0:
232,228,23199,2,8,L|272:256,2,32.5,0|0|8,0:0|0:0|0:0,0:0:0:0:
268,160,23552,1,0,0:0:0:0:
320,102,23729,2,0,P|350:78|377:73,1,65,8|0,0:0|0:0,0:0:0:0:
380,152,24082,5,8,0:0:0:0:
411,223,24258,2,8,L|462:221,2,32.5,0|8|8,0:0|0:0|0:0,0:0:0:0:
356,279,24611,1,0,0:0:0:0:
356,279,24699,1,0,0:0:0:0:
356,279,24788,1,0,0:0:0:0:
300,333,24964,2,8,P|267:363|247:372,1,65,0|8,0:0|0:0,0:0:0:0:
177,340,25317,1,0,0:0:0:0:
108,304,25493,6,8,P|48:136|232:96,1,390,8|10,0:0|0:0,0:0:0:0:
364,52,26905,6,8,P|430:46|481:97,1,130,10|8,0:0|0:0,0:0:0:0:
405,121,27435,1,0,0:0:0:0:
456,180,27611,2,8,B|416:216|356:188|356:188|320:216,1,130,8|12,0:0|0:0,0:0:0:0:
282,258,28141,1,0,0:0:0:0:
207,278,28317,6,0,P|158:284|120:274,1,65,10|0,0:0|0:0,0:0:0:0:
99,216,28670,2,8,P|107:184|147:160,1,65,8|0,0:0|0:0,0:0:0:0:
101,91,29023,2,8,P|132:81|173:104,1,65,8|0,0:0|0:0,0:0:0:0:
212,32,29376,2,8,P|235:54|236:101,1,65,8|0,0:0|0:0,0:0:0:0:
244,164,29729,6,8,P|236:212|152:260,1,130,10|8,0:0|0:0,0:0:0:0:
104,228,30258,1,0,0:0:0:0:
80,152,30435,2,12,P|136:108|196:112,1,130,8|12,0:0|0:0,0:0:0:0:
268,88,30964,1,0,0:0:0:0:
340,56,31141,6,8,P|436:72|456:104,1,130,10|8,0:0|0:0,0:0:0:0:
488,164,31670,2,8,P|452:192|408:200,1,65,0|10,0:0|0:0,0:0:0:0:
360,180,32023,1,0,0:0:0:0:
296,224,32199,2,8,P|332:252|376:260,1,65,8|0,0:0|0:0,0:0:0:0:
428,268,32552,6,8,B|404:312|404:312|364:332|364:332|308:332|268:296,1,195,10|8,0:0|0:0,0:0:0:0:
196,280,33258,1,10,0:0:0:0:
196,280,33435,1,0,0:0:0:0:
152,216,33611,1,12,0:0:0:0:
152,216,33788,1,0,0:0:0:0:
164,140,33964,6,8,L|232:96,1,65,10|0,0:0|0:0,0:0:0:0:
176,40,34317,2,8,L|121:75,1,65,12|0,0:0|0:0,0:0:0:0:
84,144,34670,2,8,L|64:206,1,65,10|0,0:0|0:0,0:0:0:0:
84,284,35023,1,4,0:0:0:0:
144,332,35199,1,0,0:0:0:0:
220,340,35376,6,8,P|312:328|344:292,1,130,10|12,0:0|0:0,0:0:0:0:
485,259,36082,1,10,0:0:0:0:
445,191,36258,2,0,P|392:156|370:155,1,65
378,233,36611,1,0,0:0:0:0:
108,192,38199,6,8,P|69:246|88:315,1,130,8|12,0:0|0:0,0:0:0:0:
146,262,38729,1,2,0:0:0:0:
184,196,38905,2,8,L|250:189,1,65,8|2,0:0|0:0,0:0:0:0:
220,264,39258,2,8,L|284:258,1,65,12|2,0:0|0:0,0:0:0:0:
327,192,39611,6,8,P|365:246|342:314,1,130,8|12,0:0|0:0,0:0:0:0:
276,332,40141,1,2,0:0:0:0:
200,336,40317,2,8,L|135:341,1,65,8|2,0:0|0:0,0:0:0:0:
104,272,40670,2,8,L|168:266,1,65,12|2,0:0|0:0,0:0:0:0:
176,188,41023,6,8,P|230:149|299:168,1,130,8|12,0:0|0:0,0:0:0:0:
356,120,41552,1,2,0:0:0:0:
388,48,41729,2,8,P|420:72|432:108,1,65,8|2,0:0|0:0,0:0:0:0:
508,88,42082,2,8,P|503:127|478:156,1,65,12|2,0:0|0:0,0:0:0:0:
412,168,42435,6,8,B|384:200|384:200|408:292,1,130,8|12,0:0|0:0,0:0:0:0:
484,300,42964,1,2,0:0:0:0:
472,224,43141,1,8,0:0:0:0:
489,147,43317,2,8,L|464:88,2,65,2|12|2,0:0|0:0|0:0,0:0:0:0:
412,168,43846,6,8,B|352:120|352:120|296:136,1,130,8|12,0:0|0:0,0:0:0:0:
224,148,44376,2,0,L|152:128,1,65,2|8,0:0|0:0,0:0:0:0:
188,56,44729,1,2,0:0:0:0:
264,64,44905,2,0,P|296:52|340:68,1,65,12|2,0:0|0:0,0:0:0:0:
364,128,45258,5,8,0:0:0:0:
292,156,45435,1,2,0:0:0:0:
292,156,45611,2,8,P|280:200|288:236,1,65,12|2,0:0|0:0,0:0:0:0:
288,300,45964,1,8,0:0:0:0:
216,276,46141,1,2,0:0:0:0:
140,256,46317,2,8,P|98:236|76:207,1,65,12|2,0:0|0:0,0:0:0:0:
60,148,46670,6,8,P|160:108|184:108,1,130,8|12,0:0|0:0,0:0:0:0:
184,28,47199,1,2,0:0:0:0:
184,28,47376,2,8,P|232:44|256:132,1,130,8|12,0:0|0:0,0:0:0:0:
296,188,47905,1,2,0:0:0:0:
296,188,48082,6,8,B|256:204|220:184|220:184|181:188|149:214,1,130,8|12,0:0|0:0,0:0:0:0:
127,263,48611,1,8,0:0:0:0:
205,262,48788,2,0,P|253:273|301:266,1,86.6666666666667
339,254,49141,2,0,P|401:242|443:253,1,86.6666666666667
471,266,49493,1,0,0:0:0:0:
280,268,56905,5,10,0:0:0:0:
191,144,57258,1,12,0:0:0:0:
336,192,57610,1,10,0:0:0:0:
191,239,57963,1,12,0:0:0:0:
280,115,58316,5,10,0:0:0:0:
348,256,58669,1,12,0:0:0:0:
192,240,59022,1,10,0:0:0:0:
280,115,59375,1,12,0:0:0:0:
128,79,59728,6,8,B|171:121|160:171|160:171|120:191|96:239|124:291|152:310,1,260,10|10,0:0|0:0,0:0:0:0:
197,245,60610,1,8,0:0:0:0:
197,245,60963,6,8,P|226:289|194:367,1,130
276,312,61493,2,8,P|314:324|361:304,1,65,12|8,0:0|0:0,0:0:0:0:
315,244,61846,2,8,P|344:217|350:166,1,65,10|8,0:0|0:0,0:0:0:0:
275,177,62199,2,8,P|266:138|225:107,1,65,12|8,0:0|0:0,0:0:0:0:
189,168,62552,6,8,P|177:89|211:54,1,130,8|12,0:0|0:0,0:0:0:0:
286,44,63081,1,2,0:0:0:0:
364,60,63257,2,8,P|436:92|484:140,1,130,8|12,0:0|0:0,0:0:0:0:
476,204,63787,1,2,0:0:0:0:
468,280,63963,6,8,P|400:229|402:186,1,130,8|12,0:0|0:0,0:0:0:0:
340,140,64493,1,2,0:0:0:0:
324,216,64669,2,8,P|332:264|352:296,1,65,8|2,0:0|0:0,0:0:0:0:
308,352,65022,2,8,P|282:332|263:305,1,65,12|2,0:0|0:0,0:0:0:0:
192,336,65375,6,8,P|192:268|240:232,1,130,8|12,0:0|0:0,0:0:0:0:
260,156,65905,1,2,0:0:0:0:
284,84,66081,2,8,P|331:124|329:187,1,130,8|12,0:0|0:0,0:0:0:0:
172,183,66787,6,8,B|120:175|120:175|56:111,1,130,8|12,0:0|0:0,0:0:0:0:
8,68,67316,1,2,0:0:0:0:
84,48,67493,2,8,B|128:48|128:48|152:72|196:116,1,130,8|12,0:0|0:0,0:0:0:0:
264,132,68022,1,2,0:0:0:0:
320,76,68199,6,8,L|408:40,1,65,8|0,0:0|0:0,0:0:0:0:
384,128,68552,2,8,L|478:140,1,65,12|0,0:0|0:0,0:0:0:0:
408,204,68905,2,8,L|483:262,1,65,12|0,0:0|0:0,0:0:0:0:
400,296,69257,1,12,0:0:0:0:
324,320,69434,1,4,0:0:0:0:
248,304,69610,6,8,P|208:328|172:320,1,65,8|4,0:0|0:0,0:0:0:0:
196,248,69963,2,8,P|155:225|144:190,1,65,8|0,0:0|0:0,0:0:0:0:
212,168,70316,2,8,P|211:121|236:94,1,65,12|0,0:0|0:0,0:0:0:0:
288,144,70669,1,8,0:0:0:0:
284,64,70846,1,0,0:0:0:0:
216,24,71022,5,8,0:0:0:0:
216,24,71199,1,8,0:0:0:0:
148,60,71375,1,12,0:0:0:0:
218,241,71728,5,8,0:0:0:0:
218,241,71905,1,8,0:0:0:0:
221,164,72081,1,12,0:0:0:0:
18,131,72434,5,8,0:0:0:0:
18,131,72611,1,8,0:0:0:0:
83,172,72787,1,12,0:0:0:0:
222,82,73140,6,4,L|302:90,5,43.3333333333333
256,192,75257,5,4,0:0:0:0:
256,192,75346,12,0,79493,0:0:0:0:
