osu file format v14

[General]
AudioFilename: Attakain Dakara.mp3
AudioLeadIn: 0
PreviewTime: 37317
Countdown: 0
SampleSet: Soft
StackLeniency: 0.7
Mode: 0
LetterboxInBreaks: 0
EpilepsyWarning: 1
WidescreenStoryboard: 1

[Editor]
DistanceSpacing: 1
BeatDivisor: 4
GridSize: 4
TimelineZoom: 1

[Metadata]
Title:Attakain Dakara
TitleUnicode:あったかいんだからぁ♪
Artist:Hanatan
ArtistUnicode:花たん
Creator:Down
Version:Easy
Source:
Tags:honeyworks kumamushi hatsune miku vocaloid Because It's Warm left rose_pacifica taeyang
BeatmapID:853336
BeatmapSetID:388403

[Difficulty]
HPDrainRate:2.5
CircleSize:3
OverallDifficulty:2.5
ApproachRate:3
SliderMultiplier:0.9
SliderTickRate:1

[Events]
//Background and Video events
0,0,"attakain-bg.jpg",0,0
//Break Periods
2,51258,55465
//Storyboard Layer 0 (Background)
//Storyboard Layer 1 (Fail)
//Storyboard Layer 2 (Pass)
//Storyboard Layer 3 (Foreground)
//Storyboard Sound Samples

[TimingPoints]
1494,352.941176470588,4,2,1,65,1,0
1582,-100,4,3,1,65,0,0
2552,-100,4,2,1,65,0,0
2905,-100,4,2,2,65,0,0
2993,-100,4,3,1,65,0,0
4317,-100,4,2,1,65,0,0
4405,-100,4,3,1,65,0,0
5376,-100,4,2,1,65,0,0
5464,-100,4,3,1,65,0,0
5729,-100,4,2,2,65,0,0
5817,-100,4,3,1,65,0,0
6435,-100,4,2,1,65,0,0
6523,-100,4,3,1,65,0,0
7141,-100,4,2,1,65,0,0
8552,-100,4,2,2,65,0,0
8905,-100,4,2,1,65,0,0
9258,-100,4,2,2,69,0,0
9611,-100,4,2,1,69,0,0
10317,-100,4,2,1,69,0,0
10405,-100,4,2,1,69,0,0
11376,-100,4,2,2,69,0,0
11729,-100,4,2,1,69,0,0
14111,-100,4,3,2,69,0,0
24435,-100,4,3,7,69,0,0
24523,-100,4,3,2,69,0,0
25493,-100,4,3,2,25,0,0
25846,-100,4,3,1,25,0,0
26905,-100,4,2,1,69,0,0
26993,-100,4,3,1,69,0,0
27964,-100,4,2,1,69,0,0
28317,-100,4,2,2,69,0,0
28405,-100,4,3,1,69,0,0
29729,-100,4,2,1,69,0,0
29817,-100,4,3,1,69,0,0
30788,-100,4,2,1,69,0,0
31141,-100,4,2,2,69,0,0
31493,-100,4,3,1,69,0,0
31846,-100,4,3,5,69,0,0
31935,-100,4,3,1,69,0,0
32552,-100,4,2,1,69,0,0
33964,-100,4,2,2,69,0,0
34317,-100,4,2,1,69,0,0
34670,-100,4,2,2,69,0,0
35023,-100,4,2,1,69,0,0
35729,-100,4,3,4,69,0,0
36082,-100,4,2,1,69,0,0
36611,-100,4,3,1,69,0,0
38199,-100,4,3,1,69,0,1
48346,-100,4,3,3,69,0,1
49493,-100,4,3,3,69,0,0
51258,352.941176470588,4,3,1,65,1,0
56905,-100,4,2,1,65,0,0
59728,-100,4,2,1,65,0,0
60081,-100,4,3,4,65,0,0
60434,-100,4,2,1,65,0,0
61493,-100,4,3,4,65,0,0
61846,-100,4,3,5,65,0,0
62199,-100,4,2,1,65,0,0
62552,-100,4,3,1,75,0,1
66434,-100,4,3,2,75,0,1
66522,-100,4,3,1,75,0,1
73493,-100,4,3,1,75,0,1
73846,-100,4,3,1,65,0,0
79493,-100,4,3,1,5,0,0

[Colours]
Combo1 : 207,135,129
Combo2 : 165,130,172
Combo3 : 126,204,220
Combo4 : 199,225,119

[HitObjects]
236,76,1494,6,8,P|124:152|72:288,1,270,10|12,0:0|0:0,0:0:0:0:
144,328,2905,2,8,P|256:252|308:116,1,270,10|8,0:0|0:0,0:0:0:0:
388,92,4317,6,8,B|400:164|380:196|376:232|340:280,1,180,10|8,0:0|0:0,0:0:0:0:
296,336,5376,1,12,0:0:0:0:
384,348,5729,2,8,B|421:332|443:303|476:285|501:217,1,180,10|10,0:0|0:0,0:0:0:0:
476,132,6788,1,8,0:0:0:0:
404,76,7141,6,8,P|368:76|316:104,1,90,10|12,0:0|0:0,0:0:0:0:
296,188,7846,2,8,P|332:188|384:216,1,90,10|12,0:0|0:0,0:0:0:0:
316,276,8552,2,8,P|291:313|253:336,1,90,10|12,0:0|0:0,0:0:0:0:
164,324,9258,1,10,0:0:0:0:
92,272,9611,1,12,0:0:0:0:
104,184,9964,6,8,P|128:146|166:123,1,90,10|12,0:0|0:0,0:0:0:0:
256,124,10670,2,8,P|294:146|318:184,1,90,10|12,0:0|0:0,0:0:0:0:
316,276,11376,2,8,P|292:313|253:336,1,90,10|12,0:0|0:0,0:0:0:0:
172,304,12082,1,10,0:0:0:0:
88,268,12435,1,12,0:0:0:0:
141,92,14199,6,8,L|245:108,1,90
252,193,14905,2,8,L|164:180,1,90
112,256,15611,1,0,0:0:0:0:
144,339,15964,1,0,0:0:0:0:
204,272,16317,2,8,L|292:285,1,90
383,291,17023,6,8,P|430:257|441:225,1,90
352,209,17729,2,8,P|328:156|334:122,1,90
420,148,18435,1,0,0:0:0:0:
490,92,18788,1,0,0:0:0:0:
405,59,19141,2,8,P|367:35|322:30,1,90
252,84,19846,6,8,P|207:88|169:112,1,90
106,177,20552,1,8,0:0:0:0:
192,204,20905,1,8,0:0:0:0:
260,264,21258,2,8,P|222:287|177:292,1,90
92,264,21964,2,8,P|50:246|21:213,1,90
24,124,22670,6,8,L|100:72,1,90
168,128,23376,2,8,L|244:76,1,90
326,110,24082,2,8,P|391:151|414:252,1,180
463,322,25141,1,8,0:0:0:0:
372,323,25493,2,8,B|343:309|323:274|328:242|328:242|333:207|320:197|305:192|290:195|278:209|233:212|196:173,1,270
215,87,26905,6,8,P|137:107|113:202,1,180,10|8,0:0|0:0,0:0:0:0:
164,268,27964,1,12,0:0:0:0:
127,350,28317,2,8,P|207:349|254:264,1,180,10|8,0:0|0:0,0:0:0:0:
285,185,29376,1,8,0:0:0:0:
232,112,29729,6,8,L|128:80,1,90,10|8,0:0|0:0,0:0:0:0:
96,160,30435,2,8,L|182:186,1,90,8|12,0:0|0:0,0:0:0:0:
132,260,31141,2,8,B|195:292|265:257|267:184|267:184|312:160|312:109,1,270,10|8,0:0|0:0,0:0:0:0:
380,60,32552,6,8,B|424:80|424:80|448:120,1,90,10|12,0:0|0:0,0:0:0:0:
380,176,33258,2,8,B|424:196|424:196|445:231,1,90,10|12,0:0|0:0,0:0:0:0:
512,296,33964,2,8,P|474:319|429:324,1,90,10|12,0:0|0:0,0:0:0:0:
336,316,34670,2,8,P|309:279|270:259,1,90,10|12,0:0|0:0,0:0:0:0:
212,328,35376,6,8,P|120:236|120:184,1,180,10|10,0:0|0:0,0:0:0:0:
164,116,36435,2,0,L|212:156,1,45,12|0,0:0|0:0,0:0:0:0:
328,60,38199,6,8,P|368:81|394:117,1,90,8|12,0:0|0:0,0:0:0:0:
308,148,38905,2,8,P|268:169|242:205,1,90,8|12,0:0|0:0,0:0:0:0:
244,296,39611,2,8,P|320:288|380:312,2,135,8|2|12,0:0|0:0|0:0,0:0:0:0:
152,296,41023,6,8,P|112:275|86:239,1,90,8|12,0:0|0:0,0:0:0:0:
172,208,41729,2,8,P|211:187|237:151,1,90,8|12,0:0|0:0,0:0:0:0:
204,68,42435,2,8,P|128:60|68:84,2,135,8|2|12,0:0|0:0|0:0,0:0:0:0:
291,76,43846,5,8,0:0:0:0:
380,88,44199,2,8,P|426:102|457:133,1,90,12|8,0:0|0:0,0:0:0:0:
457,220,44905,1,12,0:0:0:0:
375,180,45258,2,8,P|366:232|386:275,2,90,8|12|8,0:0|0:0|0:0,0:0:0:0:
288,172,46317,1,12,0:0:0:0:
200,164,46670,6,8,P|124:224|168:252,1,180
209,325,47729,1,12,0:0:0:0:
120,332,48082,2,8,P|32:232|160:68,1,360,8|10,0:0|0:0,0:0:0:0:
364,276,56905,6,8,L|268:312,1,90,10|12,0:0|0:0,0:0:0:0:
220,240,57610,2,8,L|304:208,1,90,10|12,0:0|0:0,0:0:0:0:
252,136,58316,2,8,L|156:172,1,90,10|12,0:0|0:0,0:0:0:0:
108,100,59022,2,8,L|199:68,1,90,10|12,0:0|0:0,0:0:0:0:
280,48,59728,6,8,B|344:68|348:132|348:132|388:133|410:156,1,180,10|10,0:0|0:0,0:0:0:0:
445,236,60787,1,12,0:0:0:0:
445,327,61140,2,8,B|332:324|332:324|280:348|224:324|224:324|180:340,1,270,10|12,0:0|0:0,0:0:0:0:
96,312,62552,6,8,P|114:270|147:240,1,90,8|14,0:0|0:0,0:0:0:0:
112,160,63257,2,8,P|155:154|198:169,1,90,8|14,0:0|0:0,0:0:0:0:
236,252,63963,1,8,0:0:0:0:
292,180,64316,1,14,0:0:0:0:
372,140,64669,2,8,P|381:182|370:227,1,90,8|14,0:0|0:0,0:0:0:0:
316,300,65375,6,8,P|362:317|416:300,1,90,8|14,0:0|0:0,0:0:0:0:
460,240,66081,2,8,B|484:168|456:88|420:68,1,180
336,76,67140,1,14,0:0:0:0:
248,52,67493,2,8,L|160:92,1,90,8|14,0:0|0:0,0:0:0:0:
92,140,68199,6,8,P|53:207|100:297,1,180,8|12,0:0|0:0,0:0:0:0:
146,216,69257,1,8,0:0:0:0:
226,175,69610,2,8,P|264:242|365:246,1,180,8|12,0:0|0:0,0:0:0:0:
318,166,70668,1,12,0:0:0:0:
361,88,71022,6,8,P|313:61|261:56,1,90,8|12,0:0|0:0,0:0:0:0:
189,47,71728,2,8,P|156:77|114:94,1,90,8|12,0:0|0:0,0:0:0:0:
43,149,72434,2,8,P|32:196|49:239,1,90,8|12,0:0|0:0,0:0:0:0:
115,291,73140,2,8,B|167:271|167:271|214:302|275:266,1,150,12|0,0:0|0:0,0:0:0:0:
256,192,75257,12,0,79493,0:0:0:0:
