osu file format v14

[General]
AudioFilename: Attakain Dakara.mp3
AudioLeadIn: 1500
PreviewTime: 37229
Countdown: 0
SampleSet: Soft
StackLeniency: 0.7
Mode: 0
LetterboxInBreaks: 1
WidescreenStoryboard: 0

[Editor]
DistanceSpacing: 0.3
BeatDivisor: 4
GridSize: 4
TimelineZoom: 1.6

[Metadata]
Title:Attakain Dakara
TitleUnicode:あったかいんだからぁ♪
Artist:Hanatan
ArtistUnicode:花たん
Creator:[C u r i]
Version:Soup Tabetai
Source:
Tags:[_zzz_] guineaQ Honeyworks Kumamushi クマムシ
BeatmapID:936442
BeatmapSetID:391701

[Difficulty]
HPDrainRate:7
CircleSize:4
OverallDifficulty:8
ApproachRate:9
SliderMultiplier:1.6
SliderTickRate:1

[Events]
//Background and Video events
0,0,"53986426_p0.jpg",0,0
//Break Periods
2,51258,56305
//Storyboard Layer 0 (Background)
//Storyboard Layer 1 (Fail)
//Storyboard Layer 2 (Pass)
//Storyboard Layer 3 (Foreground)
//Storyboard Sound Samples

[TimingPoints]
1494,352.941176470588,4,2,1,50,1,0
7141,-100,4,2,1,60,0,0
13493,-200,4,2,1,60,0,0
14111,-200,4,2,1,5,0,0
14199,-100,4,2,1,80,0,0
25493,-100,4,2,1,60,0,0
26905,-100,4,2,1,65,0,0
36611,-100,4,2,1,70,0,0
36964,-100,4,2,1,60,0,0
38199,-83.3333333333333,4,2,1,90,0,1
42082,-66.6666666666667,4,2,1,90,0,1
42435,-83.3333333333333,4,2,1,90,0,1
49493,-100,4,2,1,70,0,0
51258,352.941176470588,4,2,1,90,1,0
56905,-100,4,2,1,80,0,0
62552,-83.3333333333333,4,2,1,90,0,1
73846,-100,4,2,1,60,0,0
74552,-200,4,2,1,50,0,0
75257,-200,4,2,1,60,0,0
79493,-200,4,2,1,40,0,0

[Colours]
Combo1 : 255,106,106
Combo2 : 234,234,0
Combo3 : 255,128,0
Combo4 : 221,13,44

[HitObjects]
9,215,1494,6,0,L|76:260,1,80,2|0,0:0|0:0,0:0:0:0:
170,135,1846,2,0,L|99:171,1,80,2|0,0:0|0:0,0:0:0:0:
156,313,2199,2,0,L|162:234,1,80,2|0,0:0|0:0,0:0:0:0:
348,314,2552,2,0,P|300:279|242:284,1,120,2|0,0:0|0:0,0:0:0:0:
156,313,2905,6,0,P|96:294|71:267,1,80,2|0,0:0|0:0,0:0:0:0:
40,156,3258,1,2,0:0:0:0:
171,69,3435,2,0,P|175:136|170:165,1,80,0|2,0:0|0:0,0:0:0:0:
64,168,3788,1,0,0:0:0:0:
167,50,3964,1,2,0:0:0:0:
225,200,4141,1,0,0:0:0:0:
406,135,4317,6,0,P|350:116|294:134,1,120,2|0,0:0|0:0,0:0:0:0:
225,200,4670,2,0,L|242:289,1,80,2|0,0:0|0:0,0:0:0:0:
377,340,5023,1,2,0:0:0:0:
240,278,5199,1,0,0:0:0:0:
276,379,5376,1,2,0:0:0:0:
344,242,5552,1,0,0:0:0:0:
168,357,5729,6,0,P|139:296|150:233,1,120,2|0,0:0|0:0,0:0:0:0:
214,180,6082,2,0,L|211:100,1,80,2|0,0:0|0:0,0:0:0:0:
112,34,6435,1,2,0:0:0:0:
93,153,6611,1,0,0:0:0:0:
212,136,6788,1,2,0:0:0:0:
73,48,6964,1,0,0:0:0:0:
56,58,7052,1,0,0:0:0:0:
38,70,7141,6,0,B|47:140|24:180|24:180|87:165,1,160,6|2,0:0|0:0,0:0:0:0:
174,80,7670,1,0,0:0:0:0:
183,232,7846,1,2,0:0:0:0:
116,158,8023,1,8,0:0:0:0:
268,206,8199,1,2,0:0:0:0:
91,152,8376,1,8,0:0:0:0:
271,106,8552,6,0,P|327:102|372:107,1,80,4|0,0:0|0:0,0:0:0:0:
449,207,8905,1,2,0:0:0:0:
389,322,9082,1,2,0:0:0:0:
363,302,9170,1,2,0:0:0:0:
343,278,9258,1,2,0:0:0:0:
329,249,9346,1,2,0:0:0:0:
324,217,9435,2,2,L|327:153,1,40
218,209,9611,1,2,0:0:0:0:
368,98,9788,1,0,0:0:0:0:
339,70,9876,1,0,0:0:0:0:
303,53,9964,6,0,P|212:45|126:59,1,160,4|8,0:0|0:0,0:0:0:0:
56,161,10493,1,0,0:0:0:0:
56,161,10582,1,0,0:0:0:0:
56,161,10670,1,2,0:0:0:0:
203,136,10846,1,2,0:0:0:0:
94,246,11023,1,8,0:0:0:0:
119,87,11199,1,0,0:0:0:0:
119,87,11287,1,0,0:0:0:0:
119,87,11376,5,2,0:0:0:0:
185,234,11552,1,2,0:0:0:0:
204,44,11729,5,2,0:0:0:0:
56,161,11905,1,2,0:0:0:0:
269,263,12082,5,8,0:0:0:0:
119,87,12258,1,8,0:0:0:0:
59,308,12435,5,8,0:0:0:0:
249,131,12611,1,8,0:0:0:0:
289,349,13493,6,0,L|435:321,1,140
458,331,14199,6,0,P|439:285|441:229,1,80,6|0,0:0|0:0,0:0:0:0:
456,180,14464,1,0,0:0:0:0:
456,180,14552,1,8,0:0:0:0:
310,163,14729,2,0,L|366:144,1,40
423,73,14905,1,2,0:0:0:0:
388,53,14993,1,0,0:0:0:0:
349,46,15081,1,0,0:0:0:0:
309,53,15169,1,0,0:0:0:0:
275,73,15258,2,0,L|215:98,1,40,8|0,0:0|0:0,0:0:0:0:
148,60,15435,2,0,L|119:111,1,40
80,260,15611,5,2,0:0:0:0:
247,208,15788,1,0,0:0:0:0:
212,189,15876,1,0,0:0:0:0:
173,186,15964,1,8,0:0:0:0:
185,306,16141,2,0,L|217:337,1,40
313,289,16317,1,2,0:0:0:0:
319,249,16405,1,0,0:0:0:0:
325,209,16493,1,0,0:0:0:0:
331,170,16581,1,0,0:0:0:0:
337,130,16670,2,0,L|346:72,3,40,8|0|0|0,0:0|0:0|0:0|0:0,0:0:0:0:
345,50,17023,6,0,P|277:72|252:68,1,80,2|0,0:0|0:0,0:0:0:0:
190,61,17288,1,0,0:0:0:0:
190,61,17376,2,0,P|150:64|114:82,1,80,8|0,0:0|0:0,0:0:0:0:
72,150,17641,1,0,0:0:0:0:
72,150,17729,2,0,P|64:176|70:196,1,40,2|0,0:0|0:0,0:0:0:0:
204,205,17905,2,0,P|184:185|165:180,1,40
57,304,18082,1,8,0:0:0:0:
82,335,18170,1,0,0:0:0:0:
119,349,18258,1,0,0:0:0:0:
158,343,18346,1,0,0:0:0:0:
192,321,18435,6,0,P|256:313|288:328,1,80,2|0,0:0|0:0,0:0:0:0:
326,252,18699,1,0,0:0:0:0:
326,252,18788,2,0,P|287:200|284:165,1,80,8|0,0:0|0:0,0:0:0:0:
293,107,19052,1,0,0:0:0:0:
293,107,19141,2,0,L|302:67,1,40,2|0,0:0|0:0,0:0:0:0:
360,153,19317,1,0,0:0:0:0:
329,178,19405,1,0,0:0:0:0:
291,187,19493,1,8,0:0:0:0:
253,176,19581,1,0,0:0:0:0:
224,148,19669,1,0,0:0:0:0:
213,111,19758,1,0,0:0:0:0:
220,72,19846,5,6,0:0:0:0:
375,125,20023,1,0,0:0:0:0:
384,132,20111,1,0,0:0:0:0:
393,139,20199,2,0,L|406:226,1,80,8|0,0:0|0:0,0:0:0:0:
370,322,20464,1,0,0:0:0:0:
370,322,20552,2,0,P|347:332|320:341,1,40,2|0,0:0|0:0,0:0:0:0:
184,269,20729,2,0,P|202:275|221:284,1,40
98,349,20905,1,8,0:0:0:0:
94,309,20993,1,0,0:0:0:0:
90,269,21081,1,0,0:0:0:0:
86,229,21169,1,0,0:0:0:0:
82,189,21258,6,0,L|97:109,1,80,2|0,0:0|0:0,0:0:0:0:
70,33,21523,1,0,0:0:0:0:
70,33,21611,2,0,L|150:48,1,80,8|0,0:0|0:0,0:0:0:0:
229,22,21876,1,0,0:0:0:0:
229,22,21964,2,0,L|218:77,1,40,2|0,0:0|0:0,0:0:0:0:
225,164,22141,2,0,L|236:219,1,40
333,228,22317,1,8,0:0:0:0:
293,223,22405,1,0,0:0:0:0:
256,237,22493,1,0,0:0:0:0:
230,267,22581,1,0,0:0:0:0:
220,305,22670,6,0,P|161:294|113:314,1,80,2|0,0:0|0:0,0:0:0:0:
68,335,22935,1,0,0:0:0:0:
68,335,23023,2,0,L|57:239,1,80,8|0,0:0|0:0,0:0:0:0:
68,176,23288,1,0,0:0:0:0:
68,176,23376,2,0,P|72:151|69:113,3,40,2|0|0|0,0:0|0:0|0:0|0:0,0:0:0:0:
96,104,23729,1,8,0:0:0:0:
126,78,23817,1,0,0:0:0:0:
164,67,23905,1,0,0:0:0:0:
204,72,23993,1,0,0:0:0:0:
239,91,24081,5,2,0:0:0:0:
184,257,24258,1,0,0:0:0:0:
178,217,24346,1,0,0:0:0:0:
173,177,24434,1,8,0:0:0:0:
279,273,24611,2,0,L|285:313,1,40
299,239,24788,5,2,0:0:0:0:
334,221,24876,1,0,0:0:0:0:
374,221,24964,1,0,0:0:0:0:
409,239,25052,1,0,0:0:0:0:
433,270,25141,5,8,0:0:0:0:
437,230,25229,1,0,0:0:0:0:
440,190,25317,1,0,0:0:0:0:
443,150,25405,1,0,0:0:0:0:
446,111,25493,5,0,0:0:0:0:
300,156,25670,2,0,P|294:100|303:68,1,80
389,22,26023,1,0,0:0:0:0:
204,111,26199,2,0,L|107:118,1,80
218,217,26552,1,0,0:0:0:0:
57,189,26729,1,0,0:0:0:0:
104,348,26905,6,0,P|192:331|278:371,1,160,6|0,0:0|0:0,0:0:0:0:
376,353,27435,1,0,0:0:0:0:
309,182,27611,2,0,L|318:264,1,80,2|0,0:0|0:0,0:0:0:0:
395,371,27964,2,0,L|403:291,1,80,2|0,0:0|0:0,0:0:0:0:
211,145,28317,6,0,B|225:266|225:266|240:214,1,160,2|0,0:0|0:0,0:0:0:0:
117,102,28846,2,0,L|132:261,1,160
303,313,29376,1,0,0:0:0:0:
235,229,29552,1,0,0:0:0:0:
63,323,29729,6,0,P|135:353|205:319,1,160,2|0,0:0|0:0,0:0:0:0:
243,201,30258,1,0,0:0:0:0:
110,141,30435,2,0,L|120:241,1,80,2|0,0:0|0:0,0:0:0:0:
277,297,30788,2,0,L|267:197,1,80,0|0,0:0|0:0,0:0:0:0:
74,81,31141,6,0,B|52:110|52:110|114:83|171:113,1,160,2|0,0:0|0:0,0:0:0:0:
111,306,31670,2,0,B|111:191|111:191|149:228,1,160
201,341,32199,1,0,0:0:0:0:
22,274,32376,1,0,0:0:0:0:
249,140,32552,6,0,L|170:144,1,80,6|0,0:0|0:0,0:0:0:0:
49,243,32905,2,0,L|128:246,1,80,8|0,0:0|0:0,0:0:0:0:
302,253,33258,1,2,0:0:0:0:
158,350,33435,1,0,0:0:0:0:
217,188,33611,1,8,0:0:0:0:
261,356,33788,1,0,0:0:0:0:
128,246,33964,6,0,L|49:243,1,80,2|0,0:0|0:0,0:0:0:0:
158,350,34317,1,8,0:0:0:0:
217,188,34493,1,0,0:0:0:0:
261,356,34670,2,0,L|340:352,1,80,2|0,0:0|0:0,0:0:0:0:
452,258,35023,2,0,L|372:254,1,80,8|0,0:0|0:0,0:0:0:0:
496,332,35376,6,0,B|499:205|499:205|471:242,1,160,6|8,0:0|0:0,0:0:0:0:
391,339,35905,1,0,0:0:0:0:
280,240,36082,1,2,0:0:0:0:
282,343,36258,1,0,0:0:0:0:
390,234,36435,1,8,0:0:0:0:
211,168,36611,6,0,B|148:154|82:176|82:176|122:188,1,160,2|0,0:0|0:0,0:0:0:0:
198,249,37141,1,0,0:0:0:0:
147,88,37317,1,0,0:0:0:0:
102,271,37493,2,0,P|137:325|167:338,1,80
321,319,37846,2,0,P|256:322|230:341,1,80
409,369,38199,6,0,B|423:297|424:216|424:216|392:251,1,191.999994140625,6|8,0:0|0:0,0:0:0:0:
287,354,38729,1,0,0:0:0:0:
504,331,38905,2,0,P|509:287|513:235,1,95.9999970703126,2|0,0:0|0:0,0:0:0:0:
389,148,39258,2,0,P|392:195|397:243,1,95.9999970703126,8|0,0:0|0:0,0:0:0:0:
452,95,39611,6,0,B|388:128|304:93|304:93|328:131,1,191.999994140625,2|8,0:0|0:0,0:0:0:0:
90,157,40141,2,0,B|154:124|238:159|238:159|214:121,1,191.999994140625
94,62,40670,1,8,0:0:0:0:
163,241,40846,1,0,0:0:0:0:
324,125,41023,6,0,B|475:139|475:139|428:168,1,191.999994140625,6|8,0:0|0:0,0:0:0:0:
305,230,41552,1,0,0:0:0:0:
321,23,41729,2,0,L|439:35,1,95.9999970703126,2|0,0:0|0:0,0:0:0:0:
480,149,42082,6,0,P|432:158|470:85,1,180.000006866455,8|0,0:0|0:0,0:0:0:0:
512,169,42435,6,0,P|525:222|502:274,1,95.9999970703126,2|0,0:0|0:0,0:0:0:0:
381,312,42788,1,8,0:0:0:0:
260,277,42964,2,0,L|152:284,1,95.9999970703126,0|2,0:0|0:0,0:0:0:0:
347,175,43317,1,0,0:0:0:0:
505,218,43493,1,8,0:0:0:0:
453,380,43670,1,0,0:0:0:0:
285,344,43846,6,0,B|262:188|262:188|295:222,1,191.999994140625,6|8,0:0|0:0,0:0:0:0:
366,312,44376,1,0,0:0:0:0:
180,324,44552,1,2,0:0:0:0:
322,207,44729,1,0,0:0:0:0:
276,362,44905,1,8,0:0:0:0:
161,242,45082,1,0,0:0:0:0:
376,157,45258,6,0,L|380:257,1,95.9999970703126,2|0,0:0|0:0,0:0:0:0:
276,362,45611,1,8,0:0:0:0:
458,322,45788,1,0,0:0:0:0:
292,196,45964,2,0,L|287:92,1,95.9999970703126,2|0,0:0|0:0,0:0:0:0:
430,171,46317,1,8,0:0:0:0:
364,353,46493,1,0,0:0:0:0:
163,276,46670,6,0,B|138:126|138:126|176:156,1,191.999994140625,6|8,0:0|0:0,0:0:0:0:
285,310,47199,1,0,0:0:0:0:
68,276,47376,2,0,L|52:181,1,95.9999970703126,2|0,0:0|0:0,0:0:0:0:
117,58,47729,1,8,0:0:0:0:
52,181,47905,1,0,0:0:0:0:
250,93,48082,6,0,P|296:84|363:87,1,95.9999970703126,6|0,0:0|0:0,0:0:0:0:
465,165,48435,1,8,0:0:0:0:
487,315,48611,2,0,P|468:329|445:335,1,47.9999985351563
364,305,48788,6,0,L|274:314,2,63.9999980468751,2|2|2,0:0|0:0|0:0,0:0:0:0:
351,218,49141,2,0,L|261:227,2,63.9999980468751,2|2|2,0:0|0:0|0:0,0:0:0:0:
432,248,49493,1,2,0:0:0:0:
377,124,56905,6,0,L|372:225,1,80,6|0,0:0|0:0,0:0:0:0:
279,354,57258,2,0,L|284:253,1,80,2|0,0:0|0:0,0:0:0:0:
212,183,57610,2,0,P|252:182|290:195,1,80,2|0,0:0|0:0,0:0:0:0:
444,298,57963,2,0,P|404:299|366:286,1,80,2|0,0:0|0:0,0:0:0:0:
377,124,58316,5,6,0:0:0:0:
282,274,58493,1,0,0:0:0:0:
464,282,58669,1,2,0:0:0:0:
278,194,58846,6,0,L|282:288,1,80,0|2,0:0|0:0,0:0:0:0:
373,350,59199,1,0,0:0:0:0:
191,352,59375,1,2,0:0:0:0:
311,283,59552,1,0,0:0:0:0:
87,276,59728,6,0,B|56:219|88:164|88:164|42:198,1,160,6|8,0:0|0:0,0:0:0:0:
15,348,60257,1,0,0:0:0:0:
191,255,60434,2,0,L|276:253,1,80,2|0,0:0|0:0,0:0:0:0:
384,161,60787,1,8,0:0:0:0:
270,253,60963,1,0,0:0:0:0:
250,108,61140,5,10,0:0:0:0:
460,211,61316,1,8,0:0:0:0:
326,60,61493,1,8,0:0:0:0:
270,253,61669,1,8,0:0:0:0:
415,104,61846,2,0,P|425:76|414:22,1,80,8|8,0:0|0:0,0:0:0:0:
331,159,62199,1,8,0:0:0:0:
170,77,62375,1,8,0:0:0:0:
47,215,62552,6,0,B|6:284|60:355|60:355|59:303,1,191.999994140625,6|8,0:0|0:0,0:0:0:0:
7,125,63081,1,0,0:0:0:0:
145,255,63257,2,0,L|253:262,1,95.9999970703126,2|0,0:0|0:0,0:0:0:0:
358,156,63610,2,0,L|250:163,1,95.9999970703126,8|0,0:0|0:0,0:0:0:0:
421,327,63963,6,0,B|433:196|433:196|414:226|382:237,1,191.999994140625,2|8,0:0|0:0,0:0:0:0:
324,63,64493,2,0,B|312:194|312:194|331:164|363:153,1,191.999994140625
455,299,65022,2,0,P|403:324|360:321,1,95.9999970703126,8|0,0:0|0:0,0:0:0:0:
279,281,65287,1,0,0:0:0:0:
279,281,65375,6,0,B|202:262|143:275|143:275|187:229,1,191.999994140625,6|8,0:0|0:0,0:0:0:0:
298,187,65905,1,0,0:0:0:0:
255,364,66081,2,0,P|175:357|149:364,1,95.9999970703126,2|0,0:0|0:0,0:0:0:0:
66,218,66434,2,0,L|72:100,1,95.9999970703126,8|0,0:0|0:0,0:0:0:0:
76,314,66787,6,0,P|144:280|271:277,1,191.999994140625,2|8,0:0|0:0,0:0:0:0:
439,137,67316,2,0,P|371:171|311:175,1,95.9999970703126
242,73,67669,1,0,0:0:0:0:
95,130,67846,1,8,0:0:0:0:
215,242,68022,1,0,0:0:0:0:
215,242,68110,1,0,0:0:0:0:
215,242,68199,6,0,P|225:299|210:344,1,95.9999970703126,6|0,0:0|0:0,0:0:0:0:
95,361,68552,1,2,0:0:0:0:
214,334,68728,1,0,0:0:0:0:
128,200,68905,2,0,L|122:97,1,95.9999970703126,8|0,0:0|0:0,0:0:0:0:
54,33,69257,1,2,0:0:0:0:
225,88,69434,1,8,0:0:0:0:
300,169,69610,6,0,P|368:155|439:163,1,95.9999970703126,2|8,0:0|0:0,0:0:0:0:
487,269,69963,1,2,0:0:0:0:
338,352,70140,1,0,0:0:0:0:
335,304,70228,1,0,0:0:0:0:
333,256,70316,1,8,0:0:0:0:
434,362,70493,1,0,0:0:0:0:
245,329,70669,2,0,L|131:334,1,95.9999970703126,8|0,0:0|0:0,0:0:0:0:
151,136,71022,5,2,0:0:0:0:
151,136,71199,1,2,0:0:0:0:
285,59,71375,2,0,P|352:49|400:73,1,95.9999970703126,12|0,0:0|0:0,0:0:0:0:
151,136,71728,1,2,0:0:0:0:
151,136,71905,1,2,0:0:0:0:
274,215,72081,2,0,P|284:282|260:330,1,95.9999970703126,12|0,0:0|0:0,0:0:0:0:
151,136,72434,5,2,0:0:0:0:
151,136,72610,1,2,0:0:0:0:
377,57,72787,2,0,P|331:47|285:59,1,95.9999970703126,4|0,0:0|0:0,0:0:0:0:
274,215,73140,5,2,0:0:0:0:
275,307,73257,2,0,P|266:336|242:363,1,63.9999980468751,2|2,0:0|0:0,0:0:0:0:
187,266,73493,1,2,0:0:0:0:
107,312,73610,2,0,P|76:319|41:312,1,63.9999980468751,2|2,0:0|0:0,0:0:0:0:
275,277,74552,6,4,P|331:243|272:214,1,160,0|4,0:0|0:0,0:0:0:0:
256,192,75346,12,0,79493,0:0:0:0:
