osu file format v14

[General]
AudioFilename: audio.mp3
AudioLeadIn: 0
PreviewTime: 57181
Countdown: 0
SampleSet: Soft
StackLeniency: 0.7
Mode: 0
LetterboxInBreaks: 0
WidescreenStoryboard: 1

[Editor]
DistanceSpacing: 1
BeatDivisor: 4
GridSize: 16
TimelineZoom: 2.4

[Metadata]
Title:arc-en-ciel (TV Size)
TitleUnicode:アルカンシェル (TV Size)
Artist:Hanatan
ArtistUnicode:花たん
Creator:ckharv
Version:Normal
Source:転生王女と天才令嬢の魔法革命
Tags:Tensei Oujo to Tensai Reijou no Mahou Kakumei The Magical Revolution of the Reincarnated Princess and the Genius Young Lady tv anime op opening japanese pop jpop j-pop ayesha altugle kazato asa shizuku- shikibe mayu gay lesbian yuri
BeatmapID:3979334
BeatmapSetID:1925145

[Difficulty]
HPDrainRate:3
CircleSize:3.4
OverallDifficulty:4
ApproachRate:5
SliderMultiplier:1.2
SliderTickRate:1

[Events]
//Background and Video events
0,0,"yuribg6.jpg",0,0
Video,0,"yuriop.mp4"
//Break Periods
//Storyboard Layer 0 (Background)
//Storyboard Layer 1 (Fail)
//Storyboard Layer 2 (Pass)
//Storyboard Layer 3 (Foreground)
//Storyboard Layer 4 (Overlay)
//Storyboard Sound Samples

[TimingPoints]
418,461.538461538462,4,2,1,35,1,0
6648,-100,4,2,1,40,0,0
7744,-100,4,2,1,5,0,0
7802,-117.647058823529,4,2,1,50,0,0
14610,-117.647058823529,4,2,1,5,0,0
14725,-117.647058823529,4,2,1,50,0,0
15187,-100,4,2,1,75,0,0
19341,-100,4,2,1,65,0,0
20494,-100,4,2,1,80,0,0
21187,-100,4,2,1,75,0,0
21879,-100,4,2,1,65,0,0
22571,-117.647058823529,4,2,1,45,0,0
29956,-108.695652173913,4,2,1,60,0,0
37341,-108.695652173913,4,2,1,30,0,0
37571,-108.695652173913,4,2,1,50,0,0
38033,-117.647058823529,4,2,1,50,0,0
44725,-108.695652173913,4,2,1,60,0,0
48418,-108.695652173913,4,2,1,65,0,0
52110,-108.695652173913,4,2,1,70,0,0
55687,-108.695652173913,4,2,1,55,0,0
57648,-100,4,2,1,80,0,0
65033,-100,4,2,1,75,0,0
68725,-100,4,2,1,70,0,0
70341,-100,4,2,1,75,0,0
71956,-100,4,2,1,80,0,0
79802,-100,4,2,1,75,0,0
85802,-100,4,2,1,50,0,0
86033,-117.647058823529,4,2,1,50,0,0

[Colours]
Combo1 : 216,143,243
Combo2 : 250,227,139
Combo3 : 114,207,186
Combo4 : 223,223,223

[HitObjects]
24,102,418,5,2,0:2:0:0:
112,115,764,1,2,0:2:0:0:
158,37,1110,1,2,0:2:0:0:
324,80,2264,5,2,0:2:0:0:
409,53,2610,1,2,0:2:0:0:
466,122,2956,1,2,0:2:0:0:
444,317,4110,5,2,0:2:0:0:
363,360,4456,1,2,0:2:0:0:
292,296,4802,1,2,0:2:0:0:
45,241,5956,5,2,0:2:0:0:
126,279,6302,1,2,0:2:0:0:
185,212,6648,1,2,0:2:0:0:
185,212,7802,6,0,P|222:263|327:273,2,153.000002918243,2|0|0,1:2|0:0|0:0,0:0:0:0:
120,132,9648,2,0,P|83:183|-22:193,2,153.000002918243,2|2|0,0:2|0:2|0:0,0:0:0:0:
127,84,11264,1,0,3:2:0:0:
127,84,11494,1,2,0:2:0:0:
197,27,13110,5,0,1:2:0:0:
197,27,15187,6,0,P|239:46|305:48,2,90,6|2|2,1:2|0:2|0:2,0:0:0:0:
105,104,16341,1,2,1:2:0:0:
105,104,16571,2,0,P|120:149|120:171,1,60,10|0,0:2|3:2,0:0:0:0:
99,217,17033,2,0,P|60:222|12:245,2,90,2|2|2,1:2|0:2|0:2,0:0:0:0:
185,308,18187,1,2,0:2:0:0:
185,308,18418,2,0,P|234:324|258:339,1,60,10|0,0:2|0:2,0:0:0:0:
278,374,18879,6,0,P|337:384|393:346,1,120,0|10,1:2|0:2,0:0:0:0:
445,249,19802,2,0,P|432:207|436:172,1,60,2|2,1:2|0:2,0:0:0:0:
447,136,20264,1,8,0:2:0:0:
447,136,20494,2,0,P|399:144|332:97,1,120,6|2,1:2|1:2,0:0:0:0:
318,64,21187,1,2,1:2:0:0:
318,64,21418,1,2,1:2:0:0:
318,64,21648,1,4,0:3:0:0:
222,137,22110,1,8,0:3:0:0:
147,67,22571,6,0,P|110:65|52:111,1,102.000001945496,2|0,1:2|1:0,0:0:0:0:
77,147,23264,2,0,P|98:174|107:256,1,102.000001945496,2|2,0:2|0:2,0:0:0:0:
72,336,24187,1,2,0:2:0:0:
72,336,24418,2,0,P|101:365|167:370,1,102.000001945496,2|0,1:2|1:2,0:0:0:0:
196,336,25110,2,0,P|244:329|350:305,1,153.000002918243,2|0,0:2|1:2,0:0:0:0:
442,338,26264,6,0,P|482:309|497:247,1,102.000001945496,2|0,1:2|1:0,0:0:0:0:
482,212,26956,2,0,P|444:206|400:140,1,102.000001945496,2|2,0:2|0:2,0:0:0:0:
400,109,27648,1,0,1:2:0:0:
435,13,28110,1,2,0:2:0:0:
435,13,29956,6,0,P|401:42|323:51,1,110.399996293945,6|8,1:2|0:2,0:0:0:0:
299,93,30648,2,0,P|255:90|195:52,1,110.399996293945,2|2,0:2|0:2,0:0:0:0:
161,15,31341,1,8,0:2:0:0:
56,49,31802,2,0,P|25:80|27:155,1,110.399996293945,2|8,1:2|0:2,0:0:0:0:
52,189,32494,1,2,1:2:0:0:
151,248,32956,1,2,0:2:0:0:
151,248,33187,2,0,P|191:228|220:224,2,55.1999981469727,10|2|2,0:2|0:2|1:2,0:0:0:0:
212,339,34110,6,0,P|265:346|314:392,1,110.399996293945,10|0,0:2|1:2,0:0:0:0:
361,368,34802,2,0,P|370:337|365:305,1,55.1999981469727,2|8,0:2|0:2,0:0:0:0:
335,269,35264,1,4,1:2:0:0:
400,181,35725,1,2,1:2:0:0:
400,181,35956,2,0,P|446:200|470:196,2,55.1999981469727,2|2|2,1:2|1:2|1:2,0:0:0:0:
327,97,36879,2,0,P|294:120|214:118,1,110.399996293945,2|4,0:2|1:2,0:0:0:0:
114,25,38033,5,0,1:2:0:0:
114,25,38264,1,8,0:2:0:0:
32,84,38725,1,2,0:2:0:0:
32,84,38956,2,0,P|60:128|54:196,1,102.000001945496,2|2,0:2|0:2,0:0:0:0:
34,275,39879,2,0,P|78:277|128:328,1,102.000001945496,0|2,1:2|0:2,0:0:0:0:
167,290,40571,2,0,P|179:258|175:221,2,51.0000009727478,2|0|2,3:2|1:2|1:2,0:0:0:0:
232,368,41494,6,0,P|290:374|338:343,1,102.000001945496,2|8,0:2|0:2,0:0:0:0:
349,308,42187,1,2,0:2:0:0:
437,257,42648,2,0,P|424:224|438:154,1,102.000001945496,2|0,0:2|0:2,0:0:0:0:
465,119,43341,2,0,P|498:135|520:135,2,51.0000009727478,0|8|0,3:2|0:2|1:2,0:0:0:0:
407,34,44264,1,8,0:2:0:0:
298,15,44725,6,0,P|260:46|182:47,1,110.399996293945,4|0,1:2|1:2,0:0:0:0:
165,16,45418,1,2,0:2:0:0:
165,16,45648,1,2,1:2:0:0:
95,102,46110,1,10,0:2:0:0:
95,102,46341,2,0,P|42:106|-5:148,2,110.399996293945,2|2|2,0:2|0:2|0:2,0:0:0:0:
190,167,47725,1,2,0:2:0:0:
190,167,47956,1,8,0:2:0:0:
278,233,48418,6,0,P|310:220|337:218,1,55.1999981469727,4|0,1:2|3:2,0:0:0:0:
363,261,48879,2,0,P|357:298|358:323,1,55.1999981469727,0|8,1:2|0:2,0:0:0:0:
371,369,49341,1,0,1:2:0:0:
479,351,49802,1,10,0:2:0:0:
506,244,50264,2,0,P|494:196|497:167,1,55.1999981469727,2|0,1:2|0:0,0:0:0:0:
455,151,50725,2,0,P|458:113|468:88,1,55.1999981469727,0|10,1:0|0:2,0:0:0:0:
500,55,51187,1,2,1:2:0:0:
401,5,51648,1,8,0:2:0:0:
317,77,52110,6,0,P|278:73|255:62,1,55.1999981469727,6|0,1:2|0:0,0:0:0:0:
238,116,52571,2,0,P|241:160|249:181,1,55.1999981469727,0|8,1:2|0:2,0:0:0:0:
270,219,53033,1,0,1:2:0:0:
164,250,53494,2,0,P|130:238|100:235,1,55.1999981469727,8|2,0:2|0:2,0:0:0:0:
85,284,53956,2,0,B|86:333|100:315|103:386,2,82.7999972204591,14|2|2,0:2|1:2|1:2,0:0:0:0:
34,185,55110,1,2,1:2:0:0:
68,141,55341,2,0,B|125:122|110:139|184:112,1,110.399996293945,8|2,0:2|0:2,0:0:0:0:
253,22,57648,6,0,P|300:61|381:54,1,120,4|8,1:2|0:2,0:0:0:0:
400,22,58341,1,2,0:2:0:0:
459,28,58571,2,0,P|487:66|480:149,1,120,2|8,1:2|0:2,0:0:0:0:
456,189,59264,1,2,3:2:0:0:
342,169,59725,1,2,0:2:0:0:
342,169,59956,2,0,P|309:189|243:190,1,90,10|2,0:2|3:2,0:0:0:0:
208,119,60648,1,2,0:2:0:0:
148,108,60879,2,0,P|115:126|79:130,1,60,10|2,0:2|0:2,0:0:0:0:
29,129,61341,6,0,P|62:174|61:245,1,120,6|10,1:2|0:2,0:0:0:0:
45,296,62033,1,0,0:0:0:0:
45,296,62264,1,2,1:2:0:0:
117,376,62725,1,10,0:2:0:0:
169,346,62956,2,0,B|237:364|214:342|301:361,1,120,4|2,1:2|1:2,0:0:0:0:
351,384,63648,1,0,1:2:0:0:
351,384,63879,1,0,1:2:0:0:
351,384,64110,1,0,1:2:0:0:
408,279,64571,2,0,P|438:300|477:302,1,60,8|8,1:3|0:3,0:0:0:0:
508,267,65033,6,0,P|523:231|496:132,1,120,6|8,1:2|0:2,0:0:0:0:
473,113,65725,1,0,3:2:0:0:
473,113,65956,2,0,P|435:140|348:137,1,120,2|8,1:2|0:2,0:0:0:0:
316,115,66648,1,2,3:2:0:0:
316,115,66879,1,2,1:2:0:0:
204,71,67341,1,8,0:2:0:0:
161,37,67571,2,0,B|87:24|127:21|33:6,1,120,2|2,3:2|3:2,0:0:0:0:
5,53,68264,2,0,P|21:91|21:114,1,60,10|2,0:2|0:2,0:0:0:0:
15,169,68725,5,2,1:2:0:0:
101,252,69187,2,0,P|136:239|172:239,1,60,8|0,0:2|3:2,0:0:0:0:
216,223,69648,2,0,P|191:281|211:346,1,120,0|8,1:2|0:2,0:0:0:0:
241,381,70341,1,6,1:2:0:0:
364,384,70802,1,0,1:2:0:0:
364,384,71033,2,0,P|392:365|429:360,1,60,8|8,0:2|0:2,0:0:0:0:
456,314,71494,2,0,P|461:279|448:245,1,60,8|8,0:2|0:2,0:0:0:0:
412,228,71956,1,8,0:2:0:0:
412,228,72187,1,8,0:2:0:0:
412,228,72418,1,6,1:2:0:0:
490,137,72879,6,0,P|502:102|501:66,1,60,8|2,0:2|0:2,0:0:0:0:
476,24,73341,2,0,P|442:48|345:31,1,120,2|8,1:2|0:2,0:0:0:0:
313,15,74033,1,2,0:2:0:0:
220,90,74494,1,2,0:2:0:0:
220,90,74725,2,0,P|251:137|253:183,1,90,10|2,0:2|0:2,0:0:0:0:
218,252,75418,1,2,0:2:0:0:
174,292,75648,2,0,P|134:303|105:320,1,60,10|2,0:2|0:2,0:0:0:0:
59,294,76110,6,0,P|23:255|29:173,1,120,6|10,1:2|0:2,0:0:0:0:
51,141,76802,1,0,0:0:0:0:
51,141,77033,1,2,1:2:0:0:
150,78,77494,1,10,0:2:0:0:
198,42,77725,2,0,B|277:27|249:17|338:8,1,120,6|2,1:2|0:2,0:0:0:0:
354,55,78418,2,0,P|345:90|348:124,1,60,10|0,0:2|1:2,0:0:0:0:
397,143,78879,2,0,P|441:124|469:124,2,60,2|0|8,1:2|3:2|0:3,0:0:0:0:
349,253,79802,6,0,P|303:254|238:201,1,120,4|8,1:2|0:2,0:0:0:0:
219,163,80494,1,2,3:2:0:0:
219,163,80725,2,0,P|233:124|233:94,2,60,2|2|8,1:2|0:2|0:2,0:0:0:0:
162,185,81418,1,2,3:2:0:0:
105,166,81648,2,0,P|56:178|6:245,1,120,2|10,1:2|0:2,0:0:0:0:
8,288,82341,1,2,3:2:0:0:
95,378,82802,1,2,0:2:0:0:
95,378,83033,2,0,P|135:357|163:355,1,60,10|0,0:2|3:2,0:0:0:0:
201,326,83494,6,0,P|233:360|319:369,1,120,2|10,1:2|0:2,0:0:0:0:
345,330,84187,1,2,0:2:0:0:
345,330,84418,2,0,P|327:285|329:255,1,60,0|8,1:2|0:2,0:0:0:0:
336,214,84879,1,8,0:2:0:0:
376,169,85110,1,4,1:2:0:0:
233,22,86033,6,0,P|197:55|129:50,2,102.000001945496,2|2|2,0:2|0:2|0:2,0:0:0:0:
256,192,87071,12,0,88571,0:0:0:0:
