osu file format v14

[General]
AudioFilename: audio.mp3
AudioLeadIn: 0
PreviewTime: 57181
Countdown: 0
SampleSet: Soft
StackLeniency: 0.7
Mode: 0
LetterboxInBreaks: 0
WidescreenStoryboard: 1

[Editor]
DistanceSpacing: 1
BeatDivisor: 8
GridSize: 16
TimelineZoom: 2.4

[Metadata]
Title:arc-en-ciel (TV Size)
TitleUnicode:アルカンシェル (TV Size)
Artist:Hanatan
ArtistUnicode:花たん
Creator:ckharv
Version:Hard
Source:転生王女と天才令嬢の魔法革命
Tags:Tensei Oujo to Tensai Reijou no Mahou Kakumei The Magical Revolution of the Reincarnated Princess and the Genius Young Lady tv anime op opening japanese pop jpop j-pop ayesha altugle kazato asa shizuku- shikibe mayu gay lesbian yuri
BeatmapID:3979333
BeatmapSetID:1925145

[Difficulty]
HPDrainRate:4
CircleSize:3.8
OverallDifficulty:6.5
ApproachRate:8
SliderMultiplier:1.7
SliderTickRate:1

[Events]
//Background and Video events
0,0,"yuribg6.jpg",0,0
Video,0,"yuriop.mp4"
//Break Periods
//Storyboard Layer 0 (Background)
//Storyboard Layer 1 (Fail)
//Storyboard Layer 2 (Pass)
//Storyboard Layer 3 (Foreground)
//Storyboard Layer 4 (Overlay)
//Storyboard Sound Samples

[TimingPoints]
418,461.538461538462,4,2,1,35,1,0
6648,-166.666666666667,4,2,1,40,0,0
7744,-166.666666666667,4,2,1,5,0,0
7802,-117.647058823529,4,2,1,50,0,0
14610,-117.647058823529,4,2,1,5,0,0
14725,-117.647058823529,4,2,1,50,0,0
15187,-100,4,2,1,75,0,0
19341,-100,4,2,1,65,0,0
20494,-100,4,2,1,80,0,0
21187,-100,4,2,1,75,0,0
21879,-100,4,2,1,65,0,0
22571,-117.647058823529,4,2,1,45,0,0
29956,-108.695652173913,4,2,1,60,0,0
37341,-108.695652173913,4,2,1,30,0,0
37571,-108.695652173913,4,2,1,50,0,0
38033,-117.647058823529,4,2,1,50,0,0
44725,-108.695652173913,4,2,1,60,0,0
48418,-108.695652173913,4,2,1,65,0,0
52110,-108.695652173913,4,2,1,70,0,0
55687,-108.695652173913,4,2,1,55,0,0
57648,-100,4,2,1,80,0,0
65033,-100,4,2,1,75,0,0
68725,-100,4,2,1,70,0,0
70341,-100,4,2,1,75,0,0
71956,-100,4,2,1,80,0,0
79802,-100,4,2,1,75,0,0
85802,-100,4,2,1,50,0,0
86033,-117.647058823529,4,2,1,50,0,0

[Colours]
Combo1 : 216,143,243
Combo2 : 250,227,139
Combo3 : 114,207,186
Combo4 : 223,223,223

[HitObjects]
30,110,418,5,2,0:2:0:0:
103,176,764,1,2,0:2:0:0:
188,126,1110,1,2,0:2:0:0:
300,21,2264,5,2,0:2:0:0:
365,99,2610,1,2,0:2:0:0:
460,73,2956,1,2,0:2:0:0:
497,256,4110,5,2,0:2:0:0:
397,246,4456,1,2,0:2:0:0:
355,339,4802,1,2,0:2:0:0:
185,372,5956,5,2,0:2:0:0:
84,369,6302,1,2,0:2:0:0:
54,269,6648,2,0,P|91:197|148:293,1,242.249992607117,2|0,0:2|0:2,0:0:0:0:
144,299,7802,5,2,1:2:0:0:
250,262,9648,2,0,P|284:272|380:293,2,108.375002067089,2|0|2,0:2|0:0|0:2,0:0:0:0:
203,193,10802,2,0,P|227:154|203:47,1,144.500002756119,2|0,0:2|3:2,0:0:0:0:
195,40,11379,1,0,3:2:0:0:
195,40,11494,1,2,0:2:0:0:
105,78,13110,5,0,1:2:0:0:
256,192,13225,12,2,14725,0:2:0:0:
105,80,15187,6,0,P|162:69|196:50,1,85,6|2,1:2|0:2,0:0:0:0:
234,71,15533,2,0,P|256:110|245:185,1,85,2|2,0:2|0:2,0:0:0:0:
217,180,15879,2,0,P|159:194|110:281,1,127.5,2|0,0:2|3:2,0:0:0:0:
112,276,16341,1,2,1:2:0:0:
162,364,16571,2,0,B|218:354|191:343|241:337,1,85,10|0,0:2|3:2,0:0:0:0:
344,336,17033,6,0,P|395:368|447:370,1,85,2|2,1:2|0:2,0:0:0:0:
468,358,17379,2,0,P|493:312|490:257,1,85,2|2,0:2|0:2,0:0:0:0:
460,242,17725,2,0,P|447:191|472:98,1,127.5,2|0,0:2|3:2,0:0:0:0:
494,79,18187,1,2,0:2:0:0:
421,6,18418,2,0,P|379:29|335:30,1,85,10|0,0:2|0:2,0:0:0:0:
297,6,18764,1,0,0:0:0:0:
297,6,18879,1,0,1:2:0:0:
237,149,19341,6,0,B|233:223|261:198|261:280,1,127.5,10|0,0:2|3:2,0:0:0:0:
253,309,19802,1,2,1:2:0:0:
182,382,20033,1,2,0:2:0:0:
152,357,20148,1,8,0:2:0:0:
112,355,20264,1,8,0:2:0:0:
15,324,20494,6,0,P|-7:287|30:183,1,127.5,6|0,1:2|0:0,0:0:0:0:
30,181,20956,1,2,1:2:0:0:
113,239,21187,1,2,1:2:0:0:
204,193,21418,1,2,1:2:0:0:
213,91,21648,1,4,0:3:0:0:
318,69,21879,1,8,0:2:0:0:
318,69,21994,1,8,0:2:0:0:
318,69,22110,2,0,P|354:78|382:81,2,42.5,8|8|4,0:3|0:3|0:3,0:0:0:0:
213,91,22571,6,0,B|130:75|164:52|80:37,2,144.500002756119,2|0|0,1:2|1:0|1:2,0:0:0:0:
258,164,23725,2,0,P|250:221|248:252,1,72.2500013780594,2|0,0:2|1:2,0:0:0:0:
294,317,24187,1,2,0:2:0:0:
294,317,24418,2,0,P|364:327|423:274,2,144.500002756119,2|0|0,1:2|1:2|1:2,0:0:0:0:
155,384,25802,1,0,1:2:0:0:
26,308,26264,6,0,P|3:270|25:169,2,144.500002756119,2|0|0,1:2|1:0|1:2,0:0:0:0:
78,376,27418,2,0,P|130:358|163:356,1,72.2500013780594,2|0,0:2|1:2,0:0:0:0:
209,295,27879,1,2,0:2:0:0:
209,295,27994,1,0,0:0:0:0:
209,295,28110,1,2,0:2:0:0:
209,295,29956,6,0,P|262:321|303:325,1,78.199997374878,6|0,1:2|0:2,0:0:0:0:
312,359,30302,2,0,P|361:348|400:322,1,78.199997374878,2|0,0:2|0:2,0:0:0:0:
421,304,30648,2,0,P|402:255|407:205,1,78.199997374878,2|0,0:2|1:2,0:0:0:0:
467,162,31110,1,2,0:2:0:0:
467,162,31341,2,0,P|473:107|481:70,1,78.199997374878,8|2,0:2|0:2,0:0:0:0:
416,12,31802,2,0,P|380:44|322:39,1,78.199997374878,2|0,1:2|0:2,0:0:0:0:
314,77,32148,2,0,P|273:55|228:52,1,78.199997374878,2|0,0:2|0:2,0:0:0:0:
206,82,32494,2,0,P|254:142|254:244,1,156.399994749756,2|2,1:2|0:2,0:0:0:0:
208,296,33187,2,0,P|177:304|145:317,2,39.099998687439,10|2|2,0:2|0:2|0:2,0:0:0:0:
280,355,33648,6,0,P|317:379|360:379,1,78.199997374878,2|0,1:2|0:2,0:0:0:0:
442,363,34110,1,10,0:2:0:0:
503,292,34341,1,2,0:2:0:0:
503,292,34456,2,0,P|468:246|466:174,1,117.299996062317,2|2,0:2|0:2,0:0:0:0:
510,107,35033,1,8,0:2:0:0:
447,23,35264,5,4,1:2:0:0:
447,23,35725,1,2,1:2:0:0:
387,95,35956,1,2,1:2:0:0:
297,66,36187,1,2,1:2:0:0:
248,146,36418,1,2,1:2:0:0:
248,146,36879,2,0,B|142:135|199:102|86:94,1,156.399994749756,2|4,0:2|1:2,0:0:0:0:
0,249,38033,5,0,1:2:0:0:
0,249,38264,1,8,0:2:0:0:
68,384,38725,1,2,0:2:0:0:
68,384,38956,2,0,P|103:361|141:357,1,72.2500013780594,2|0,0:2|1:2,0:0:0:0:
202,305,39418,1,2,0:2:0:0:
123,176,39879,2,0,P|125:129|144:95,1,72.2500013780594,0|8,1:2|0:2,0:0:0:0:
156,24,40341,2,0,P|201:49|233:52,1,72.2500013780594,2|2,0:2|3:2,0:0:0:0:
254,34,40687,1,2,0:2:0:0:
254,34,40802,1,0,1:2:0:0:
318,102,41033,1,2,1:2:0:0:
468,13,41494,6,0,P|489:58|492:103,1,72.2500013780594,2|2,0:2|0:2,0:0:0:0:
493,114,41841,1,2,0:2:0:0:
493,114,41956,1,8,0:2:0:0:
456,192,42187,1,2,0:2:0:0:
309,232,42648,1,2,0:2:0:0:
309,232,42764,1,2,0:2:0:0:
309,232,42879,2,0,P|326:279|327:312,1,72.2500013780594,2|0,1:2|0:2,0:0:0:0:
274,382,43341,1,0,3:2:0:0:
274,382,43456,2,0,P|227:356|183:354,1,72.2500013780594,0|0,3:2|1:2,0:0:0:0:
178,325,43802,2,0,P|131:353|59:354,1,108.375002067089,0|4,1:2|0:3,0:0:0:0:
43,326,44264,2,0,P|7:317|1:316,2,36.1250006890297,8|8|4,0:2|0:3|0:3,0:0:0:0:
91,239,44725,6,0,P|99:188|86:149,1,78.199997374878,4|2,1:2|0:2,0:0:0:0:
75,143,45071,1,2,0:2:0:0:
75,143,45187,1,0,1:2:0:0:
19,60,45418,1,2,0:2:0:0:
102,9,45648,2,0,P|140:28|177:33,1,78.199997374878,2|0,1:2|3:2,0:0:0:0:
202,58,45994,1,0,3:2:0:0:
202,58,46110,2,0,P|254:48|286:30,2,78.199997374878,10|2|0,0:2|0:2|1:2,0:0:0:0:
161,138,46802,6,0,P|183:186|182:223,1,78.199997374878,2|0,0:2|1:2,0:0:0:0:
251,263,47264,2,0,P|286:247|325:241,1,78.199997374878,2|0,0:2|1:2,0:0:0:0:
383,178,47725,2,0,P|425:198|457:202,1,78.199997374878,2|8,0:2|0:2,0:0:0:0:
481,223,48071,1,2,0:2:0:0:
411,380,48418,6,0,P|369:360|337:356,1,78.199997374878,4|0,1:2|3:2,0:0:0:0:
274,304,48879,2,0,P|232:327|174:334,1,78.199997374878,0|8,1:2|0:2,0:0:0:0:
136,382,49341,1,0,1:2:0:0:
1,262,49802,2,0,L|49:275,3,39.099998687439,10|2|2|2,0:2|0:0|0:0|0:0,0:0:0:0:
86,261,50264,2,0,P|101:223|84:170,1,78.199997374878,2|0,1:2|0:0,0:0:0:0:
68,152,50610,1,2,0:2:0:0:
68,152,50725,2,0,P|58:106|70:68,1,78.199997374878,0|10,1:0|0:2,0:0:0:0:
124,8,51187,1,2,1:2:0:0:
264,88,51648,1,8,0:2:0:0:
264,88,51764,2,0,P|323:77|363:49,1,78.199997374878,2|2,0:2|0:2,0:0:0:0:
361,27,52110,6,0,P|423:27|477:74,1,117.299996062317,6|2,1:2|3:2,0:0:0:0:
464,102,52571,2,0,P|449:147|453:182,1,78.199997374878,0|8,1:2|0:2,0:0:0:0:
393,237,53033,2,0,P|356:220|310:219,1,78.199997374878,0|0,1:2|0:0,0:0:0:0:
249,168,53494,1,8,0:2:0:0:
196,239,53725,1,2,0:2:0:0:
196,239,53841,1,0,0:0:0:0:
196,239,53956,6,0,B|112:261|156:278|55:288,2,117.299996062317,14|2|2,0:2|1:2|1:2,0:0:0:0:
262,302,54879,1,0,1:2:0:0:
311,384,55110,1,2,1:2:0:0:
346,357,55225,1,8,0:2:0:0:
388,353,55341,1,8,0:2:0:0:
429,365,55456,2,0,L|482:382,1,39.099998687439,8|4,0:2|0:3,0:0:0:0:
502,291,55802,1,2,0:2:0:0:
503,290,57187,6,0,B|499:220|475:252|477:177,1,117.299996062317,2|0,0:2|0:0,0:0:0:0:
477,143,57648,6,0,P|434:169|384:165,1,85,4|2,1:2|3:2,0:0:0:0:
382,154,57994,1,2,1:2:0:0:
382,154,58110,1,8,0:2:0:0:
311,219,58341,1,2,0:2:0:0:
238,165,58571,1,2,1:2:0:0:
238,165,58687,1,0,3:2:0:0:
238,165,58802,2,0,P|225:117|234:81,1,85,2|8,3:2|0:2,0:0:0:0:
162,15,59264,2,0,P|116:36|66:35,1,85,2|0,3:2|1:2,0:0:0:0:
8,101,59725,5,2,0:2:0:0:
88,156,59956,1,10,0:2:0:0:
113,182,60071,1,0,3:2:0:0:
121,218,60187,1,2,0:2:0:0:
104,255,60302,1,2,3:2:0:0:
195,384,60648,1,2,0:2:0:0:
248,313,60879,2,0,P|291:291|342:291,1,85,10|2,0:2|0:2,0:0:0:0:
403,219,61341,6,0,P|410:154|331:64,1,170,6|10,1:2|0:2,0:0:0:0:
284,136,62033,1,2,0:0:0:0:
198,116,62264,1,2,1:2:0:0:
170,36,62494,1,0,3:2:0:0:
170,36,62610,1,8,0:2:0:0:
170,36,62725,1,10,0:2:0:0:
54,0,62956,6,0,P|20:28|30:135,1,127.5,4|2,1:2|0:2,0:0:0:0:
38,130,63418,2,0,P|61:176|61:220,1,85,2|0,1:2|1:2,0:0:0:0:
15,287,63879,1,0,1:2:0:0:
53,366,64110,1,0,1:2:0:0:
153,384,64341,1,0,3:2:0:0:
153,384,64456,1,0,3:0:0:0:
153,384,64571,1,8,1:3:0:0:
214,311,64802,1,8,0:3:0:0:
214,311,64918,1,0,3:2:0:0:
214,311,65033,6,0,B|212:217|172:242|179:142,1,170,6|8,1:2|0:2,0:0:0:0:
205,63,65725,1,0,3:2:0:0:
205,63,65841,1,2,0:2:0:0:
205,63,65956,2,0,L|150:46,2,42.5,2|0|2,1:2|3:2|3:2,0:0:0:0:
275,122,66418,1,8,0:2:0:0:
346,60,66648,1,2,3:2:0:0:
346,60,66764,1,2,3:2:0:0:
346,60,66879,6,0,B|436:44|394:35|494:27,1,127.5,2|0,1:2|0:2,0:0:0:0:
500,36,67341,1,8,0:2:0:0:
466,124,67571,2,0,P|459:185|459:269,1,127.5,2|0,3:2|0:0,0:0:0:0:
466,278,68033,1,2,3:2:0:0:
426,363,68264,1,10,0:2:0:0:
338,378,68494,1,2,0:2:0:0:
338,378,68610,1,0,3:2:0:0:
338,378,68725,6,0,P|302:334|308:222,1,170,2|8,1:2|0:2,0:0:0:0:
246,151,69418,1,0,3:2:0:0:
170,219,69648,1,0,1:2:0:0:
148,224,69763,1,0,1:2:0:0:
122,231,69879,2,0,L|138:288,2,42.5,8|8|8,0:2|0:2|0:2,0:0:0:0:
30,229,70341,6,0,P|-4:191|11:69,1,170,6|0,1:2|1:2,0:0:0:0:
70,8,71033,1,8,0:2:0:0:
141,86,71264,1,8,0:2:0:0:
236,36,71494,1,8,0:2:0:0:
292,124,71725,1,8,0:2:0:0:
380,60,71956,1,8,0:2:0:0:
398,55,72071,1,8,0:2:0:0:
417,49,72187,1,8,0:2:0:0:
437,44,72302,1,8,0:2:0:0:
460,36,72418,6,0,P|490:71|493:137,1,85,6|0,1:2|0:2,0:0:0:0:
491,137,72764,1,2,0:2:0:0:
491,137,72879,1,8,0:2:0:0:
512,233,73110,1,2,0:2:0:0:
432,289,73341,1,2,1:2:0:0:
432,289,73456,1,0,3:2:0:0:
432,289,73571,2,0,P|379:269|339:263,1,85,2|8,3:2|0:2,0:0:0:0:
292,189,74033,2,0,P|308:138|309:93,1,85,2|0,0:2|1:2,0:0:0:0:
261,30,74494,5,2,0:2:0:0:
169,5,74725,1,10,0:2:0:0:
146,41,74841,1,0,3:2:0:0:
114,55,74956,1,2,3:2:0:0:
75,53,75071,1,2,0:2:0:0:
0,199,75418,1,2,0:2:0:0:
52,274,75648,2,0,P|99:285|137:302,1,85,10|2,0:2|0:2,0:0:0:0:
205,380,76110,6,0,P|262:380|346:288,1,170,6|10,1:2|0:2,0:0:0:0:
349,217,76802,1,2,0:2:0:0:
269,175,77033,1,2,1:2:0:0:
269,175,77148,1,0,3:0:0:0:
269,175,77264,2,0,L|219:191,2,42.5,0|8|10,3:2|0:2|0:2,0:0:0:0:
282,74,77725,6,0,P|344:96|455:111,1,170,6|2,1:2|0:2,0:0:0:0:
500,192,78418,2,0,P|481:244|481:284,1,85,10|0,0:2|1:2,0:0:0:0:
478,309,78764,1,0,3:2:0:0:
478,309,78879,2,0,P|428:284|378:283,1,85,2|0,1:2|3:2,0:0:0:0:
349,358,79341,1,8,0:3:0:0:
328,372,79456,1,8,0:3:0:0:
297,382,79571,1,4,0:3:0:0:
196,336,79802,6,0,P|182:296|189:229,1,85,4|0,1:2|3:2,0:0:0:0:
196,226,80148,1,0,3:2:0:0:
196,226,80264,1,8,0:2:0:0:
252,151,80494,1,2,3:2:0:0:
252,151,80610,1,0,3:2:0:0:
252,151,80725,2,0,P|305:173|353:177,1,85,2|2,1:2|0:2,0:0:0:0:
403,238,81187,1,8,0:2:0:0:
489,176,81418,1,2,3:2:0:0:
489,176,81533,1,0,3:2:0:0:
489,176,81648,6,0,P|511:131|442:33,1,170,2|10,1:2|0:2,0:0:0:0:
369,64,82341,2,0,P|309:55|192:20,1,170,2|2,3:2|0:2,0:0:0:0:
130,93,83033,1,10,0:2:0:0:
56,31,83264,1,0,3:2:0:0:
56,31,83379,1,0,3:2:0:0:
56,31,83494,6,0,P|12:51|27:185,1,170,2|10,1:2|0:2,0:0:0:0:
59,234,84187,1,2,0:2:0:0:
146,180,84418,1,0,1:2:0:0:
165,215,84533,1,8,0:2:0:0:
198,233,84648,1,8,0:2:0:0:
233,236,84764,1,8,0:2:0:0:
269,226,84879,1,8,0:2:0:0:
361,155,85110,1,4,1:2:0:0:
361,155,85802,5,2,0:2:0:0:
361,155,86033,2,0,P|407:188|494:188,2,144.500002756119,2|2|2,0:2|0:2|0:2,0:0:0:0:
256,192,87071,12,0,88571,0:2:0:0:
