osu file format v14

[General]
AudioFilename: audio.mp3
AudioLeadIn: 0
PreviewTime: 57181
Countdown: 0
SampleSet: Soft
StackLeniency: 0.7
Mode: 0
LetterboxInBreaks: 0
WidescreenStoryboard: 1

[Editor]
DistanceSpacing: 0.3
BeatDivisor: 8
GridSize: 16
TimelineZoom: 2.4

[Metadata]
Title:arc-en-ciel (TV Size)
TitleUnicode:アルカンシェル (TV Size)
Artist:Hanatan
ArtistUnicode:花たん
Creator:ckharv
Version:Easy
Source:転生王女と天才令嬢の魔法革命
Tags:Tensei Oujo to Tensai Reijou no Mahou Kakumei The Magical Revolution of the Reincarnated Princess and the Genius Young Lady tv anime op opening japanese pop jpop j-pop ayesha altugle kazato asa shizuku- shikibe mayu gay lesbian yuri
BeatmapID:3979332
BeatmapSetID:1925145

[Difficulty]
HPDrainRate:2
CircleSize:3
OverallDifficulty:2
ApproachRate:3
SliderMultiplier:0.999999999999999
SliderTickRate:1

[Events]
//Background and Video events
0,0,"yuribg6.jpg",0,0
Video,0,"yuriop.mp4"
//Break Periods
//Storyboard Layer 0 (Background)
//Storyboard Layer 1 (Fail)
//Storyboard Layer 2 (Pass)
//Storyboard Layer 3 (Foreground)
//Storyboard Layer 4 (Overlay)
//Storyboard Sound Samples

[TimingPoints]
418,461.538461538462,4,2,1,35,1,0
6648,-100,4,2,1,40,0,0
7744,-100,4,2,1,5,0,0
7802,-100,4,2,1,50,0,0
14610,-100,4,2,1,5,0,0
14725,-100,4,2,1,50,0,0
15187,-100,4,2,1,75,0,0
19341,-100,4,2,1,65,0,0
20494,-100,4,2,1,80,0,0
21187,-100,4,2,1,75,0,0
21879,-100,4,2,1,65,0,0
22571,-100,4,2,1,45,0,0
29956,-100,4,2,1,60,0,0
37341,-100,4,2,1,30,0,0
37571,-100,4,2,1,50,0,0
44725,-100,4,2,1,60,0,0
48418,-100,4,2,1,65,0,0
52110,-100,4,2,1,70,0,0
55687,-100,4,2,1,55,0,0
57648,-100,4,2,1,80,0,0
65033,-100,4,2,1,75,0,0
68725,-100,4,2,1,70,0,0
70341,-100,4,2,1,75,0,0
71956,-100,4,2,1,80,0,0
79802,-100,4,2,1,75,0,0
85802,-100,4,2,1,50,0,0

[Colours]
Combo1 : 216,143,243
Combo2 : 250,227,139
Combo3 : 114,207,186
Combo4 : 223,223,223

[HitObjects]
120,81,418,5,2,0:2:0:0:
176,20,764,1,2,0:2:0:0:
253,47,1110,1,2,0:2:0:0:
349,161,2264,5,2,0:2:0:0:
405,222,2610,1,2,0:2:0:0:
482,195,2956,1,2,0:2:0:0:
312,376,4110,5,2,0:2:0:0:
242,331,4456,1,2,0:2:0:0:
254,249,4802,1,2,0:2:0:0:
148,145,5956,5,2,0:2:0:0:
78,190,6302,1,2,0:2:0:0:
90,272,6648,1,2,0:2:0:0:
318,118,7802,5,2,1:2:0:0:
318,118,9648,1,2,0:2:0:0:
318,118,11494,1,2,0:2:0:0:
256,192,13110,5,0,1:2:0:0:
256,192,15187,6,0,P|291:158|350:153,2,99.9999999999999,6|8|0,1:2|0:2|1:2,0:0:0:0:
182,124,16571,1,10,0:2:0:0:
104,186,17033,2,0,P|55:178|19:144,2,99.9999999999999,2|8|0,1:2|0:2|1:2,0:0:0:0:
154,272,18418,1,10,0:2:0:0:
214,351,18879,6,0,P|277:360|327:369,1,99.9999999999999,0|10,1:2|0:2,0:0:0:0:
412,378,19802,2,0,P|456:361|479:254,1,150,2|6,1:2|1:2,0:0:0:0:
455,122,21187,1,2,1:2:0:0:
367,73,21648,1,4,0:3:0:0:
297,144,22110,1,8,0:3:0:0:
337,235,22571,6,0,P|314:276|83:285,1,300,2|0,1:2|1:2,0:0:0:0:
26,214,24418,2,0,P|21:159|17:113,1,99.9999999999999,2|0,1:2|1:2,0:0:0:0:
47,19,25341,2,0,P|85:45|144:42,1,99.9999999999999,0|0,1:2|1:2,0:0:0:0:
213,109,26264,6,0,P|242:67|470:76,1,300,2|0,1:2|1:2,0:0:0:0:
507,160,28110,1,2,0:2:0:0:
507,160,29956,6,0,P|465:152|399:136,1,99.9999999999999,6|8,1:2|0:2,0:0:0:0:
330,200,30879,1,0,1:2:0:0:
373,290,31341,1,8,0:2:0:0:
287,341,31802,2,0,B|194:347|232:367|139:376,2,150,2|2|10,1:2|1:2|0:2,0:0:0:0:
373,290,33648,5,2,1:2:0:0:
330,200,34110,1,10,0:2:0:0:
423,164,34571,2,0,P|451:143|451:25,1,150,0|4,1:2|1:2,0:0:0:0:
309,26,35956,1,2,1:2:0:0:
213,55,36418,1,2,1:2:0:0:
118,85,36879,2,0,L|4:69,1,99.9999999999999,2|4,0:2|1:2,0:0:0:0:
18,271,38264,5,8,0:2:0:0:
71,355,38725,2,0,P|121:370|202:307,1,150,2|2,0:2|0:2,0:0:0:0:
143,234,39879,2,0,P|120:204|195:21,1,250,0|2,1:2|1:2,0:0:0:0:
267,76,41494,6,0,P|313:75|353:53,2,74.9999999999999,2|2|2,0:2|0:2|0:2,0:0:0:0:
223,165,42648,2,0,P|259:193|258:302,1,150,2|0,0:2|3:2,0:0:0:0:
316,376,43802,1,0,1:2:0:0:
415,363,44264,1,8,0:2:0:0:
492,299,44725,6,0,P|467:259|477:198,1,99.9999999999999,4|0,1:2|1:2,0:0:0:0:
511,116,45648,1,2,1:2:0:0:
457,34,46110,2,0,P|430:71|329:70,1,150,10|2,0:2|0:2,0:0:0:0:
240,36,47264,2,0,P|180:30|82:15,1,150,2|8,0:2|0:2,0:0:0:0:
16,83,48418,5,4,1:2:0:0:
74,164,48879,1,0,1:2:0:0:
168,129,49341,1,0,1:2:0:0:
242,195,49802,2,0,P|300:183|352:170,2,99.9999999999999,10|2|0,0:2|1:2|1:0,0:0:0:0:
185,277,51187,1,2,1:2:0:0:
237,362,51648,1,8,0:2:0:0:
335,377,52110,6,0,P|409:373|478:268,1,200,6|0,1:2|1:2,0:0:0:0:
474,177,53494,1,8,0:2:0:0:
402,107,53956,2,0,B|404:63|414:82|417:17,2,74.9999999999999,14|2|2,0:2|1:2|1:2,0:0:0:0:
322,168,55110,2,0,P|282:173|205:90,1,150,2|2,1:2|0:2,0:0:0:0:
206,103,57648,6,0,P|170:129|114:130,1,99.9999999999999,4|8,1:2|0:2,0:0:0:0:
68,218,58571,2,0,P|35:214|-8:207,2,74.9999999999999,2|2|2,1:2|0:2|3:2,0:0:0:0:
131,354,59956,2,0,P|168:360|242:371,1,99.9999999999999,10|0,0:2|1:2,0:0:0:0:
299,297,60879,1,10,0:2:0:0:
240,216,61341,6,0,B|232:163|255:183|247:114,1,99.9999999999999,6|10,1:2|0:2,0:0:0:0:
281,23,62264,1,2,1:2:0:0:
373,61,62725,2,0,P|416:58|434:53,1,50,10|4,0:2|1:2,0:0:0:0:
483,135,63418,2,0,P|477:172|478:195,1,50,2|0,1:2|1:2,0:0:0:0:
512,278,64110,1,0,1:2:0:0:
454,359,64571,1,8,1:3:0:0:
373,300,65033,6,0,P|323:299|276:333,1,99.9999999999999,6|8,1:2|0:2,0:0:0:0:
213,252,65956,2,0,P|196:209|216:145,1,99.9999999999999,2|8,1:2|0:2,0:0:0:0:
286,97,66879,2,0,P|273:53|169:21,1,150,2|2,1:2|3:2,0:0:0:0:
50,86,68264,1,10,0:2:0:0:
109,166,68725,6,0,B|115:222|88:213|100:277,1,99.9999999999999,2|8,1:2|0:2,0:0:0:0:
124,360,69648,2,0,P|171:378|263:312,1,150,0|6,1:2|1:2,0:0:0:0:
396,381,71033,1,8,0:2:0:0:
479,325,71494,1,8,0:2:0:0:
471,225,71956,1,8,0:2:0:0:
392,163,72418,6,0,P|364:193|302:196,1,99.9999999999999,6|8,1:2|0:2,0:0:0:0:
267,106,73341,2,0,B|265:63|281:79|279:24,2,74.9999999999999,2|2|2,1:2|3:2|0:2,0:0:0:0:
162,213,74725,2,0,P|132:221|59:191,1,99.9999999999999,10|0,0:2|1:2,0:0:0:0:
19,112,75648,1,10,0:2:0:0:
78,31,76110,6,0,P|108:23|181:53,1,99.9999999999999,6|10,1:2|0:2,0:0:0:0:
219,131,77033,1,2,1:2:0:0:
311,93,77494,2,0,P|305:60|302:37,1,50,10|6,0:2|1:2,0:0:0:0:
394,3,78187,2,0,P|433:13|451:16,1,50,2|10,0:2|0:2,0:0:0:0:
511,87,78879,1,2,1:2:0:0:
490,184,79341,1,8,0:3:0:0:
390,175,79802,6,0,P|362:207|369:278,1,99.9999999999999,4|8,1:2|0:2,0:0:0:0:
331,358,80725,2,0,P|301:335|230:339,1,99.9999999999999,2|8,1:2|0:2,0:0:0:0:
170,263,81648,2,0,P|137:284|30:252,1,150,2|2,1:2|3:2,0:0:0:0:
8,111,83033,1,10,0:2:0:0:
82,44,83494,6,0,P|139:37|200:28,1,99.9999999999999,2|10,1:2|0:2,0:0:0:0:
269,78,84418,1,0,1:2:0:0:
229,169,84879,2,0,P|224:205|222:229,1,50,8|4,0:2|1:2,0:0:0:0:
256,192,86956,12,0,88571,0:2:0:0:
