osu file format v14

[General]
AudioFilename: audio.mp3
AudioLeadIn: 0
PreviewTime: 57181
Countdown: 0
SampleSet: Soft
StackLeniency: 0.7
Mode: 0
LetterboxInBreaks: 0
WidescreenStoryboard: 1

[Editor]
Bookmarks: 37335,44719,79796
DistanceSpacing: 0.3
BeatDivisor: 4
GridSize: 4
TimelineZoom: 1.6

[Metadata]
Title:arc-en-ciel (TV Size)
TitleUnicode:アルカンシェル (TV Size)
Artist:Hanatan
ArtistUnicode:花たん
Creator:ckharv
Version:Ayesha's Insane
Source:転生王女と天才令嬢の魔法革命
Tags:Tensei Oujo to Tensai Reijou no Mahou Kakumei The Magical Revolution of the Reincarnated Princess and the Genius Young Lady tv anime op opening japanese pop jpop j-pop ayesha altugle kazato asa shizuku- shikibe mayu gay lesbian yuri
BeatmapID:3974979
BeatmapSetID:1925145

[Difficulty]
HPDrainRate:5
CircleSize:4
OverallDifficulty:8
ApproachRate:8.5
SliderMultiplier:2.4
SliderTickRate:1

[Events]
//Background and Video events
0,0,"yuribg6.jpg",0,0
Video,0,"yuriop.mp4"
//Break Periods
//Storyboard Layer 0 (Background)
//Storyboard Layer 1 (Fail)
//Storyboard Layer 2 (Pass)
//Storyboard Layer 3 (Foreground)
//Storyboard Layer 4 (Overlay)
//Storyboard Sound Samples

[TimingPoints]
418,461.538461538462,4,2,1,35,1,0
418,-111.111111111111,4,2,1,35,0,0
6648,-111.111111111111,4,2,1,40,0,0
7744,-111.111111111111,4,2,1,5,0,0
7802,-111.111111111111,4,2,1,50,0,0
14610,-111.111111111111,4,2,1,5,0,0
14725,-111.111111111111,4,2,1,50,0,0
15187,-90.9090909090908,4,2,1,75,0,0
19341,-90.9090909090908,4,2,1,65,0,0
20494,-90.9090909090908,4,2,1,80,0,0
21187,-90.9090909090908,4,2,1,75,0,0
21879,-90.9090909090908,4,2,1,65,0,0
22571,-90.9090909090908,4,2,1,45,0,0
29725,-90.9090909090908,4,2,1,45,0,0
29956,-125,4,2,1,60,0,0
36879,-333.333333333333,4,2,1,60,0,0
37341,-333.333333333333,4,2,1,30,0,0
37571,-333.333333333333,4,2,1,50,0,0
40687,-125,4,2,1,50,0,0
44725,-125,4,2,1,60,0,0
48418,-125,4,2,1,65,0,0
52110,-125,4,2,1,70,0,0
53956,-83.3333333333333,4,2,1,70,0,0
55687,-83.3333333333333,4,2,1,55,0,0
57187,-333.333333333333,4,2,1,55,0,0
57648,-83.3333333333333,4,2,1,80,0,0
60879,-125,4,2,1,80,0,0
61341,-83.3333333333333,4,2,1,80,0,0
65033,-83.3333333333333,4,2,1,75,0,0
68725,-83.3333333333333,4,2,1,70,0,0
70341,-71.4285714285714,4,2,1,75,0,0
70802,-83.3333333333333,4,2,1,75,0,0
71956,-83.3333333333333,4,2,1,80,0,0
79802,-83.3333333333333,4,2,1,75,0,0
85110,-166.666666666667,4,2,1,75,0,0
85802,-166.666666666667,4,2,1,50,0,0

[Colours]
Combo1 : 216,143,243
Combo2 : 250,227,139
Combo3 : 114,207,186
Combo4 : 223,223,223

[HitObjects]
416,368,418,6,0,B|397:347|397:347|420:269,1,107.999996704102,2|0,0:2|0:0,0:0:0:0:
419,270,764,1,2,0:2:0:0:
488,215,994,1,0,0:0:0:0:
488,215,1110,2,0,P|418:235|323:245,1,161.999995056153,2|0,0:2|0:0,0:0:0:0:
329,244,1571,1,2,0:0:0:0:
256,192,1802,2,0,P|262:162|267:138,2,53.9999983520508,0|0|2,0:0|0:0|0:0,0:0:0:0:
176,352,2264,6,0,P|123:361|67:375,1,107.999996704102,2|0,0:2|0:0,0:0:0:0:
70,374,2610,1,2,0:2:0:0:
24,297,2841,1,0,0:0:0:0:
24,297,2956,2,0,P|103:283|187:262,1,161.999995056153,2|0,0:2|0:0,0:0:0:0:
182,263,3418,1,2,0:0:0:0:
256,192,3648,2,0,P|226:186|202:181,2,53.9999983520508,0|0|2,0:0|0:0|0:0,0:0:0:0:
351,41,4110,6,0,P|401:28|455:10,1,107.999996704102,2|0,0:2|0:0,0:0:0:0:
454,10,4456,1,2,0:2:0:0:
504,88,4687,1,0,0:0:0:0:
504,88,4802,2,0,P|427:113|348:134,1,161.999995056153,2|0,0:2|0:0,0:0:0:0:
348,134,5264,1,2,0:0:0:0:
256,192,5494,2,0,P|250:222|245:246,2,53.9999983520508,0|0|2,0:0|0:0|0:0,0:0:0:0:
33,167,5956,6,0,P|25:112|13:55,1,107.999996704102,2|0,0:2|0:0,0:0:0:0:
14,60,6302,1,2,0:2:0:0:
176,180,6648,2,0,P|159:100|148:20,1,161.999995056153,2|0,0:2|0:0,0:0:0:0:
148,20,7110,1,0,3:0:0:0:
256,36,7341,2,0,P|266:88|274:142,1,107.999996704102,0|2,3:0|0:0,0:0:0:0:
274,257,7802,6,0,P|330:265|382:281,1,107.999996704102,2|0,1:2|0:0,0:0:0:0:
379,279,8148,1,2,0:0:0:0:
432,176,8494,2,0,P|347:164|269:140,1,161.999995056153,2|0,3:0|0:0,0:0:0:0:
274,141,8956,1,0,0:0:0:0:
189,188,9187,2,0,P|179:137|157:78,1,107.999996704102,0|0,3:0|0:0,0:0:0:0:
12,129,9648,6,0,P|22:180|44:239,1,107.999996704102,2|0,3:2|0:0,0:0:0:0:
41,232,9994,1,2,0:0:0:0:
8,343,10225,1,0,0:0:0:0:
8,343,10341,2,0,P|63:302|154:299,1,161.999995056153,2|0,0:2|0:0,0:0:0:0:
153,298,10802,1,2,0:2:0:0:
240,332,11033,2,0,L|251:385,2,53.9999983520508,0|0|2,0:0|0:0|0:2,0:0:0:0:
181,215,11494,6,0,P|191:165|201:108,1,107.999996704102,2|0,0:2|0:0,0:0:0:0:
169,22,11956,1,2,0:0:0:0:
102,87,12187,1,2,0:0:0:0:
102,87,12303,2,0,P|175:71|258:45,1,161.999995056153
330,93,12879,2,0,P|356:47|342:-6,1,107.999996704102,0|0,0:0|1:2,0:0:0:0:
472,200,14725,5,2,0:0:0:0:
454,171,14841,1,2,0:0:0:0:
451,133,14956,1,2,0:0:0:0:
462,100,15071,1,2,0:0:0:0:
490,70,15187,6,0,P|429:87|359:97,1,132.00000402832,6|2,1:2|0:2,0:0:0:0:
309,165,15533,2,0,P|297:199|291:231,1,66.0000020141602,2|8,0:2|0:2,0:0:0:0:
214,162,15764,5,2,0:2:0:0:
214,162,15879,2,0,P|172:112|193:34,1,132.00000402832,2|0,0:2|1:2,0:0:0:0:
180,49,16225,1,0,3:2:0:0:
180,49,16341,2,0,P|215:42|243:32,1,66.0000020141602,2|0,1:2|0:2,0:0:0:0:
88,136,16571,2,0,P|39:194|55:314,1,198.000006042481,10|0,0:2|3:2,0:0:0:0:
3,374,17033,6,0,P|73:350|137:338,1,132.00000402832,2|2,1:2|0:2,0:0:0:0:
211,371,17379,2,0,P|218:337|230:299,1,66.0000020141602,2|8,0:2|0:2,0:0:0:0:
158,225,17610,1,2,0:2:0:0:
158,225,17725,2,0,P|253:275|343:238,1,198.000006042481,2|0,0:2|3:2,0:0:0:0:
394,308,18187,2,0,P|428:308|458:322,1,66.0000020141602,2|0,0:2|0:2,0:0:0:0:
312,352,18418,6,0,P|256:281|285:161,1,198.000006042481,10|0,0:2|0:0,0:0:0:0:
270,179,18879,1,0,1:2:0:0:
512,0,19110,5,0,0:0:0:0:
512,0,19225,1,0,0:0:0:0:
512,0,19341,2,0,P|459:67|352:67,1,198.000006042481,10|0,0:2|3:2,0:0:0:0:
288,8,19802,2,0,P|225:26|151:36,1,132.00000402832,2|2,1:2|0:2,0:0:0:0:
82,73,20148,1,8,0:2:0:0:
71,64,20264,2,0,L|87:-5,1,66.0000020141602,8|0,0:2|0:0,0:0:0:0:
353,128,20494,6,0,B|256:110|270:181|153:156,1,198.000006042481,6|0,1:2|0:0,0:0:0:0:
162,157,20956,1,2,1:2:0:0:
71,64,21187,6,0,P|81:94|88:133,1,66.0000020141602,2|0,1:2|0:0,0:0:0:0:
256,176,21418,2,0,P|246:146|239:107,1,66.0000020141602,2|0,1:2|0:0,0:0:0:0:
34,190,21648,6,0,P|94:170|172:156,1,132.00000402832,4|8,0:3|0:2,0:0:0:0:
314,70,21994,1,8,0:2:0:0:
314,70,22110,2,0,P|324:40|330:6,1,66.0000020141602,8|8,0:3|0:3,0:0:0:0:
425,32,22341,2,0,P|415:62|409:96,1,66.0000020141602,4|0,0:3|0:0,0:0:0:0:
336,152,22571,5,2,1:2:0:0:
343,165,23033,5,0,1:0:0:0:
348,179,23494,5,0,1:2:0:0:
353,189,23956,5,0,1:2:0:0:
434,248,24187,6,0,P|466:238|502:230,1,66.0000020141602,2|0,0:2|0:2,0:0:0:0:
272,216,24418,5,2,1:2:0:0:
279,229,24880,5,0,1:2:0:0:
284,243,25341,5,0,1:2:0:0:
289,253,25803,5,0,1:2:0:0:
344,360,26033,6,0,P|349:331|358:294,1,66.0000020141602
200,160,26264,5,2,1:2:0:0:
281,162,26725,5,0,1:0:0:0:
351,130,27187,5,0,1:2:0:0:
395,63,27648,5,0,1:2:0:0:
512,152,27879,6,0,P|479:149|448:138,2,66.0000020141602,0|0|2,0:2|0:0|0:2,0:0:0:0:
0,152,29725,6,0,P|32:149|63:138,1,66.0000020141602,2|0,0:0|0:0,0:0:0:0:
133,83,29956,6,0,P|114:151|101:223,1,144,6|2,1:2|0:2,0:0:0:0:
101,223,30418,1,8,0:2:0:0:
29,302,30648,1,2,0:2:0:0:
29,302,30764,1,0,0:0:0:0:
29,302,30879,2,0,P|75:312|121:328,1,96,0|2,1:2|0:2,0:0:0:0:
288,224,31341,2,0,P|242:214|196:198,1,96,8|2,0:2|0:2,0:0:0:0:
265,331,31802,1,2,1:2:0:0:
369,177,32033,1,0,0:2:0:0:
369,177,32148,2,0,L|381:224,1,48,2|8,0:2|0:2,0:0:0:0:
376,384,32379,5,0,0:2:0:0:
376,384,32494,2,0,P|393:319|460:294,1,144,2|0,1:2|0:0,0:0:0:0:
459,293,32956,1,2,0:2:0:0:
288,224,33187,2,0,P|271:179|260:133,1,96,10|2,0:2|0:2,0:0:0:0:
259,132,33533,1,0,0:2:0:0:
259,132,33648,1,2,1:2:0:0:
435,0,33879,6,0,L|421:45,1,48,0|0,0:2|0:0,0:0:0:0:
392,121,34110,1,10,0:2:0:0:
160,83,34341,5,2,0:2:0:0:
160,83,34456,2,0,P|174:131|184:177,1,96,2|0,0:2|0:0,0:0:0:0:
183,175,34802,5,2,0:2:0:0:
308,198,35033,1,8,0:2:0:0:
512,48,35264,6,0,P|496:120|485:189,1,144,4|0,1:2|0:0,0:0:0:0:
484,189,35725,1,2,1:2:0:0:
338,112,35956,1,2,1:2:0:0:
226,272,36187,1,2,1:2:0:0:
79,194,36418,1,2,1:2:0:0:
79,194,36879,6,0,P|73:169|65:142,1,53.9999983520508,2|0,0:2|0:0,0:0:0:0:
42,68,37341,5,4,1:2:0:0:
42,68,38033,5,0,1:2:0:0:
177,127,38264,1,8,0:2:0:0:
177,127,38956,5,2,0:2:0:0:
302,55,39187,2,0,L|317:-11,2,53.9999983520508,0|0|0,1:2|0:0|1:2,0:0:0:0:
302,55,40110,1,8,0:2:0:0:
441,211,40341,5,2,0:2:0:0:
494,146,40571,1,2,3:2:0:0:
494,146,40687,2,0,P|423:167|347:182,1,144,2|2,0:2|1:2,0:0:0:0:
267,225,41379,1,0,1:2:0:0:
190,162,41725,1,2,0:2:0:0:
190,162,41841,1,2,0:2:0:0:
190,162,41956,2,0,P|181:116|167:68,1,96,8|2,0:2|0:2,0:0:0:0:
272,32,42418,2,0,P|281:78|295:126,1,96,0|2,3:2|0:2,0:0:0:0:
294,125,42764,1,2,0:2:0:0:
294,125,42879,1,2,1:2:0:0:
409,237,43110,5,0,3:2:0:0:
381,233,43225,1,0,3:0:0:0:
353,237,43341,1,0,3:2:0:0:
325,250,43456,1,0,3:2:0:0:
303,266,43571,1,8,0:2:0:0:
287,286,43687,1,0,1:2:0:0:
277,310,43802,1,0,1:2:0:0:
202,270,44033,5,0,1:2:0:0:
202,270,44148,1,4,0:3:0:0:
202,270,44264,2,0,L|212:224,1,48,8|8,0:2|0:3,0:0:0:0:
236,143,44494,2,0,L|246:97,1,48,4|0,0:3|0:0,0:0:0:0:
160,0,44725,6,0,P|98:26|21:40,1,144,4|2,1:2|0:2,0:0:0:0:
23,40,45187,2,0,P|9:86|1:134,1,96,0|2,1:2|0:2,0:0:0:0:
128,224,45648,2,0,P|221:200|316:187,1,192,2|10,1:2|0:2,0:0:0:0:
388,134,46341,1,2,0:2:0:0:
388,134,46456,1,0,0:0:0:0:
388,134,46571,1,0,1:2:0:0:
483,252,46802,2,0,P|434:243|393:214,1,96,2|0,0:2|1:2,0:0:0:0:
213,2,47264,6,0,P|242:53|236:137,1,144,2|0,0:2|0:0,0:0:0:0:
236,135,47725,1,2,0:2:0:0:
159,180,47956,1,8,0:2:0:0:
159,180,48071,2,0,P|111:190|63:205,1,96,2|0,0:2|0:2,0:0:0:0:
66,203,48418,6,0,P|159:217|253:244,1,192,4|0,1:2|1:2,0:0:0:0:
375,68,49110,1,8,0:2:0:0:
444,143,49341,2,0,P|397:152|349:165,1,96,0|0,1:2|3:2,0:0:0:0:
350,164,49687,1,0,3:2:0:0:
350,164,49802,1,10,0:2:0:0:
184,88,50033,2,0,L|196:42,1,48
287,14,50264,6,0,P|269:87|255:158,1,144,2|2,1:2|0:2,0:0:0:0:
255,154,50725,1,0,0:0:0:0:
313,373,50956,1,10,0:2:0:0:
440,312,51187,6,0,P|391:304|347:290,1,96,2|0,1:2|3:0,0:0:0:0:
308,276,51533,1,8,0:2:0:0:
262,282,51648,1,8,0:2:0:0:
226,300,51764,1,2,0:2:0:0:
204,337,51879,1,0,3:0:0:0:
161,360,51994,1,0,3:2:0:0:
112,351,52110,1,6,1:2:0:0:
112,351,52571,6,0,P|101:307|85:255,1,96,0|8,1:2|0:2,0:0:0:0:
304,192,53033,2,0,P|289:146|278:99,1,96,0|0,1:2|0:0,0:0:0:0:
278,99,53379,1,0,3:2:0:0:
278,99,53494,1,8,0:2:0:0:
360,0,53725,2,0,P|353:22|348:47,1,48,2|0,0:2|0:0,0:0:0:0:
175,239,53956,6,0,P|107:218|36:208,1,143.999995605469,14|0,0:2|0:0,0:0:0:0:
76,47,54302,2,0,P|144:68|215:78,1,143.999995605469,2|0,1:2|3:2,0:0:0:0:
161,153,54648,1,2,1:2:0:0:
161,153,54764,1,8,0:2:0:0:
161,153,54879,2,0,P|124:142|86:136,1,71.9999978027344,0|0,1:2|0:0,0:0:0:0:
134,336,55110,5,2,1:2:0:0:
179,350,55225,1,8,0:2:0:0:
226,345,55340,1,8,0:2:0:0:
268,322,55456,1,8,0:2:0:0:
298,285,55571,1,4,0:3:0:0:
310,239,55686,1,2,0:2:0:0:
304,192,55802,1,2,0:2:0:0:
304,192,57187,6,0,P|293:167|292:139,1,53.9999983520508,2|0,0:2|0:0,0:0:0:0:
400,8,57648,6,0,P|386:78|374:149,1,143.999995605469,6|2,1:2|3:2,0:0:0:0:
441,292,57994,1,2,1:2:0:0:
486,277,58110,1,8,0:2:0:0:
507,233,58225,1,0,3:2:0:0:
484,195,58341,2,0,P|448:208|411:216,1,71.9999978027344,2|0,3:2|3:2,0:0:0:0:
324,373,58571,6,0,P|259:352|181:341,1,143.999995605469,2|2,1:2|3:2,0:0:0:0:
110,384,58918,2,0,P|100:348|90:315,1,71.9999978027344,2|8,0:2|0:2,0:0:0:0:
258,195,59148,1,0,0:0:0:0:
270,206,59264,2,0,P|217:257|140:238,1,143.999995605469,2|0,3:2|1:2,0:0:0:0:
152,247,59725,6,0,P|143:209|132:174,1,71.9999978027344,2|0,0:2|3:2,0:0:0:0:
205,35,59956,2,0,P|223:111|245:181,1,143.999995605469,10|2,0:2|3:2,0:0:0:0:
242,173,60302,1,2,3:2:0:0:
242,173,60418,1,0,1:2:0:0:
344,240,60648,5,2,3:2:0:0:
389,247,60764,1,0,3:2:0:0:
420,212,60879,2,0,P|425:191|433:166,1,48,10|0,0:0|0:0,0:0:0:0:
488,328,61110,5,2,0:2:0:0:
488,328,61225,1,0,3:2:0:0:
488,328,61341,2,0,P|349:288|207:264,1,287.999991210938,6|10,1:2|0:2,0:0:0:0:
274,181,62033,1,2,0:0:0:0:
274,181,62148,1,0,3:2:0:0:
274,181,62264,2,0,P|263:147|253:108,1,71.9999978027344,2|0,1:2|0:0,0:0:0:0:
348,35,62494,5,0,3:2:0:0:
410,87,62610,1,8,0:2:0:0:
485,65,62725,2,0,P|492:32|505:-4,1,71.9999978027344,10|0,0:2|0:0,0:0:0:0:
402,299,62956,6,0,P|311:245|207:264,1,215.999993408203,4|2,1:2|0:2,0:0:0:0:
135,226,63418,1,2,1:2:0:0:
224,104,63648,6,0,P|214:140|206:180,1,71.9999978027344,0|0,1:2|0:0,0:0:0:0:
288,360,63879,2,0,P|297:325|304:290,1,71.9999978027344,0|0,1:2|0:0,0:0:0:0:
135,226,64110,6,0,P|72:214|32:150,1,143.999995605469,0|0,1:2|3:2,0:0:0:0:
29,74,64456,1,0,3:0:0:0:
98,34,64571,1,8,1:3:0:0:
172,41,64687,1,4,0:3:0:0:
220,96,64802,1,8,0:3:0:0:
207,173,64918,1,0,3:2:0:0:
280,216,65033,6,0,P|386:182|502:162,1,215.999993408203,6|0,1:2|3:2,0:0:0:0:
423,80,65494,2,0,P|353:102|276:115,1,143.999995605469,8|0,0:2|3:2,0:0:0:0:
283,114,65841,1,2,0:2:0:0:
283,114,65956,1,2,1:2:0:0:
176,312,66187,2,0,P|168:345|162:382,1,71.9999978027344,2|0,3:2|0:2,0:0:0:0:
48,240,66418,2,0,P|64:174|76:96,1,143.999995605469,8|2,0:2|3:2,0:0:0:0:
14,0,66764,5,2,3:2:0:0:
4,14,66879,2,0,P|81:68|195:42,1,215.999993408203,2|0,1:2|0:2,0:0:0:0:
256,136,67341,1,8,0:2:0:0:
440,16,67571,6,0,P|371:37|300:52,1,143.999995605469,2|0,3:2|1:2,0:0:0:0:
300,52,67918,1,0,0:0:0:0:
300,52,68033,1,2,3:2:0:0:
352,200,68264,2,0,P|357:165|366:128,1,71.9999978027344,10|0,0:2|0:2,0:0:0:0:
192,8,68494,5,2,0:2:0:0:
152,33,68610,1,0,3:2:0:0:
100,14,68725,2,0,P|80:154|44:302,1,287.999991210938,0|8,1:2|0:2,0:0:0:0:
256,384,69418,5,0,3:2:0:0:
296,359,69534,1,0,3:0:0:0:
348,378,69649,2,0,P|358:308|376:234,1,143.999995605469,0|8,1:2|0:2,0:0:0:0:
433,185,69994,1,8,0:2:0:0:
505,207,70110,1,8,0:2:0:0:
510,6,70341,6,0,P|424:83|295:71,1,251.999992309571,6|0,1:2|0:0,0:0:0:0:
295,71,70802,2,0,B|309:50|309:50|304:24|296:5,1,71.9999978027344,0|0,1:2|0:0,0:0:0:0:
208,200,71033,6,0,P|142:211|64:232,1,143.999995605469,8|8,0:2|0:2,0:0:0:0:
26,211,71379,1,0,3:0:0:0:
11,166,71494,1,8,0:2:0:0:
112,48,71725,5,8,0:2:0:0:
109,56,71840,1,0,3:0:0:0:
106,65,71955,1,8,0:2:0:0:
104,73,72071,1,8,0:2:0:0:
102,82,72186,1,8,0:2:0:0:
100,91,72301,1,8,0:2:0:0:
98,99,72418,6,0,P|174:83|239:59,1,143.999995605469,6|0,1:2|0:2,0:0:0:0:
305,119,72764,1,2,0:2:0:0:
344,128,72879,1,8,0:2:0:0:
383,114,72994,1,0,3:2:0:0:
406,78,73110,2,0,P|413:41|423:9,1,71.9999978027344,2|0,0:2|0:2,0:0:0:0:
512,248,73341,6,0,P|447:228|372:222,1,143.999995605469,0|2,1:2|3:2,0:0:0:0:
315,281,73687,1,2,3:2:0:0:
296,272,73802,2,0,P|289:236|279:202,1,71.9999978027344,8|0,0:2|0:0,0:0:0:0:
400,96,74033,6,0,P|420:201|450:305,1,215.999993408203,2|0,0:2|0:0,0:0:0:0:
397,384,74494,2,0,P|365:376|327:371,1,71.9999978027344,2|0,0:2|3:2,0:0:0:0:
217,267,74725,2,0,P|162:308|88:303,1,143.999995605469,10|2,0:2|0:2,0:0:0:0:
20,343,75071,1,2,3:2:0:0:
2,328,75187,2,0,L|17:254,1,71.9999978027344,0|0,1:2|0:2,0:0:0:0:
3,172,75418,5,2,0:2:0:0:
51,177,75533,1,0,3:2:0:0:
94,162,75648,1,10,0:2:0:0:
120,116,75764,1,0,0:2:0:0:
117,65,75879,1,2,0:2:0:0:
86,29,75994,1,0,3:2:0:0:
43,98,76110,6,0,P|167:77|322:33,1,287.999991210938,6|10,1:2|0:2,0:0:0:0:
465,215,76802,5,2,3:2:0:0:
465,215,76918,1,0,0:2:0:0:
465,215,77033,2,0,P|390:221|320:184,1,143.999995605469,0|0,1:2|3:2,0:0:0:0:
319,179,77379,1,8,0:2:0:0:
311,169,77494,2,0,L|331:90,1,71.9999978027344,10|0,0:2|0:0,0:0:0:0:
408,0,77725,6,0,P|326:66|223:48,1,215.999993408203,6|0,1:2|0:2,0:0:0:0:
16,168,78187,6,0,P|51:159|87:152,1,71.9999978027344,2|0,0:2|0:0,0:0:0:0:
317,246,78418,2,0,P|239:255|190:199,1,143.999995605469,10|0,0:2|1:2,0:0:0:0:
188,199,78764,1,0,3:2:0:0:
183,186,78879,2,0,P|192:153|200:117,1,71.9999978027344,2|0,1:2|0:0,0:0:0:0:
0,316,79110,5,0,3:2:0:0:
42,295,79225,1,0,3:2:0:0:
87,288,79341,1,8,0:3:0:0:
132,289,79456,1,8,0:3:0:0:
177,302,79571,1,4,0:3:0:0:
221,326,79687,1,0,3:0:0:0:
248,360,79802,5,4,1:2:0:0:
319,320,80033,2,0,P|323:285|330:248,1,71.9999978027344,0|0,3:2|3:2,0:0:0:0:
256,24,80264,5,8,0:2:0:0:
185,64,80495,2,0,P|181:99|174:136,1,71.9999978027344,2|0,3:2|3:2,0:0:0:0:
410,286,80725,5,2,1:2:0:0:
469,179,80956,2,0,P|436:193|400:200,1,71.9999978027344,2|0,0:2|0:0,0:0:0:0:
248,360,81187,6,0,P|182:331|111:317,1,143.999995605469,8|2,0:2|3:2,0:0:0:0:
111,317,81533,1,0,3:2:0:0:
111,317,81648,2,0,P|105:282|93:245,1,71.9999978027344,2|0,1:2|0:2,0:0:0:0:
183,221,81879,2,0,P|189:256|201:293,1,71.9999978027344,2|0,0:2|0:2,0:0:0:0:
176,368,82110,1,10,0:2:0:0:
118,154,82341,6,0,P|196:212|307:193,1,215.999993408203,2|0,3:2|0:0,0:0:0:0:
368,136,82802,2,0,P|373:101|384:66,1,71.9999978027344,2|0,0:2|0:0,0:0:0:0:
512,62,83033,2,0,P|500:131|478:201,1,143.999995605469,8|0,0:2|3:2,0:0:0:0:
478,201,83379,1,0,3:2:0:0:
478,201,83494,6,0,B|393:167|342:239|352:248|365:258|322:328|227:293,1,287.999991210938,2|10,1:2|0:2,0:0:0:0:
141,373,84187,1,2,0:2:0:0:
141,373,84302,1,0,3:0:0:0:
141,373,84418,2,0,P|106:363|69:356,1,71.9999978027344,0|8,1:2|0:2,0:0:0:0:
21,250,84648,5,8,0:2:0:0:
82,258,84764,1,8,0:2:0:0:
130,221,84879,1,8,0:2:0:0:
288,16,85110,6,0,B|338:78|315:161|257:178|257:178|191:198|174:265|228:321|309:303|319:216|257:178|257:178|209:148|221:94,1,575.999982421876,4|2,1:2|0:2,0:0:0:0:
256,192,87014,12,0,88571,0:2:0:0:
