osu file format v14

[General]
AudioFilename: audio.mp3
AudioLeadIn: 0
PreviewTime: 56871
Countdown: 0
SampleSet: Soft
StackLeniency: 0.7
Mode: 0
LetterboxInBreaks: 0
WidescreenStoryboard: 1

[Editor]
Bookmarks: 22486,29871,34890,37256,44640,48333,57563,65179,65294,72333,79717
DistanceSpacing: 1.55
BeatDivisor: 16
GridSize: 4
TimelineZoom: 1.5

[Metadata]
Title:arc-en-ciel (TV Size)
TitleUnicode:アルカンシェル (TV Size)
Artist:Hanatan
ArtistUnicode:花たん
Creator:Lafayla
Version:Hard
Source:転生王女と天才令嬢の魔法革命
Tags:Kibbleru Kyle73 Sparhten Hinsvar amiya rainbow japanese anime pop jpop yurica Tensei Oujo to Tensai Reijou no Mahou Kakumei The Magical Revolution of the Reincarnated Princess and the Genius Young Lady yuri op opening
BeatmapID:3982073
BeatmapSetID:1923372

[Difficulty]
HPDrainRate:4.7
CircleSize:3.7
OverallDifficulty:6.7
ApproachRate:8
SliderMultiplier:1.5
SliderTickRate:1

[Events]
//Background and Video events
Video,-155,"rainbow.mp4"
0,0,"euphielappillow.jpg",0,0
//Break Periods
//Storyboard Layer 0 (Background)
//Storyboard Layer 1 (Fail)
//Storyboard Layer 2 (Pass)
//Storyboard Layer 3 (Foreground)
//Storyboard Layer 4 (Overlay)
//Storyboard Sound Samples

[TimingPoints]
333,461.538461538462,4,2,1,45,1,0
333,-125,4,2,1,45,0,0
1486,-125,4,2,1,45,0,0
1717,-125,4,2,1,45,0,0
3563,-125,4,2,1,45,0,0
3621,-125,4,2,1,45,0,0
3679,-125,4,2,1,45,0,0
3794,-125,4,2,1,45,0,0
4025,-125,4,2,1,45,0,0
4717,-125,4,2,1,45,0,0
5179,-125,4,2,1,45,0,0
5871,-125,4,2,1,45,0,0
7025,-105.263157894737,4,2,1,50,0,0
8409,-105.263157894737,4,2,1,50,0,0
9563,-105.263157894737,4,2,1,50,0,0
10256,-105.263157894737,4,2,1,50,0,0
10717,-105.263157894737,4,2,1,50,0,0
12563,-105.263157894737,4,2,1,50,0,0
13025,-105.263157894737,4,2,1,40,0,0
14640,-105.263157894737,4,2,1,55,0,0
15102,-99.9999999999999,4,2,1,65,0,1
15159,-100,4,2,1,65,0,0
15794,-100,4,2,1,65,0,0
16486,-100,4,2,1,65,0,0
16948,-100,4,2,1,65,0,1
17006,-100,4,2,1,65,0,0
17409,-100,4,2,1,65,0,0
17871,-100,4,2,1,65,0,0
18794,-100,4,2,1,65,0,0
19256,-100,4,2,1,65,0,0
20409,-100,4,2,1,65,0,1
20467,-100,4,2,1,65,0,0
20871,-100,4,2,1,65,0,0
21333,-100,4,2,1,65,0,0
21563,-100,4,2,1,65,0,0
22025,-100,4,2,1,65,0,0
22486,-111.111111111111,4,2,1,50,0,0
23179,-111.111111111111,4,2,1,50,0,0
23640,-111.111111111111,4,2,1,50,0,0
24333,-111.111111111111,4,2,1,50,0,0
24679,-111.111111111111,4,2,1,50,0,0
25717,-111.111111111111,4,2,1,50,0,0
26179,-111.111111111111,4,2,1,50,0,0
26871,-111.111111111111,4,2,1,50,0,0
28025,-111.111111111111,4,2,1,50,0,0
28717,-133.333333333333,4,2,1,50,0,0
29150,-133.333333333333,4,2,1,20,0,0
29208,-133.333333333333,4,2,1,50,0,0
29871,-100,4,2,1,55,0,0
30217,-100,4,2,1,55,0,0
30563,-100,4,2,1,55,0,0
31025,-100,4,2,1,55,0,0
31717,-100,4,2,1,55,0,0
32063,-100,4,2,1,55,0,0
32409,-100,4,2,1,55,0,0
32871,-100,4,2,1,55,0,0
34025,-100,4,2,1,55,0,0
35179,-100,4,2,1,55,0,0
35871,-100,4,2,1,60,0,0
36794,-125,4,2,1,55,0,0
43486,-125,4,2,1,55,0,0
43717,-125,4,2,1,55,0,0
44063,-125,4,2,1,60,0,0
44640,-111.111111111111,4,2,1,60,0,0
48333,-100,4,2,1,62,0,0
49602,-100,4,2,1,62,0,0
50179,-100,4,2,1,64,0,0
52025,-100,4,2,1,66,0,0
53871,-95.2380952380952,4,2,1,69,0,0
55486,-90.9090909090909,4,2,1,69,0,0
57102,-90.9090909090909,4,2,1,69,0,0
57563,-90.9090909090909,4,2,1,70,0,1
58256,-90.9090909090909,4,2,1,70,0,1
58833,-90.9090909090909,4,2,1,70,0,1
59179,-90.9090909090909,4,2,1,70,0,1
60217,-90.9090909090909,4,2,1,70,0,1
60563,-90.9090909090909,4,2,1,70,0,1
61256,-90.9090909090909,4,2,1,70,0,1
61717,-90.9090909090909,4,2,1,70,0,1
62179,-90.9090909090909,4,2,1,70,0,1
63333,-90.9090909090909,4,2,1,70,0,1
63563,-90.9090909090909,4,2,1,70,0,1
63794,-90.9090909090909,4,2,1,70,0,1
64025,-90.9090909090909,4,2,1,70,0,1
64486,-90.9090909090909,4,2,1,70,0,1
65409,-90.9090909090909,4,2,1,70,0,1
65871,-90.9090909090909,4,2,1,70,0,1
66563,-90.9090909090909,4,2,1,70,0,1
66794,-90.9090909090909,4,2,1,70,0,1
67256,-90.9090909090909,4,2,1,70,0,1
67486,-90.9090909090909,4,2,1,70,0,1
67948,-90.9090909090909,4,2,1,70,0,1
68640,-90.9090909090909,4,2,1,70,0,1
69102,-90.9090909090909,4,2,1,70,0,1
70256,-90.9090909090909,4,2,1,70,0,1
70717,-90.9090909090909,4,2,1,70,0,1
70948,-90.9090909090909,4,2,1,70,0,1
71179,-90.9090909090909,4,2,1,70,0,1
71409,-90.9090909090909,4,2,1,70,0,1
72217,-90.9090909090909,4,2,1,70,0,0
72333,-90.9090909090909,4,2,1,70,0,1
72621,-90.9090909090909,4,2,1,70,0,1
73602,-90.9090909090909,4,2,1,70,0,1
73948,-90.9090909090909,4,2,1,70,0,1
74986,-90.9090909090909,4,2,1,70,0,1
75333,-90.9090909090909,4,2,1,70,0,1
76025,-90.9090909090909,4,2,1,70,0,1
76486,-90.9090909090909,4,2,1,70,0,1
76948,-90.9090909090909,4,2,1,70,0,1
77640,-90.9090909090909,4,2,1,70,0,1
78102,-90.9090909090909,4,2,1,70,0,1
78333,-90.9090909090909,4,2,1,70,0,1
78563,-90.9090909090909,4,2,1,70,0,1
78794,-90.9090909090909,4,2,1,70,0,1
79256,-90.9090909090909,4,2,1,70,0,1
79717,-90.9090909090909,4,2,1,70,0,1
80179,-90.9090909090909,4,2,1,70,0,1
80871,-90.9090909090909,4,2,1,70,0,1
81102,-90.9090909090909,4,2,1,70,0,1
81563,-90.9090909090909,4,2,1,70,0,1
82025,-90.9090909090909,4,2,1,70,0,1
82256,-90.9090909090909,4,2,1,70,0,1
82717,-90.9090909090909,4,2,1,70,0,1
83409,-90.9090909090909,4,2,1,70,0,1
83871,-90.9090909090909,4,2,1,70,0,1
84102,-90.9090909090909,4,2,1,70,0,1
85025,-125,4,2,1,70,0,0
85659,-125,4,2,1,50,0,0
86929,-125,4,2,1,50,0,0
87102,-125,4,2,1,50,0,0
87563,-125,4,2,1,50,0,0
88025,-125,4,2,1,50,0,0
88486,-125,4,2,1,50,0,0

[Colours]
Combo1 : 250,190,230
Combo2 : 130,200,230
Combo3 : 206,186,239
Combo4 : 170,245,170

[HitObjects]
342,299,333,6,0,P|335:342|284:371,2,90,2|2|2,0:0|0:0|0:0,0:0:0:0:
423,152,1486,2,0,B|348:161|382:193|316:202,1,120,2|0,0:0|0:0,0:0:0:0:
189,224,2179,2,0,P|225:250|232:293,2,90,2|2|2,0:0|0:0|0:0,0:0:0:0:
31,275,3333,1,0,0:0:0:0:
31,275,3563,2,0,P|62:269|89:251,1,60,2|0,0:0|0:0,0:0:0:0:
113,174,4025,6,0,L|103:85,2,90,2|2|2,0:0|0:0|0:0,0:0:0:0:
288,169,5179,2,0,P|352:181|383:239,1,120,2|0,0:0|0:0,0:0:0:0:
455,275,5871,2,0,L|442:376,2,90,2|2|2,0:0|0:0|0:0,0:0:0:0:
507,82,7025,1,0,0:0:0:0:
507,82,7256,1,2,0:0:0:0:
433,14,7486,1,0,0:0:0:0:
336,73,7717,6,0,P|296:85|261:87,1,71.2499980974198,2|0,0:0|0:0,0:0:0:0:
230,122,8063,2,0,L|242:238,1,106.87499714613,2|2,0:0|0:0,0:0:0:0:
116,369,8871,2,0,P|70:365|38:355,1,71.2499980974198,0|2,0:0|0:0,0:0:0:0:
0,280,9333,1,0,0:0:0:0:
73,214,9563,6,0,L|59:142,1,71.2499980974198,2|0,0:0|0:0,0:0:0:0:
96,106,9909,2,0,B|159:112|138:81|216:83,1,106.87499714613,2|2,0:0|0:0,0:0:0:0:
355,32,10717,2,0,P|390:36|426:45,2,71.2499980974198,0|2|0,0:0|0:0|0:0,0:0:0:0:
298,113,11409,6,0,P|307:147|313:184,1,71.2499980974198,2|2,0:0|0:0,0:0:0:0:
408,211,11871,2,0,P|408:246|404:284,1,71.2499980974198,2|2,0:0|0:0,0:0:0:0:
380,318,12217,2,0,P|347:334|311:327,1,71.2499980974198,2|0,0:0|0:0,0:0:0:0:
273,309,12563,1,2,0:0:0:0:
212,232,12794,1,2,0:0:0:0:
129,306,13025,5,8,3:0:0:0:
3,155,13486,1,0,0:0:0:0:
3,155,13717,6,0,B|47:205|118:177|118:177|151:111|227:129,1,249.374993340969,2|0,0:0|0:0,0:0:0:0:
261,146,14640,5,2,0:0:0:0:
206,229,14871,1,2,0:0:0:0:
260,319,15102,6,0,P|297:342|339:340,1,75,6|2,3:2|0:0,0:0:0:0:
371,307,15448,2,0,P|408:284|450:286,1,75,2|0,0:0|0:0,0:0:0:0:
494,293,15794,1,2,0:0:0:0:
505,180,16025,2,0,L|512:144,2,37.5,0|0|0,3:0|1:0|0:0,0:0:0:0:
400,180,16486,6,0,L|414:106,1,75,10|0,0:0|0:0,0:0:0:0:
388,55,16833,1,0,3:0:0:0:
388,55,16948,2,0,P|348:50|307:45,1,75,2|2,3:2|0:0,0:0:0:0:
276,89,17294,2,0,P|236:84|195:79,1,75,2|0,0:0|0:0,0:0:0:0:
155,100,17640,2,0,P|144:135|137:172,2,75,2|0|0,0:0|3:0|0:0,0:0:0:0:
34,120,18333,2,0,P|23:156|17:193,1,75,10|0,0:0|0:0,0:0:0:0:
37,251,18679,1,0,3:0:0:0:
37,251,18794,6,0,B|126:266|67:306|171:320,1,150,2|0,3:2|1:0,0:0:0:0:
273,291,19486,1,0,3:0:0:0:
212,196,19717,2,0,P|220:145|245:129,1,75,2|0,3:2|3:0,0:0:0:0:
295,118,20063,1,0,3:0:0:0:
295,118,20179,1,0,1:0:0:0:
375,40,20409,6,0,B|430:49|430:49|454:75|454:75|527:87,1,150,6|0,3:2|3:0,0:0:0:0:
447,177,21102,2,0,L|434:238,1,37.5,2|0,3:2|0:0,0:0:0:0:
474,257,21333,2,0,L|461:318,1,37.5,0|0,1:0|0:0,0:0:0:0:
421,327,21563,2,0,P|384:324|344:317,1,75,2|0,3:2|3:0,0:0:0:0:
294,310,21909,1,0,3:0:0:0:
294,310,22025,1,2,3:2:0:0:
219,219,22256,1,4,0:3:0:0:
306,144,22486,6,0,P|327:98|334:42,2,101.249996910095,2|2|2,3:2|0:0|0:0,0:0:0:0:
306,144,23409,1,0,3:0:0:0:
214,98,23640,2,0,P|155:96|162:172,1,134.999995880127,2|2,0:0|0:0,0:0:0:0:
122,255,24333,2,0,P|114:304|93:350,2,101.249996910095,0|2|2,3:0|0:0|0:0,0:0:0:0:
232,233,25256,1,0,3:0:0:0:
232,233,25717,1,0,3:0:0:0:
332,245,26179,6,0,P|381:262|402:307,2,101.249996910095,0|2|2,3:0|0:0|0:0,0:0:0:0:
332,245,27102,1,0,3:0:0:0:
396,161,27333,2,0,P|384:100|311:81,1,134.999995880127,2|2,0:0|0:0,0:0:0:0:
225,121,28025,6,0,B|189:143|147:124|147:124|121:77|68:88,1,168.749994850159,2|0,0:0|0:0,0:0:0:0:
29,102,28717,2,0,P|8:148|49:209,1,126.562504827976,2|0,0:0|0:0,0:0:0:0:
188,268,29640,2,0,P|200:262|216:258,1,28.1250010728836,2|0,0:0|0:0,0:0:0:0:
252,252,29871,5,6,3:2:0:0:
348,192,30102,1,0,0:0:0:0:
348,192,30217,2,0,L|360:118,1,75,2|0,0:0|0:0,0:0:0:0:
415,92,30563,2,0,L|403:18,2,75,2|0|2,0:0|3:0|0:0,0:0:0:0:
512,163,31256,1,8,0:0:0:0:
455,259,31486,1,2,0:0:0:0:
337,267,31717,6,0,P|300:276|274:309,1,75,2|0,3:2|0:0,0:0:0:0:
232,339,32063,2,0,P|195:329|169:296,1,75,2|0,0:0|0:0,0:0:0:0:
156,247,32409,2,0,P|129:199|76:194,1,112.5,2|0,3:2|0:0,0:0:0:0:
24,218,32871,1,2,0:0:0:0:
6,106,33102,2,0,L|-1:69,1,37.5,8|0,0:0|0:0,0:0:0:0:
44,36,33333,2,0,L|37:-1,1,37.5,2|0,0:0|0:0,0:0:0:0:
105,46,33563,6,0,P|141:52|186:55,1,75,0|2,3:0|0:0,0:0:0:0:
292,55,34025,2,0,P|318:20|363:15,1,75,8|0,0:0|0:0,0:0:0:0:
401,26,34371,2,0,P|412:61|442:82,1,75,2|0,0:0|0:0,0:0:0:0:
489,112,34717,2,0,L|484:163,1,37.5,2|0,0:0|0:0,0:0:0:0:
478,205,34948,1,8,0:0:0:0:
382,264,35179,6,0,B|336:262|313:298|313:298|280:319|242:300,1,150,6|0,3:2|3:0,0:0:0:0:
176,215,35871,6,0,P|170:191|171:173,1,37.5,2|0,3:2|0:0,0:0:0:0:
203,132,36102,2,0,P|202:107|198:90,1,37.5,0|0,3:0|0:0,0:0:0:0:
161,53,36333,2,0,P|112:42|60:91,1,112.5,2|0,3:2|0:0,0:0:0:0:
32,115,36794,6,0,P|28:161|19:207,1,90,2|0,3:2|0:0,0:0:0:0:
36,254,37256,6,0,P|49:285|97:295,1,60,2|2,3:2|0:0,0:0:0:0:
125,307,37602,1,0,0:0:0:0:
125,307,37717,1,2,0:0:0:0:
222,359,37948,1,0,3:0:0:0:
342,332,38179,2,0,P|407:334|449:378,1,120,8|2,0:0|0:0,0:0:0:0:
489,267,38871,6,0,P|499:222|514:177,1,90,2|0,0:0|0:0,0:0:0:0:
462,157,39333,2,0,P|472:112|487:67,1,90,2|0,0:0|0:0,0:0:0:0:
503,29,39794,1,0,3:0:0:0:
395,0,40025,1,8,0:0:0:0:
304,81,40256,2,0,P|289:106|288:136,1,60,2|0,0:0|0:0,0:0:0:0:
332,178,40602,2,0,P|330:207|316:233,1,60,2|0,0:0|0:0,0:0:0:0:
287,267,40948,5,2,3:2:0:0:
186,238,41179,1,0,0:0:0:0:
101,295,41409,2,0,P|87:322|91:382,2,90,2|2|2,0:0|0:0|0:0,0:0:0:0:
186,238,42333,1,0,0:0:0:0:
107,168,42563,2,0,P|42:160|0:194,1,120,2|2,0:0|0:0,0:0:0:0:
0,67,43256,1,0,0:0:0:0:
0,67,43371,2,0,L|11:28,2,30,2|0|0,0:0|3:0|0:0,0:0:0:0:
70,60,43717,6,0,P|114:62|153:42,1,90,10|2,0:0|3:2,0:0:0:0:
203,79,44179,2,0,L|224:113,2,30,8|8|0,0:0|0:0|3:0,0:0:0:0:
343,53,44640,6,0,L|352:125,1,67.4999979400635,6|0,3:2|0:0,0:0:0:0:
406,147,44986,2,0,L|415:219,1,67.4999979400635,2|0,0:0|0:0,0:0:0:0:
439,260,45333,1,2,0:0:0:0:
352,335,45563,2,0,P|318:339|268:281,1,101.249996910095,0|0,3:0|0:0,0:0:0:0:
261,253,46025,5,0,3:0:0:0:
230,155,46256,2,0,P|189:128|133:122,1,101.249996910095,2|0,0:0|0:0,0:0:0:0:
123,71,46717,2,0,P|73:77|31:104,1,101.249996910095,2|0,0:0|0:0,0:0:0:0:
4,149,47179,2,0,P|6:187|12:215,2,67.4999979400635,2|0|2,0:0|3:0|0:0,0:0:0:0:
134,196,47871,1,8,0:0:0:0:
134,196,47986,2,0,P|137:215|140:238,1,33.7499989700318,2|0,0:0|0:0,0:0:0:0:
143,343,48333,6,0,B|173:376|216:370|216:370|245:340|286:351,1,150,6|0,3:2|3:0,0:0:0:0:
403,358,49025,2,0,P|436:373|472:380,2,75,0|0|0,1:0|3:0|0:0,0:0:0:0:
381,253,49717,2,0,L|393:196,1,37.5,2|0,3:2|0:0,0:0:0:0:
447,195,49948,2,0,L|459:138,1,37.5
461,98,50179,6,0,P|429:58|380:62,1,75,2|0,3:2|0:0,0:0:0:0:
354,69,50525,2,0,B|286:84|310:38|224:61,1,112.5,2|0,0:0|1:0,0:0:0:0:
252,167,51102,2,0,P|220:216|161:224,1,112.5,0|0,3:0|1:0,0:0:0:0:
122,236,51563,1,2,3:2:0:0:
122,236,51679,2,0,P|102:204|68:191,1,75,0|2,0:0|0:0,0:0:0:0:
24,174,52025,2,0,P|0:145|0:108,1,75,2|0,3:2|0:0,0:0:0:0:
29,49,52371,6,0,L|143:37,1,112.5,2|0,0:0|1:0,0:0:0:0:
215,122,52948,2,0,L|329:110,1,112.5,0|0,3:0|3:0,0:0:0:0:
362,106,53409,1,8,0:0:0:0:
439,34,53640,1,2,3:2:0:0:
512,116,53871,6,0,P|511:153|480:185,1,78.7499975967408,6|0,3:2|0:0,0:0:0:0:
487,243,54217,2,0,P|459:268|415:269,1,78.7499975967408,2|0,3:2|3:0,0:0:0:0:
362,248,54563,2,0,L|356:207,2,39.3749987983704,2|0|0,3:2|3:0|3:0,0:0:0:0:
299,342,55025,2,0,L|293:380,2,39.3749987983704,2|0|8,3:2|3:0|0:0,0:0:0:0:
259,296,55371,2,0,P|229:268|189:263,1,78.7499975967408,2|0,3:2|0:0,0:0:0:0:
133,269,55717,1,2,0:0:0:0:
256,192,55833,12,0,56756,0:0:0:0:
133,269,57563,6,0,P|126:229|111:172,1,82.5000025177003,6|2,3:2|0:0,0:0:0:0:
36,173,57909,2,0,P|29:133|14:76,1,82.5000025177003,0|0,3:0|0:0,0:0:0:0:
7,52,58256,1,2,0:0:0:0:
111,5,58486,2,0,P|165:17|186:69,1,82.5000025177003,0|0,3:0|0:0,0:0:0:0:
231,103,58833,2,0,P|285:90|306:38,1,82.5000025177003,2|0,0:0|0:0,0:0:0:0:
369,22,59179,6,0,B|467:34|405:87|540:96,1,165.000005035401,2|2,0:0|0:0,0:0:0:0:
489,214,59871,1,0,1:0:0:0:
489,214,59986,2,0,P|482:239|481:257,1,41.2500012588501,0|0,3:0|0:0,0:0:0:0:
399,289,60217,2,0,P|337:297|300:347,1,123.75000377655,0|0,3:0|0:0,0:0:0:0:
189,383,60794,1,0,1:0:0:0:
110,308,61025,1,2,0:0:0:0:
194,233,61256,6,0,P|208:176|216:102,1,123.75000377655,6|0,3:2|3:0,0:0:0:0:
211,73,61717,1,0,1:0:0:0:
89,63,61948,2,0,P|60:57|45:48,1,41.2500012588501,2|0,0:0|3:0,0:0:0:0:
0,114,62179,2,0,P|29:166|26:202,1,82.5000025177003,2|0,3:2|3:0,0:0:0:0:
23,241,62525,1,0,3:0:0:0:
23,241,62640,1,0,1:0:0:0:
114,319,62871,6,0,B|190:327|163:280|250:293,1,123.75000377655,6|0,0:0|0:0,0:0:0:0:
280,295,63333,1,2,0:0:0:0:
350,205,63563,2,0,L|358:164,1,41.2500012588501,4|0,3:0|0:0,0:0:0:0:
300,105,63794,2,0,L|308:64,1,41.2500012588501,4|0,3:0|0:0,0:0:0:0:
390,33,64025,6,0,P|430:29|466:48,1,82.5000025177003,0|0,1:0|3:0,0:0:0:0:
505,91,64371,1,0,3:0:0:0:
505,91,64486,1,2,3:2:0:0:
465,194,64717,1,2,3:2:0:0:
350,205,64948,6,0,P|301:201|249:194,1,82.5000025177003,6|0,3:2|0:0,0:0:0:0:
219,131,65294,1,0,3:0:0:0:
219,131,65409,2,0,P|178:126|136:122,1,82.5000025177003,0|2,1:0|0:0,0:0:0:0:
58,96,65756,1,0,3:0:0:0:
58,96,65871,2,0,P|51:55|71:20,2,82.5000025177003,0|2|0,3:0|0:0|1:0,0:0:0:0:
29,212,66563,6,0,P|15:227|0:240,1,41.2500012588501,2|0,0:0|3:0,0:0:0:0:
0,325,66794,2,0,P|40:323|72:347,1,82.5000025177003,2|2,3:2|0:0,0:0:0:0:
94,380,67140,1,0,0:0:0:0:
94,380,67256,1,0,1:0:0:0:
186,319,67486,6,0,L|209:184,1,123.75000377655,2|0,0:0|3:0,0:0:0:0:
215,166,67948,1,2,3:2:0:0:
129,108,68179,1,0,1:0:0:0:
179,16,68409,1,2,0:0:0:0:
282,57,68640,6,0,B|357:62|327:95|415:99,1,123.75000377655,2|0,3:2|0:0,0:0:0:0:
473,70,69102,2,0,P|483:30|518:3,2,82.5000025177003,0|2|0,1:0|0:0|3:0,0:0:0:0:
427,186,69794,2,0,P|430:207|435:228,1,41.2500012588501,0|0,3:0|3:0,0:0:0:0:
509,276,70025,2,0,P|500:294|491:313,1,41.2500012588501,0|0,1:0|0:0,0:0:0:0:
404,333,70256,6,0,B|355:330|330:369|330:369|295:391|255:371,1,165.000005035401,6|2,3:2|0:0,0:0:0:0:
157,297,70948,2,0,L|149:257,1,41.2500012588501,4|0,3:0|0:0,0:0:0:0:
226,212,71179,2,0,L|234:172,1,41.2500012588501,4|0,3:0|0:0,0:0:0:0:
246,135,71409,5,0,1:0:0:0:
204,18,71640,1,0,3:0:0:0:
95,62,71871,1,8,1:2:0:0:
80,65,71986,1,8,1:2:0:0:
63,69,72102,2,0,P|42:70|19:72,1,41.2500012588501,8|8,1:2|1:2,0:0:0:0:
0,151,72333,6,0,P|3:192|36:223,1,82.5000025177003,6|2,3:2|0:0,0:0:0:0:
114,223,72679,2,0,P|176:233|198:288,1,123.75000377655,2|2,3:2|0:0,0:0:0:0:
309,340,73256,2,0,L|397:356,1,82.5000025177003,2|0,3:2|0:0,0:0:0:0:
442,275,73602,2,0,L|360:260,1,82.5000025177003,2|0,0:0|0:0,0:0:0:0:
298,203,73948,6,0,P|286:163|302:121,2,82.5000025177003,2|2|2,0:0|3:2|0:0,0:0:0:0:
433,152,74640,1,0,1:0:0:0:
433,152,74756,2,0,P|438:132|436:110,1,41.2500012588501,0|0,3:0|0:0,0:0:0:0:
384,37,74986,2,0,P|324:26|260:27,1,123.75000377655,0|2,3:0|0:0,0:0:0:0:
165,74,75563,1,0,1:0:0:0:
205,172,75794,1,2,0:0:0:0:
326,150,76025,6,0,B|368:157|368:157|389:181|389:181|442:189,1,123.75000377655,6|0,3:2|3:0,0:0:0:0:
493,199,76486,1,0,1:0:0:0:
508,298,76717,2,0,L|498:342,1,41.2500012588501,2|0,0:0|3:0,0:0:0:0:
403,352,76948,2,0,P|359:334|315:343,1,82.5000025177003,2|0,3:2|3:0,0:0:0:0:
292,357,77294,1,0,3:0:0:0:
292,357,77409,1,0,1:0:0:0:
189,292,77640,6,0,P|191:214|265:189,1,165.000005035401,6|2,0:0|0:0,0:0:0:0:
406,181,78333,2,0,P|411:161|413:131,1,41.2500012588501,0|0,1:0|0:0,0:0:0:0:
492,108,78563,2,0,P|489:87|484:67,1,41.2500012588501,0|0,3:0|0:0,0:0:0:0:
433,3,78794,6,0,P|401:28|360:30,1,82.5000025177003,0|0,1:0|3:0,0:0:0:0:
281,11,79140,1,0,3:0:0:0:
281,11,79256,2,0,P|240:13|208:38,1,82.5000025177003,8|8,3:0|3:0,0:0:0:0:
137,84,79602,1,0,3:0:0:0:
137,84,79717,6,0,P|145:126|148:171,1,82.5000025177003,6|2,3:2|0:0,0:0:0:0:
275,231,80179,2,0,P|271:272|264:312,1,82.5000025177003,0|2,1:0|0:0,0:0:0:0:
194,352,80525,1,0,3:0:0:0:
194,352,80640,2,0,L|112:340,2,82.5000025177003,0|0|0,3:0|0:0|1:0,0:0:0:0:
357,354,81333,2,0,P|377:351|398:344,1,41.2500012588501,2|0,0:0|3:0,0:0:0:0:
468,296,81563,6,0,P|437:253|433:177,1,123.75000377655,2|0,3:2|0:0,0:0:0:0:
445,142,82025,1,0,1:0:0:0:
332,54,82256,2,0,P|329:115|295:165,1,123.75000377655,2|0,0:0|3:0,0:0:0:0:
267,190,82717,1,2,3:2:0:0:
164,142,82948,1,0,1:0:0:0:
86,234,83179,1,2,0:0:0:0:
156,318,83409,6,0,B|199:344|236:327|236:327|266:294|309:304,1,165.000005035401,0|0,3:0|1:0,0:0:0:0:
448,295,84102,2,0,P|431:231|377:205,1,123.75000377655,2|0,0:0|0:0,0:0:0:0:
366,125,84563,2,0,P|369:104|374:83,2,41.2500012588501,0|0|0,3:0|3:0|1:0,0:0:0:0:
290,19,85025,6,0,B|189:28|229:93|134:97,1,180,6|0,3:2|0:0,0:0:0:0:
15,56,85948,2,0,P|33:112|35:172,1,120,2|2,0:0|0:0,0:0:0:0:
115,249,86640,1,2,0:0:0:0:
115,249,86871,1,2,0:0:0:0:
256,192,86986,12,0,88486,0:0:0:0:
