osu file format v14

[General]
AudioFilename: audio.mp3
AudioLeadIn: 0
PreviewTime: -1
Countdown: 1
SampleSet: None
StackLeniency: 0.7
Mode: 0
LetterboxInBreaks: 0
WidescreenStoryboard: 0

[Editor]
Bookmarks: 229308
DistanceSpacing: 1
BeatDivisor: 4
GridSize: 32
TimelineZoom: 2.799999

[Metadata]
Title:Amatsu Kitsune
TitleUnicode:アマツキツネ
Artist:Hanatan
ArtistUnicode:Hanatan
Creator:Fawx
Version:Stellar
Source:
Tags:
BeatmapID:1251071
BeatmapSetID:591155

[Difficulty]
HPDrainRate:5
CircleSize:4
OverallDifficulty:8.7
ApproachRate:9.2
SliderMultiplier:1.7
SliderTickRate:1

[Events]
//Background and Video events
0,0,"amatsukitsune.jpg",0,0
//Break Periods
2,179772,186581
//Storyboard Layer 0 (Background)
//Storyboard Layer 1 (Fail)
//Storyboard Layer 2 (Pass)
//Storyboard Layer 3 (Foreground)
//Storyboard Sound Samples

[TimingPoints]
2730,315.789473684211,4,1,0,50,1,0
2730,-133.333333333333,4,1,0,50,0,0
9045,-100,4,1,0,50,0,0
17887,-83.3333333333333,4,1,0,50,0,0
29177,-83.3333333333333,4,1,0,5,0,0
29256,-83.3333333333333,4,1,0,50,0,0
37151,-100,4,1,0,45,0,0
39361,-100,4,1,0,50,0,0
67151,-83.3333333333333,4,1,0,50,0,1
92414,-83.3333333333333,4,1,0,50,0,0
116730,-83.3333333333333,4,1,0,5,0,0
118466,-83.3333333333333,4,1,0,50,0,0
131572,-83.3333333333333,4,1,0,50,0,1
169466,-83.3333333333333,4,1,0,50,0,0
187151,-100,4,1,0,50,0,0
188414,-83.3333333333333,4,1,0,50,0,0
189677,-83.3333333333333,4,1,0,50,0,1
204835,-83.3333333333333,4,1,0,50,0,0

[HitObjects]
167,123,2098,5,0,0:0:0:0:
199,135,2414,1,0,0:0:0:0:
231,148,2730,2,0,B|250:158|250:158|251:279,1,127.500004863739
108,180,3361,2,0,B|89:170|89:170|88:49,1,127.500004863739
208,72,3993,2,0,P|269:102|393:69,1,191.250007295609
487,58,4624,6,0,P|470:122|491:188,1,127.500004863739
360,184,5256,2,0,P|299:197|212:171,1,127.500004863739
64,230,5887,1,0,0:0:0:0:
128,300,6203,1,0,0:0:0:0:
160,210,6361,5,0,0:0:0:0:
160,210,6440,1,0,0:0:0:0:
160,210,6519,2,0,B|155:69|155:69|187:132,1,191.250007295609
259,182,7151,2,0,P|301:184|332:170,1,63.7500024318696
417,143,7466,2,0,P|448:114|460:82,1,63.7500024318696
295,12,7782,6,0,P|269:46|358:44,1,191.250007295609
196,33,8414,2,0,P|194:75|211:112,1,63.7500024318696
259,182,8730,2,0,P|261:224|244:261,1,63.7500024318696
52,283,9045,5,0,0:0:0:0:
26,248,9124,1,0,0:0:0:0:
28,205,9203,1,0,0:0:0:0:
57,174,9282,1,0,0:0:0:0:
98,164,9361,1,0,0:0:0:0:
138,176,9440,1,0,0:0:0:0:
177,192,9519,1,0,0:0:0:0:
219,192,9598,1,0,0:0:0:0:
259,182,9677,6,0,L|304:159,1,42.5
196,33,9835,2,0,L|151:56,1,42.5
127,258,9993,5,0,0:0:0:0:
164,278,10072,1,0,0:0:0:0:
206,283,10151,1,0,0:0:0:0:
248,278,10230,1,0,0:0:0:0:
287,265,10308,2,0,P|333:262|286:333,1,170
127,258,10782,5,0,0:0:0:0:
390,140,11098,5,0,0:0:0:0:
82,141,11414,5,0,0:0:0:0:
373,313,11730,5,0,0:0:0:0:
186,78,12045,5,0,0:0:0:0:
214,313,12203,2,0,P|263:272|260:203,1,127.5
236,198,12519,2,0,P|187:239|190:308,1,127.5
214,313,12835,6,0,P|274:337|376:312,1,170
298,126,13308,1,0,0:0:0:0:
298,126,13387,1,0,0:0:0:0:
298,126,13466,2,0,L|207:130,1,85
50,232,13782,2,0,L|141:236,1,85
405,243,14098,6,0,B|413:52|413:52|381:122,1,255
214,217,14730,1,0,0:0:0:0:
214,217,15045,5,0,0:0:0:0:
251,237,15124,1,0,0:0:0:0:
291,222,15203,1,0,0:0:0:0:
307,182,15282,1,0,0:0:0:0:
284,145,15361,2,0,L|169:146,1,85
74,152,15677,1,0,0:0:0:0:
376,145,15835,5,0,0:0:0:0:
116,306,16151,5,0,0:0:0:0:
451,192,16466,6,0,P|462:134|430:79,1,85
199,145,16782,2,0,P|188:203|220:258,1,85
392,299,17098,1,0,0:0:0:0:
99,138,17256,5,0,0:0:0:0:
100,180,17335,1,0,0:0:0:0:
101,222,17414,1,0,0:0:0:0:
102,264,17493,1,0,0:0:0:0:
103,306,17572,1,0,0:0:0:0:
103,306,17887,6,0,P|166:319|219:293,1,101.999996887207
338,157,18203,1,0,0:0:0:0:
378,325,18361,1,0,0:0:0:0:
198,135,18519,1,0,0:0:0:0:
214,86,18598,1,0,0:0:0:0:
251,51,18677,1,0,0:0:0:0:
298,31,18756,1,0,0:0:0:0:
349,32,18835,1,0,0:0:0:0:
450,196,18993,1,0,0:0:0:0:
147,213,19151,6,0,P|109:163|112:109,1,101.999996887207
338,157,19466,1,0,0:0:0:0:
127,293,19624,1,0,0:0:0:0:
450,292,19782,2,0,P|464:237|442:185,1,101.999996887207
251,51,20098,1,0,0:0:0:0:
208,272,20256,1,0,0:0:0:0:
401,131,20414,5,0,0:0:0:0:
160,132,20572,1,0,0:0:0:0:
401,131,20730,1,0,0:0:0:0:
86,202,20887,5,0,0:0:0:0:
477,96,21203,5,0,0:0:0:0:
86,202,21519,5,0,0:0:0:0:
466,248,21835,5,0,0:0:0:0:
466,248,21914,1,0,0:0:0:0:
466,248,21993,1,0,0:0:0:0:
105,293,22151,1,0,0:0:0:0:
402,145,22308,1,0,0:0:0:0:
110,119,22466,1,0,0:0:0:0:
264,323,22624,1,0,0:0:0:0:
311,58,22782,1,0,0:0:0:0:
39,244,22940,6,0,P|23:309|49:356,1,101.999996887207
214,254,23256,2,0,P|269:239|337:274,1,101.999996887207
172,340,23572,1,0,0:0:0:0:
132,307,23651,1,0,0:0:0:0:
119,257,23730,1,0,0:0:0:0:
134,208,23808,1,0,0:0:0:0:
174,176,23887,1,0,0:0:0:0:
402,145,24045,1,0,0:0:0:0:
310,251,24203,6,0,P|255:266|187:231,1,101.999996887207
74,131,24519,1,0,0:0:0:0:
264,72,24677,1,0,0:0:0:0:
107,249,24835,1,0,0:0:0:0:
113,299,24914,1,0,0:0:0:0:
141,341,24993,1,0,0:0:0:0:
187,361,25072,1,0,0:0:0:0:
238,360,25151,1,0,0:0:0:0:
421,229,25308,1,0,0:0:0:0:
209,157,25466,6,0,P|196:216|220:270,1,101.999996887207
371,341,25782,2,0,P|420:354|469:341,1,101.999996887207
209,157,26256,5,0,0:0:0:0:
469,340,26572,5,0,0:0:0:0:
207,340,26887,5,0,0:0:0:0:
207,340,26966,1,0,0:0:0:0:
207,340,27045,1,0,0:0:0:0:
387,211,27203,1,0,0:0:0:0:
126,289,27361,1,0,0:0:0:0:
430,281,27519,1,0,0:0:0:0:
118,185,27677,1,0,0:0:0:0:
306,332,27835,1,0,0:0:0:0:
435,136,27993,6,0,P|372:123|322:150,1,101.999996887207
207,340,28308,1,0,0:0:0:0:
142,106,28466,1,0,0:0:0:0:
387,211,28624,1,0,0:0:0:0:
343,238,28703,1,0,0:0:0:0:
292,244,28782,1,0,0:0:0:0:
241,235,28861,1,0,0:0:0:0:
197,207,28940,1,0,0:0:0:0:
295,62,29098,2,0,L|292:140,1,50.9999984436036
472,166,29256,6,0,P|483:223|461:274,1,101.999996887207
242,322,29572,1,0,0:0:0:0:
388,120,29730,1,0,0:0:0:0:
376,337,29887,1,0,0:0:0:0:
140,227,30045,1,0,0:0:0:0:
387,211,30203,1,0,0:0:0:0:
109,313,30361,1,0,0:0:0:0:
468,263,30519,6,0,P|482:214|471:165,1,101.999996887207
237,115,30835,1,0,0:0:0:0:
387,312,30993,6,0,L|386:201,1,101.999996887207
140,227,31308,6,0,L|139:116,1,101.999996887207
386,210,31624,6,0,L|385:99,1,101.999996887207
137,38,31940,5,0,0:0:0:0:
137,38,32019,1,0,0:0:0:0:
137,38,32098,1,0,0:0:0:0:
219,243,32256,1,0,0:0:0:0:
331,49,32414,1,0,0:0:0:0:
308,299,32572,1,0,0:0:0:0:
78,142,32730,5,0,0:0:0:0:
48,182,32808,1,0,0:0:0:0:
39,232,32887,1,0,0:0:0:0:
52,281,32966,1,0,0:0:0:0:
88,316,33045,2,0,P|147:328|214:298,1,101.999996887207
268,136,33361,2,0,P|209:124|142:154,1,101.999996887207
368,296,33677,5,0,0:0:0:0:
371,245,33756,1,0,0:0:0:0:
375,194,33835,1,0,0:0:0:0:
379,143,33914,1,0,0:0:0:0:
383,92,33993,1,0,0:0:0:0:
216,240,34151,1,0,0:0:0:0:
465,209,34308,6,0,P|478:276|454:321,1,101.999996887207
268,136,34624,2,0,P|255:69|279:24,1,101.999996887207
368,296,34940,5,0,0:0:0:0:
330,330,35019,1,0,0:0:0:0:
279,340,35098,1,0,0:0:0:0:
230,325,35177,1,0,0:0:0:0:
192,290,35256,2,0,L|181:223,1,50.9999984436036
268,136,35414,2,0,L|279:203,1,50.9999984436036
86,111,35572,5,0,0:0:0:0:
86,111,35651,1,0,0:0:0:0:
86,111,35730,2,0,L|152:113,1,50.9999984436036
79,233,35887,1,0,0:0:0:0:
79,233,35966,1,0,0:0:0:0:
79,233,36045,2,0,L|13:235,1,50.9999984436036
282,258,36203,5,0,0:0:0:0:
329,238,36282,1,0,0:0:0:0:
350,191,36361,1,0,0:0:0:0:
335,142,36440,1,0,0:0:0:0:
291,114,36519,1,0,0:0:0:0:
240,122,36598,1,0,0:0:0:0:
208,162,36677,1,0,0:0:0:0:
208,213,36756,1,0,0:0:0:0:
239,253,36835,6,0,B|403:251|403:251|356:280,1,203.999993774414
319,324,37308,1,0,0:0:0:0:
319,324,37466,2,0,P|265:350|159:324,1,170
83,233,37940,2,0,P|137:207|243:233,1,170
83,318,38414,6,0,L|83:218,1,85
111,152,38730,1,0,0:0:0:0:
175,97,38887,1,0,0:0:0:0:
175,97,38966,1,0,0:0:0:0:
175,97,39045,1,0,0:0:0:0:
260,97,39203,1,0,0:0:0:0:
322,228,39361,6,0,P|268:238|218:216,1,85
378,169,39677,1,0,0:0:0:0:
187,172,39835,1,0,0:0:0:0:
238,314,39993,6,0,P|292:324|342:302,1,85
182,255,40308,1,0,0:0:0:0:
373,258,40466,1,0,0:0:0:0:
282,134,40624,6,0,L|282:246,1,85
398,339,40940,1,0,0:0:0:0:
159,333,41098,1,0,0:0:0:0:
282,134,41256,6,0,P|343:127|386:153,1,85
194,234,41572,2,0,P|133:241|90:215,1,85
29,145,41887,6,0,B|51:21|51:21|57:78,1,170
108,132,42361,1,0,0:0:0:0:
186,164,42519,2,0,P|267:190|366:142,1,170
409,114,42993,6,0,B|429:77|429:77|420:222,1,170
347,246,43466,1,0,0:0:0:0:
262,255,43624,2,0,P|155:232|89:260,1,170
99,255,44019,1,0,0:0:0:0:
97,258,44098,1,0,0:0:0:0:
272,339,44256,1,0,0:0:0:0:
28,303,44414,6,0,P|16:243|33:209,1,85
244,136,44730,1,0,0:0:0:0:
185,346,44887,1,0,0:0:0:0:
144,139,45045,2,0,P|98:128|38:156,1,85
262,255,45361,5,0,0:0:0:0:
28,303,45519,1,0,0:0:0:0:
244,136,45677,1,0,0:0:0:0:
279,372,45835,1,0,0:0:0:0:
144,139,45993,1,0,0:0:0:0:
109,375,46151,1,0,0:0:0:0:
344,172,46308,5,0,0:0:0:0:
386,173,46387,1,0,0:0:0:0:
419,199,46466,1,0,0:0:0:0:
434,238,46545,1,0,0:0:0:0:
427,279,46624,1,0,0:0:0:0:
398,310,46703,1,0,0:0:0:0:
356,320,46782,1,0,0:0:0:0:
314,311,46861,1,0,0:0:0:0:
277,289,46940,6,0,P|195:263|106:301,1,170
40,375,47414,1,0,0:0:0:0:
277,289,47572,2,0,P|288:244|271:187,1,85
175,101,47887,1,0,0:0:0:0:
47,262,48045,2,0,P|85:283|217:255,1,170
281,206,48440,5,0,0:0:0:0:
281,206,48519,2,0,P|329:196|382:222,1,85
475,332,48835,2,0,P|427:342|374:316,1,85
281,206,49151,2,0,P|271:158|297:105,1,85
443,145,49466,5,0,0:0:0:0:
276,315,49624,1,0,0:0:0:0:
168,112,49782,1,0,0:0:0:0:
276,315,49940,1,0,0:0:0:0:
351,86,50098,1,0,0:0:0:0:
221,213,50256,1,0,0:0:0:0:
356,211,50414,1,0,0:0:0:0:
248,85,50572,1,0,0:0:0:0:
179,283,50730,5,0,0:0:0:0:
351,86,50887,1,0,0:0:0:0:
440,312,51045,1,0,0:0:0:0:
174,136,51203,1,0,0:0:0:0:
452,116,51361,2,0,P|459:181|446:216,1,85
260,369,51677,2,0,P|253:304|266:269,1,85
351,86,51993,6,0,B|371:47|371:47|373:184,1,170
341,324,52466,1,0,0:0:0:0:
202,214,52624,2,0,P|153:204|101:223,1,85
178,345,52940,1,0,0:0:0:0:
274,160,53098,2,0,P|285:125|267:68,1,85
63,146,53414,1,0,0:0:0:0:
285,245,53572,1,0,0:0:0:0:
188,13,53730,6,0,B|164:45|164:45|165:195,1,170
221,307,54203,1,0,0:0:0:0:
257,329,54282,1,0,0:0:0:0:
299,333,54361,1,0,0:0:0:0:
339,320,54440,1,0,0:0:0:0:
370,291,54519,6,0,L|376:192,1,85
322,73,54835,1,0,0:0:0:0:
191,240,54993,1,0,0:0:0:0:
395,126,55151,2,0,P|441:120|494:132,1,85
285,245,55466,1,0,0:0:0:0:
198,75,55624,1,0,0:0:0:0:
395,126,55782,2,0,P|405:191|376:233,1,85
217,311,56098,5,0,0:0:0:0:
198,272,56177,1,0,0:0:0:0:
199,229,56256,1,0,0:0:0:0:
220,192,56335,1,0,0:0:0:0:
255,168,56414,1,0,0:0:0:0:
286,139,56493,1,0,0:0:0:0:
300,99,56572,5,0,0:0:0:0:
302,56,56651,1,0,0:0:0:0:
274,23,56730,1,0,0:0:0:0:
234,9,56808,1,0,0:0:0:0:
191,14,56887,1,0,0:0:0:0:
164,47,56966,1,0,0:0:0:0:
163,89,57045,6,0,P|220:106|348:71,1,170
395,35,57519,1,0,0:0:0:0:
400,119,57677,2,0,P|379:194|404:294,1,170
446,353,58151,1,0,0:0:0:0:
281,197,58308,1,0,0:0:0:0:
446,353,58466,1,0,0:0:0:0:
478,140,58624,1,0,0:0:0:0:
396,139,58940,5,0,0:0:0:0:
396,139,59019,1,0,0:0:0:0:
396,139,59098,1,0,0:0:0:0:
446,353,59256,1,0,0:0:0:0:
478,140,59414,1,0,0:0:0:0:
213,153,59572,6,0,P|203:220|228:271,1,85
288,343,59887,1,0,0:0:0:0:
396,139,60045,1,0,0:0:0:0:
446,353,60203,1,0,0:0:0:0:
306,133,60361,1,0,0:0:0:0:
166,353,60519,1,0,0:0:0:0:
478,186,60677,6,0,L|483:66,1,85
169,268,60993,2,0,L|164:388,1,85
386,298,61308,5,0,0:0:0:0:
388,255,61387,1,0,0:0:0:0:
390,212,61466,1,0,0:0:0:0:
391,169,61545,1,0,0:0:0:0:
393,126,61624,1,0,0:0:0:0:
379,85,61703,5,0,0:0:0:0:
345,59,61782,1,0,0:0:0:0:
302,65,61861,1,0,0:0:0:0:
273,96,61940,1,0,0:0:0:0:
275,138,62019,1,0,0:0:0:0:
294,175,62098,6,0,P|316:238|276:362,1,170
136,212,62572,1,0,0:0:0:0:
373,176,62730,6,0,P|387:241|359:367,1,170
215,211,63203,1,0,0:0:0:0:
452,159,63361,1,0,0:0:0:0:
294,336,63519,1,0,0:0:0:0:
256,97,63677,1,0,0:0:0:0:
146,312,63835,5,0,0:0:0:0:
146,312,63914,1,0,0:0:0:0:
146,312,63993,1,0,0:0:0:0:
373,176,64151,1,0,0:0:0:0:
112,147,64308,1,0,0:0:0:0:
294,336,64466,1,0,0:0:0:0:
418,112,64624,6,0,P|380:99|328:113,1,85
146,312,64940,1,0,0:0:0:0:
435,223,65098,5,0,0:0:0:0:
33,203,65414,5,0,0:0:0:0:
485,157,65730,5,0,0:0:0:0:
246,171,65887,5,0,0:0:0:0:
229,210,65966,1,0,0:0:0:0:
232,252,66045,1,0,0:0:0:0:
251,289,66124,1,0,0:0:0:0:
287,310,66203,1,0,0:0:0:0:
329,308,66282,1,0,0:0:0:0:
358,277,66361,1,0,0:0:0:0:
352,234,66440,1,0,0:0:0:0:
319,206,66519,5,0,0:0:0:0:
276,206,66598,1,0,0:0:0:0:
240,228,66677,1,0,0:0:0:0:
202,247,66756,1,0,0:0:0:0:
159,242,66835,1,0,0:0:0:0:
124,217,66914,1,0,0:0:0:0:
112,176,66993,1,0,0:0:0:0:
126,136,67072,1,0,0:0:0:0:
162,114,67151,6,0,L|284:112,1,101.999996887207
459,275,67466,6,0,L|337:277,1,101.999996887207
98,286,67782,1,0,0:0:0:0:
386,144,67940,1,0,0:0:0:0:
58,165,68098,1,0,0:0:0:0:
266,323,68256,1,0,0:0:0:0:
336,70,68414,6,0,P|392:58|441:74,1,101.999996887207
212,182,68730,1,0,0:0:0:0:
430,232,68887,1,0,0:0:0:0:
430,232,68966,1,0,0:0:0:0:
430,232,69045,1,0,0:0:0:0:
223,97,69203,1,0,0:0:0:0:
324,273,69361,1,0,0:0:0:0:
267,29,69519,1,0,0:0:0:0:
236,308,69677,6,0,P|184:320|129:302,1,101.999996887207
312,145,69993,2,0,P|364:133|419:151,1,101.999996887207
135,207,70308,2,0,P|123:155|141:100,1,101.999996887207
358,229,70624,1,0,0:0:0:0:
345,278,70703,1,0,0:0:0:0:
304,308,70782,1,0,0:0:0:0:
253,312,70861,1,0,0:0:0:0:
204,296,70940,6,0,P|130:286|88:308,1,101.999996887207
405,329,71256,2,0,P|434:273|427:219,1,101.999996887207
251,79,71572,1,0,0:0:0:0:
268,226,71730,1,0,0:0:0:0:
365,55,71887,1,0,0:0:0:0:
173,231,72045,1,0,0:0:0:0:
430,138,72203,6,0,P|445:181|418:252,1,101.999996887207
224,311,72519,1,0,0:0:0:0:
146,60,72677,1,0,0:0:0:0:
146,60,72756,1,0,0:0:0:0:
146,60,72835,1,0,0:0:0:0:
316,147,72993,1,0,0:0:0:0:
82,224,73151,1,0,0:0:0:0:
266,57,73308,1,0,0:0:0:0:
224,311,73466,6,0,P|156:326|115:307,1,101.999996887207
316,147,73782,1,0,0:0:0:0:
363,127,73861,1,0,0:0:0:0:
413,122,73940,1,0,0:0:0:0:
463,128,74019,1,0,0:0:0:0:
511,142,74098,2,0,L|503:269,1,101.999996887207
243,199,74414,2,0,P|229:142|249:90,1,101.999996887207
374,271,74730,5,0,0:0:0:0:
323,276,74808,1,0,0:0:0:0:
272,281,74887,1,0,0:0:0:0:
221,286,74966,1,0,0:0:0:0:
170,290,75045,2,0,L|93:297,1,50.9999984436036
239,148,75203,2,0,L|243:213,1,50.9999984436036
397,184,75361,5,0,0:0:0:0:
444,202,75440,1,0,0:0:0:0:
466,247,75519,1,0,0:0:0:0:
465,298,75598,1,0,0:0:0:0:
435,339,75677,2,0,L|378:344,1,50.9999984436036
191,203,75835,2,0,L|248:198,1,50.9999984436036
451,61,75993,5,0,0:0:0:0:
449,112,76072,1,0,0:0:0:0:
417,151,76151,1,0,0:0:0:0:
368,167,76230,1,0,0:0:0:0:
318,159,76308,1,0,0:0:0:0:
276,129,76387,1,0,0:0:0:0:
227,112,76466,1,0,0:0:0:0:
176,114,76545,1,0,0:0:0:0:
129,135,76624,5,0,0:0:0:0:
98,176,76703,1,0,0:0:0:0:
96,226,76782,1,0,0:0:0:0:
116,272,76861,1,0,0:0:0:0:
153,306,76940,2,0,L|242:305,1,50.9999984436036
376,76,77098,2,0,L|287:77,1,50.9999984436036
319,295,77256,6,0,P|389:325|508:288,1,203.999993774414
192,208,77730,1,0,0:0:0:0:
269,365,77887,1,0,0:0:0:0:
401,160,78045,1,0,0:0:0:0:
231,286,78203,1,0,0:0:0:0:
421,356,78361,1,0,0:0:0:0:
244,137,78519,6,0,P|186:121|123:152,1,101.999996887207
381,255,78835,2,0,B|401:229|401:229|400:140,1,101.999996887207
192,208,79151,1,0,0:0:0:0:
157,245,79230,1,0,0:0:0:0:
146,294,79308,1,0,0:0:0:0:
163,341,79387,1,0,0:0:0:0:
205,369,79466,2,0,B|342:367,1,101.999996887207
455,279,79782,6,0,B|475:253|475:253|474:164,1,101.999996887207
301,84,80098,1,0,0:0:0:0:
302,268,80256,1,0,0:0:0:0:
57,279,80414,2,0,B|37:253|37:253|38:164,1,101.999996887207
211,84,80730,1,0,0:0:0:0:
210,268,80888,1,0,0:0:0:0:
387,177,81045,6,0,P|399:243|383:283,1,101.999996887207
132,269,81361,1,0,0:0:0:0:
132,217,81440,1,0,0:0:0:0:
132,165,81519,1,0,0:0:0:0:
132,113,81598,1,0,0:0:0:0:
132,61,81677,1,0,0:0:0:0:
257,177,81835,1,0,0:0:0:0:
38,209,81993,1,0,0:0:0:0:
222,86,82151,1,0,0:0:0:0:
182,333,82308,6,0,P|117:349|74:327,1,101.999996887207
257,177,82624,2,0,P|322:161|365:183,1,101.999996887207
472,337,82940,1,0,0:0:0:0:
220,257,83098,1,0,0:0:0:0:
471,152,83256,1,0,0:0:0:0:
287,338,83414,1,0,0:0:0:0:
303,82,83572,5,0,0:0:0:0:
261,52,83651,1,0,0:0:0:0:
210,57,83730,1,0,0:0:0:0:
173,91,83808,1,0,0:0:0:0:
168,141,83887,2,0,L|201:195,1,50.9999984436036
379,216,84045,2,0,L|346:162,1,50.9999984436036
181,341,84203,5,0,0:0:0:0:
221,371,84282,1,0,0:0:0:0:
271,376,84361,1,0,0:0:0:0:
317,356,84440,1,0,0:0:0:0:
344,312,84519,1,0,0:0:0:0:
335,261,84598,1,0,0:0:0:0:
298,225,84677,1,0,0:0:0:0:
248,213,84756,1,0,0:0:0:0:
204,240,84835,6,0,P|133:259|36:232,1,152.999995330811
46,235,85151,1,0,0:0:0:0:
302,30,85308,6,0,L|299:147,1,101.999996887207
124,71,85624,6,0,L|127:188,1,101.999996887207
377,76,85940,6,0,L|374:193,1,101.999996887207
51,173,86256,5,0,0:0:0:0:
52,223,86335,1,0,0:0:0:0:
54,273,86414,2,0,L|56:371,1,50.9999984436036
215,198,86572,2,0,L|213:100,1,50.9999984436036
300,325,86730,5,0,0:0:0:0:
346,343,86808,1,0,0:0:0:0:
397,342,86887,1,0,0:0:0:0:
442,318,86966,1,0,0:0:0:0:
466,273,87045,1,0,0:0:0:0:
459,222,87124,1,0,0:0:0:0:
424,184,87203,1,0,0:0:0:0:
374,177,87282,1,0,0:0:0:0:
324,189,87361,6,0,P|301:243|399:214,1,203.999993774414
401,69,87835,1,0,0:0:0:0:
401,69,87914,1,0,0:0:0:0:
401,69,87993,2,0,P|323:81|297:68,1,101.999996887207
117,143,88308,2,0,P|195:155|221:142,1,101.999996887207
35,56,88624,5,0,0:0:0:0:
124,253,88782,1,0,0:0:0:0:
231,58,88940,1,0,0:0:0:0:
231,305,89098,1,0,0:0:0:0:
118,71,89256,1,0,0:0:0:0:
52,308,89414,1,0,0:0:0:0:
344,113,89572,1,0,0:0:0:0:
23,221,89730,1,0,0:0:0:0:
328,360,89887,6,0,P|343:312|330:264,1,101.999996887207
120,164,90203,1,0,0:0:0:0:
344,113,90361,6,0,L|338:232,1,101.999996887207
120,164,90677,6,0,L|126:283,1,101.999996887207
417,191,90993,6,0,L|411:310,1,101.999996887207
202,144,91308,5,0,0:0:0:0:
198,92,91387,1,0,0:0:0:0:
194,40,91466,1,0,0:0:0:0:
344,113,91624,1,0,0:0:0:0:
105,101,91782,5,0,0:0:0:0:
66,134,91861,1,0,0:0:0:0:
50,182,91940,1,0,0:0:0:0:
65,230,92019,1,0,0:0:0:0:
104,262,92098,2,0,B|136:278|136:278|246:277,1,101.999996887207
417,191,92414,6,0,P|431:247|411:298,1,101.999996887207
198,92,92730,1,0,0:0:0:0:
162,352,92887,1,0,0:0:0:0:
351,145,93045,5,0,0:0:0:0:
346,195,93124,1,0,0:0:0:0:
315,235,93203,1,0,0:0:0:0:
266,251,93282,1,0,0:0:0:0:
215,241,93361,2,0,P|152:228|92:249,1,101.999996887207
330,341,93677,5,0,0:0:0:0:
453,186,93835,1,0,0:0:0:0:
262,165,93993,1,0,0:0:0:0:
429,317,94151,1,0,0:0:0:0:
320,99,94308,1,0,0:0:0:0:
197,299,94466,1,0,0:0:0:0:
414,92,94624,1,0,0:0:0:0:
440,347,94782,1,0,0:0:0:0:
155,137,94940,6,0,P|140:203|158:251,1,101.999996887207
332,308,95256,1,0,0:0:0:0:
57,180,95414,5,0,0:0:0:0:
399,150,95730,5,0,0:0:0:0:
31,271,96045,5,0,0:0:0:0:
387,65,96361,5,0,0:0:0:0:
387,65,96440,1,0,0:0:0:0:
387,65,96519,1,0,0:0:0:0:
246,293,96677,1,0,0:0:0:0:
133,68,96835,5,0,0:0:0:0:
182,56,96914,1,0,0:0:0:0:
228,76,96993,1,0,0:0:0:0:
252,120,97072,1,0,0:0:0:0:
247,170,97151,1,0,0:0:0:0:
123,260,97308,1,0,0:0:0:0:
363,142,97466,6,0,P|418:128|476:156,1,101.999996887207
246,266,97782,2,0,P|232:211|260:153,1,101.999996887207
484,244,98098,1,0,0:0:0:0:
463,290,98177,1,0,0:0:0:0:
421,320,98256,1,0,0:0:0:0:
370,329,98335,1,0,0:0:0:0:
320,314,98414,2,0,B|300:290|300:290|300:191,1,101.999996887207
459,141,98730,6,0,P|410:155|362:141,1,101.999996887207
183,54,99045,2,0,B|171:71|171:71|172:173,1,101.999996887207
249,351,99361,5,0,0:0:0:0:
249,351,99440,1,0,0:0:0:0:
249,351,99519,2,0,L|186:352,1,50.9999984436036
386,237,99677,1,0,0:0:0:0:
171,152,99835,1,0,0:0:0:0:
343,336,99993,5,0,0:0:0:0:
393,342,100072,1,0,0:0:0:0:
442,330,100151,1,0,0:0:0:0:
480,296,100230,1,0,0:0:0:0:
491,246,100308,1,0,0:0:0:0:
487,195,100387,1,0,0:0:0:0:
455,154,100466,1,0,0:0:0:0:
410,129,100545,1,0,0:0:0:0:
359,125,100624,5,0,0:0:0:0:
311,142,100703,1,0,0:0:0:0:
262,157,100782,1,0,0:0:0:0:
210,155,100861,1,0,0:0:0:0:
162,135,100940,1,0,0:0:0:0:
112,121,101019,1,0,0:0:0:0:
62,135,101098,1,0,0:0:0:0:
33,177,101177,1,0,0:0:0:0:
38,227,101256,6,0,P|107:258|248:198,1,203.999993774414
250,56,101730,1,0,0:0:0:0:
225,223,101887,2,0,B|223:364|223:364|260:272,1,203.999993774414
321,238,102361,2,0,P|383:220|324:265,1,203.999993774414
225,223,102835,2,0,P|151:213|104:231,1,101.999996887207
311,362,103151,5,0,0:0:0:0:
272,136,103308,1,0,0:0:0:0:
272,136,103387,1,0,0:0:0:0:
272,136,103466,1,0,0:0:0:0:
171,320,103624,1,0,0:0:0:0:
401,144,103782,5,0,0:0:0:0:
246,232,103940,1,0,0:0:0:0:
377,245,104098,1,0,0:0:0:0:
191,166,104256,1,0,0:0:0:0:
351,83,104414,1,0,0:0:0:0:
308,294,104572,1,0,0:0:0:0:
206,85,104730,1,0,0:0:0:0:
142,280,104887,1,0,0:0:0:0:
273,166,105045,5,0,0:0:0:0:
102,154,105203,1,0,0:0:0:0:
215,240,105361,1,0,0:0:0:0:
33,248,105519,1,0,0:0:0:0:
206,85,105677,1,0,0:0:0:0:
201,328,105835,1,0,0:0:0:0:
21,154,105993,1,0,0:0:0:0:
43,352,106151,1,0,0:0:0:0:
274,176,106308,6,0,P|349:153|500:204,1,203.999993774414
316,281,106782,1,0,0:0:0:0:
279,86,106940,6,0,P|204:63|53:114,1,203.999993774414
274,176,107414,2,0,P|220:141|86:189,1,203.999993774414
131,332,107887,1,0,0:0:0:0:
84,90,108045,2,0,P|181:62|279:86,1,203.999993774414
279,86,108440,1,0,0:0:0:0:
279,86,108519,1,0,0:0:0:0:
187,239,108677,1,0,0:0:0:0:
441,155,108835,5,0,0:0:0:0:
333,273,108993,1,0,0:0:0:0:
356,126,109151,1,0,0:0:0:0:
208,165,109308,1,0,0:0:0:0:
396,214,109465,1,0,0:0:0:0:
210,318,109623,1,0,0:0:0:0:
356,126,109781,1,0,0:0:0:0:
418,342,109939,1,0,0:0:0:0:
208,165,110098,5,0,0:0:0:0:
168,175,110177,1,0,0:0:0:0:
138,203,110256,1,0,0:0:0:0:
126,242,110335,1,0,0:0:0:0:
132,282,110414,2,0,L|165:348,1,50.9999984436036
328,270,110572,2,0,L|361:336,1,50.9999984436036
443,131,110730,5,0,0:0:0:0:
439,90,110808,1,0,0:0:0:0:
412,59,110887,1,0,0:0:0:0:
373,45,110966,1,0,0:0:0:0:
332,45,111045,1,0,0:0:0:0:
294,60,111124,1,0,0:0:0:0:
257,78,111203,1,0,0:0:0:0:
216,79,111282,1,0,0:0:0:0:
176,68,111361,6,0,P|118:125|216:127,1,203.999993774414
356,126,111835,1,0,0:0:0:0:
52,75,111993,2,0,P|46:139|69:193,1,101.999996887207
209,290,112308,1,0,0:0:0:0:
356,126,112466,6,0,B|376:152|376:152|375:293|375:293|342:330,1,203.999993774414
208,202,112940,1,0,0:0:0:0:
427,92,113098,1,0,0:0:0:0:
288,248,113256,1,0,0:0:0:0:
210,69,113414,1,0,0:0:0:0:
210,69,113493,1,0,0:0:0:0:
210,69,113572,1,0,0:0:0:0:
138,344,113730,1,0,0:0:0:0:
359,201,113887,6,0,P|369:279|339:319,1,101.999996887207
134,151,114203,1,0,0:0:0:0:
319,80,114361,1,0,0:0:0:0:
191,248,114519,1,0,0:0:0:0:
110,57,114677,1,0,0:0:0:0:
55,257,114835,1,0,0:0:0:0:
231,115,114993,1,0,0:0:0:0:
359,297,115151,6,0,P|300:311|247:290,1,101.999996887207
134,151,115466,1,0,0:0:0:0:
66,348,115624,1,0,0:0:0:0:
309,219,115782,1,0,0:0:0:0:
41,182,115940,1,0,0:0:0:0:
321,146,116098,1,0,0:0:0:0:
78,246,116256,1,0,0:0:0:0:
359,297,116414,6,0,B|387:274|387:274|403:98,1,203.999993774414
115,107,118466,5,0,0:0:0:0:
115,107,118545,1,0,0:0:0:0:
115,107,118624,1,0,0:0:0:0:
318,264,118782,1,0,0:0:0:0:
64,326,118940,6,0,P|51:257|93:197,1,101.999996887207
326,155,119256,1,0,0:0:0:0:
126,276,119414,1,0,0:0:0:0:
389,315,119572,1,0,0:0:0:0:
202,133,119730,1,0,0:0:0:0:
213,373,119887,1,0,0:0:0:0:
404,211,120045,1,0,0:0:0:0:
148,61,120203,5,0,0:0:0:0:
116,101,120282,1,0,0:0:0:0:
112,151,120361,1,0,0:0:0:0:
131,198,120440,1,0,0:0:0:0:
174,224,120519,2,0,L|243:237,1,50.9999984436036
275,145,120677,2,0,L|344:158,1,50.9999984436036
39,102,120835,5,0,0:0:0:0:
37,153,120914,1,0,0:0:0:0:
35,204,120993,1,0,0:0:0:0:
33,255,121072,1,0,0:0:0:0:
32,306,121151,2,0,L|31:373,1,50.9999984436036
131,198,121308,2,0,L|132:131,1,50.9999984436036
216,318,121466,6,0,P|290:343|427:306,1,203.999993774414
465,230,121940,1,0,0:0:0:0:
226,129,122098,6,0,P|190:201|236:340,1,203.999993774414
298,377,122572,1,0,0:0:0:0:
393,184,122730,6,0,B|390:29|390:29|370:79,1,203.999993774414
310,150,123203,1,0,0:0:0:0:
310,150,123282,1,0,0:0:0:0:
310,150,123361,2,0,L|314:263,1,101.999996887207
468,331,123677,2,0,L|464:218,1,101.999996887207
287,66,123993,5,0,0:0:0:0:
192,222,124151,1,0,0:0:0:0:
392,264,124308,1,0,0:0:0:0:
136,129,124466,1,0,0:0:0:0:
217,331,124624,1,0,0:0:0:0:
287,66,124782,1,0,0:0:0:0:
380,341,124940,1,0,0:0:0:0:
77,79,125098,6,0,P|61:148|84:189,1,101.999996887207
434,78,125414,2,0,P|452:125|439:174,1,101.999996887207
256,268,125730,5,0,0:0:0:0:
256,268,125808,1,0,0:0:0:0:
256,268,125887,1,0,0:0:0:0:
135,284,126045,5,0,0:0:0:0:
164,325,126124,1,0,0:0:0:0:
209,347,126203,1,0,0:0:0:0:
259,354,126282,1,0,0:0:0:0:
308,345,126361,1,0,0:0:0:0:
351,319,126440,1,0,0:0:0:0:
380,277,126519,6,0,B|391:123|391:123|362:179,1,203.999993774414
425,351,126993,1,0,0:0:0:0:
306,205,127151,2,0,P|240:190|187:219,1,101.999996887207
135,284,127466,1,0,0:0:0:0:
380,277,127624,1,0,0:0:0:0:
156,88,127782,6,0,B|131:119|131:119|135:286,1,203.999993774414
258,109,128256,1,0,0:0:0:0:
61,146,128414,2,0,L|64:290,1,101.999996887207
380,277,128730,2,0,L|383:133,1,101.999996887207
181,25,129045,1,0,0:0:0:0:
171,345,129361,5,0,0:0:0:0:
382,175,129519,1,0,0:0:0:0:
63,247,129677,1,0,0:0:0:0:
461,238,129835,1,0,0:0:0:0:
37,169,129993,1,0,0:0:0:0:
377,359,130151,2,0,P|389:298|366:245,1,101.999996887207
174,110,130466,5,0,0:0:0:0:
174,110,130545,1,0,0:0:0:0:
174,110,130624,2,0,L|174:188,1,50.9999984436036
281,128,130782,2,0,L|307:201,1,50.9999984436036
408,104,130940,5,0,0:0:0:0:
443,140,131019,1,0,0:0:0:0:
456,189,131098,1,0,0:0:0:0:
447,239,131177,1,0,0:0:0:0:
412,276,131256,1,0,0:0:0:0:
362,287,131335,1,0,0:0:0:0:
313,272,131414,1,0,0:0:0:0:
263,258,131493,1,0,0:0:0:0:
212,263,131572,6,0,P|162:274|113:263,1,101.999996887207
281,29,131887,2,0,P|292:88|271:143,1,101.999996887207
183,76,132124,1,0,0:0:0:0:
183,76,132203,2,0,P|121:62|66:83,1,101.999996887207
21,252,132519,5,0,0:0:0:0:
363,197,132677,1,0,0:0:0:0:
128,155,132835,1,0,0:0:0:0:
319,315,132993,1,0,0:0:0:0:
432,103,133151,1,0,0:0:0:0:
222,234,133308,1,0,0:0:0:0:
483,251,133466,6,0,P|498:190|476:137,1,101.999996887207
373,54,133782,2,0,P|312:39|259:61,1,101.999996887207
141,231,134098,5,0,0:0:0:0:
384,285,134256,1,0,0:0:0:0:
217,97,134414,1,0,0:0:0:0:
205,337,134572,1,0,0:0:0:0:
412,205,134730,1,0,0:0:0:0:
138,137,134887,1,0,0:0:0:0:
303,336,135045,1,0,0:0:0:0:
387,107,135203,1,0,0:0:0:0:
70,177,135361,2,0,P|56:256|81:301,1,101.999996887207
295,198,135677,5,0,0:0:0:0:
310,149,135756,1,0,0:0:0:0:
297,99,135835,1,0,0:0:0:0:
258,65,135914,1,0,0:0:0:0:
207,60,135993,2,0,L|86:75,1,101.999996887207
175,271,136308,5,0,0:0:0:0:
226,271,136387,1,0,0:0:0:0:
277,271,136466,1,0,0:0:0:0:
328,271,136545,1,0,0:0:0:0:
383,267,136624,2,0,B|411:237|411:237|424:71,1,203.999993774414
218,146,137098,5,0,0:0:0:0:
457,310,137256,1,0,0:0:0:0:
336,79,137414,1,0,0:0:0:0:
327,353,137572,1,0,0:0:0:0:
491,139,137730,1,0,0:0:0:0:
162,253,137887,6,0,B|196:279|196:279|391:282,1,203.999993774414
218,146,138361,1,0,0:0:0:0:
127,348,138519,1,0,0:0:0:0:
356,158,138677,1,0,0:0:0:0:
46,236,138835,1,0,0:0:0:0:
309,355,138993,1,0,0:0:0:0:
182,60,139151,5,0,0:0:0:0:
139,88,139230,1,0,0:0:0:0:
122,135,139308,1,0,0:0:0:0:
128,185,139387,1,0,0:0:0:0:
161,223,139466,2,0,L|229:260,1,50.9999984436036
354,208,139624,2,0,L|356:130,1,50.9999984436036
483,285,139782,5,0,0:0:0:0:
446,320,139861,1,0,0:0:0:0:
395,328,139940,2,0,L|318:321,1,50.9999984436036
218,146,140098,2,0,L|295:139,1,50.9999984436036
462,45,140256,2,0,L|460:123,1,50.9999984436036
268,301,140414,5,0,0:0:0:0:
227,332,140493,1,0,0:0:0:0:
177,346,140572,1,0,0:0:0:0:
125,344,140651,1,0,0:0:0:0:
79,321,140730,1,0,0:0:0:0:
46,282,140808,1,0,0:0:0:0:
36,231,140887,1,0,0:0:0:0:
59,185,140966,1,0,0:0:0:0:
101,156,141045,5,0,0:0:0:0:
152,157,141124,1,0,0:0:0:0:
199,175,141203,1,0,0:0:0:0:
249,180,141282,1,0,0:0:0:0:
298,169,141361,1,0,0:0:0:0:
339,139,141440,1,0,0:0:0:0:
351,89,141519,1,0,0:0:0:0:
334,40,141598,1,0,0:0:0:0:
286,20,141677,6,0,P|188:-3|79:25,1,203.999993774414
131,245,142151,1,0,0:0:0:0:
257,90,142308,1,0,0:0:0:0:
26,69,142466,1,0,0:0:0:0:
80,315,142624,1,0,0:0:0:0:
330,152,142782,1,0,0:0:0:0:
55,140,142940,6,0,P|39:189|62:254,1,101.999996887207
229,288,143256,1,0,0:0:0:0:
273,262,143335,1,0,0:0:0:0:
323,253,143414,1,0,0:0:0:0:
373,259,143493,1,0,0:0:0:0:
419,279,143572,2,0,P|432:220|406:147,1,101.999996887207
185,36,143887,2,0,P|172:95|198:168,1,101.999996887207
328,352,144203,5,0,0:0:0:0:
401,96,144361,1,0,0:0:0:0:
229,288,144519,1,0,0:0:0:0:
482,118,144677,1,0,0:0:0:0:
424,360,144835,1,0,0:0:0:0:
311,111,144993,1,0,0:0:0:0:
189,360,145151,1,0,0:0:0:0:
189,360,145230,1,0,0:0:0:0:
189,360,145308,2,0,L|257:364,1,50.9999984436036
203,167,145466,6,0,P|133:135|0:174,1,203.999993774414
107,291,145940,1,0,0:0:0:0:
228,78,146098,1,0,0:0:0:0:
290,278,146256,1,0,0:0:0:0:
110,59,146414,1,0,0:0:0:0:
356,187,146572,1,0,0:0:0:0:
107,291,146730,6,0,P|97:217|128:169,1,101.999996887207
332,89,147045,1,0,0:0:0:0:
179,241,147203,1,0,0:0:0:0:
179,241,147282,1,0,0:0:0:0:
179,241,147361,1,0,0:0:0:0:
277,32,147519,1,0,0:0:0:0:
256,285,147677,1,0,0:0:0:0:
207,77,147835,1,0,0:0:0:0:
178,326,147993,5,0,0:0:0:0:
215,360,148072,1,0,0:0:0:0:
264,370,148151,1,0,0:0:0:0:
313,356,148230,1,0,0:0:0:0:
341,314,148308,2,0,L|348:244,1,50.9999984436036
261,194,148466,2,0,L|254:124,1,50.9999984436036
345,52,148624,5,0,0:0:0:0:
378,13,148703,1,0,0:0:0:0:
428,4,148782,1,0,0:0:0:0:
474,24,148861,1,0,0:0:0:0:
496,70,148940,1,0,0:0:0:0:
485,120,149019,1,0,0:0:0:0:
444,150,149098,1,0,0:0:0:0:
393,144,149177,1,0,0:0:0:0:
346,123,149256,6,0,P|269:102|137:133,1,203.999993774414
101,299,149730,1,0,0:0:0:0:
101,299,149808,1,0,0:0:0:0:
101,299,149887,1,0,0:0:0:0:
346,263,150045,1,0,0:0:0:0:
78,209,150203,1,0,0:0:0:0:
297,341,150361,1,0,0:0:0:0:
299,108,150519,6,0,P|235:96|179:123,1,101.999996887207
384,338,150835,1,0,0:0:0:0:
152,44,150993,2,0,P|121:103|224:183,1,203.999993774414
396,143,151466,5,0,0:0:0:0:
434,176,151545,1,0,0:0:0:0:
453,223,151624,1,0,0:0:0:0:
454,274,151703,1,0,0:0:0:0:
440,323,151782,2,0,P|362:333|309:305,1,101.999996887207
206,186,152098,1,0,0:0:0:0:
161,357,152256,1,0,0:0:0:0:
298,142,152414,6,0,P|352:130|414:156,1,101.999996887207
252,340,152730,1,0,0:0:0:0:
220,85,152887,1,0,0:0:0:0:
87,256,153045,2,0,P|135:269|199:247,1,101.999996887207
395,142,153361,1,0,0:0:0:0:
140,124,153519,5,0,0:0:0:0:
140,124,153598,1,0,0:0:0:0:
140,124,153677,2,0,L|135:211,1,50.9999984436036
257,260,153835,2,0,L|262:173,1,50.9999984436036
381,56,153993,1,0,0:0:0:0:
431,63,154072,1,0,0:0:0:0:
470,94,154151,1,0,0:0:0:0:
481,143,154230,1,0,0:0:0:0:
467,191,154308,6,0,B|439:207|439:207|336:207,1,101.999996887207
223,130,154624,1,0,0:0:0:0:
322,310,154782,1,0,0:0:0:0:
140,276,154940,2,0,L|136:150,1,101.999996887207
327,157,155256,5,0,0:0:0:0:
325,208,155335,1,0,0:0:0:0:
323,259,155414,2,0,L|321:355,1,50.9999984436036
223,130,155572,1,0,0:0:0:0:
426,79,155730,1,0,0:0:0:0:
246,248,155887,1,0,0:0:0:0:
176,57,156045,1,0,0:0:0:0:
397,202,156203,2,0,P|412:274|379:316,1,101.999996887207
127,183,156519,5,0,0:0:0:0:
177,176,156598,1,0,0:0:0:0:
227,169,156677,1,0,0:0:0:0:
277,163,156756,1,0,0:0:0:0:
327,157,156835,1,0,0:0:0:0:
174,262,156993,1,0,0:0:0:0:
460,202,157151,1,0,0:0:0:0:
132,81,157308,6,0,L|125:212,1,101.999996887207
321,258,157624,2,0,L|328:127,1,101.999996887207
53,129,157940,6,0,B|45:282|45:282|72:237,1,203.999993774414
126,182,158335,1,0,0:0:0:0:
126,182,158414,2,0,L|188:180,1,50.9999984436036
326,156,158572,2,0,L|388:154,1,50.9999984436036
253,264,158730,5,0,0:0:0:0:
251,213,158808,1,0,0:0:0:0:
249,161,158887,1,0,0:0:0:0:
248,109,158966,1,0,0:0:0:0:
247,57,159045,2,0,P|172:47|131:73,1,101.999996887207
173,289,159361,6,0,P|190:320|332:291,1,203.999993774414
329,86,159835,1,0,0:0:0:0:
329,297,159993,5,0,0:0:0:0:
296,336,160071,1,0,0:0:0:0:
248,348,160150,1,0,0:0:0:0:
201,330,160229,1,0,0:0:0:0:
172,288,160308,2,0,L|165:182,1,101.999996887207
173,95,160624,6,0,P|190:64|332:93,1,203.999993774414
329,297,161098,1,0,0:0:0:0:
329,86,161256,5,0,0:0:0:0:
296,47,161334,1,0,0:0:0:0:
248,35,161413,1,0,0:0:0:0:
201,53,161492,1,0,0:0:0:0:
172,95,161572,2,0,L|164:196,1,101.999996887207
329,297,161887,6,0,L|330:91,1,203.999993774414
252,264,162361,1,0,0:0:0:0:
408,261,162519,1,0,0:0:0:0:
407,209,162598,1,0,0:0:0:0:
406,157,162677,1,0,0:0:0:0:
405,105,162756,1,0,0:0:0:0:
404,53,162835,2,0,P|349:12|286:26,1,101.999996887207
164,196,163151,5,0,0:0:0:0:
329,93,163308,1,0,0:0:0:0:
108,80,163466,1,0,0:0:0:0:
264,263,163624,1,0,0:0:0:0:
257,52,163782,1,0,0:0:0:0:
189,316,163940,1,0,0:0:0:0:
329,93,164098,1,0,0:0:0:0:
444,309,164256,1,0,0:0:0:0:
189,316,164414,2,0,P|174:255|204:199,1,101.999996887207
396,171,164730,5,0,0:0:0:0:
396,171,164808,1,0,0:0:0:0:
396,171,164887,2,0,L|390:232,1,50.9999984436036
246,137,165045,1,0,0:0:0:0:
198,118,165124,1,0,0:0:0:0:
147,124,165203,1,0,0:0:0:0:
107,155,165282,1,0,0:0:0:0:
86,201,165361,2,0,L|94:268,1,50.9999984436036
310,204,165519,5,0,0:0:0:0:
322,154,165598,1,0,0:0:0:0:
334,104,165677,2,0,L|356:22,1,50.9999984436036
186,219,165835,2,0,L|208:301,1,50.9999984436036
414,323,165993,5,0,0:0:0:0:
443,281,166072,1,0,0:0:0:0:
455,231,166151,1,0,0:0:0:0:
448,180,166230,1,0,0:0:0:0:
423,136,166308,2,0,P|413:73|434:26,1,101.999996887207
361,233,166624,2,0,P|297:246|247:221,1,101.999996887207
64,111,166940,5,0,0:0:0:0:
66,135,167019,1,0,0:0:0:0:
68,160,167098,2,0,L|74:222,1,50.9999984436036
88,354,167256,1,0,0:0:0:0:
152,78,167414,5,0,0:0:0:0:
164,116,167493,1,0,0:0:0:0:
176,154,167572,2,0,L|206:235,1,50.9999984436036
247,359,167730,1,0,0:0:0:0:
248,52,167887,5,0,0:0:0:0:
280,90,167966,1,0,0:0:0:0:
312,129,168045,2,0,L|348:171,1,50.9999984436036
480,291,168203,1,0,0:0:0:0:
451,333,168282,1,0,0:0:0:0:
402,348,168361,1,0,0:0:0:0:
352,336,168440,1,0,0:0:0:0:
316,299,168519,2,0,L|294:229,1,50.9999984436036
83,111,168677,2,0,L|61:181,1,50.9999984436036
29,251,168835,5,0,0:0:0:0:
58,304,168914,1,0,0:0:0:0:
113,329,168993,1,0,0:0:0:0:
174,333,169072,1,0,0:0:0:0:
232,315,169151,1,0,0:0:0:0:
277,274,169230,1,0,0:0:0:0:
325,237,169308,1,0,0:0:0:0:
385,225,169387,1,0,0:0:0:0:
445,235,169466,6,0,P|483:285|378:286,1,203.999993774414
256,145,169940,1,0,0:0:0:0:
67,235,170098,2,0,P|29:285|134:286,1,203.999993774414
115,81,170572,1,0,0:0:0:0:
67,235,170730,2,0,P|136:245|188:215,1,101.999996887207
318,97,171045,1,0,0:0:0:0:
400,222,171203,5,0,0:0:0:0:
400,222,171282,1,0,0:0:0:0:
400,222,171361,1,0,0:0:0:0:
203,161,171519,1,0,0:0:0:0:
441,139,171677,1,0,0:0:0:0:
261,233,171835,1,0,0:0:0:0:
394,61,171993,6,0,P|456:49|498:67,1,101.999996887207
310,305,172308,2,0,P|248:317|206:299,1,101.999996887207
117,160,172624,1,0,0:0:0:0:
318,97,172782,1,0,0:0:0:0:
119,268,172940,1,0,0:0:0:0:
441,139,173098,6,0,P|452:199|434:246,1,101.999996887207
119,268,173414,2,0,P|108:328|126:375,1,101.999996887207
319,200,173730,1,0,0:0:0:0:
318,149,173808,1,0,0:0:0:0:
318,97,173887,1,0,0:0:0:0:
218,155,174045,5,0,0:0:0:0:
268,152,174124,1,0,0:0:0:0:
318,149,174203,1,0,0:0:0:0:
368,146,174282,1,0,0:0:0:0:
418,143,174361,2,0,L|487:140,1,50.9999984436036
218,231,174519,6,0,L|75:237,1,101.999996887207
19,91,174835,1,0,0:0:0:0:
237,74,174993,1,0,0:0:0:0:
74,321,175151,2,0,P|34:275|84:146,1,203.999993774414
174,321,175624,1,0,0:0:0:0:
279,152,175782,2,0,P|370:122|487:172,1,203.999993774414
491,267,176256,5,0,0:0:0:0:
491,267,176335,1,0,0:0:0:0:
491,267,176414,1,0,0:0:0:0:
274,221,176572,1,0,0:0:0:0:
376,325,176730,1,0,0:0:0:0:
182,219,176887,1,0,0:0:0:0:
366,85,177045,1,0,0:0:0:0:
223,355,177203,1,0,0:0:0:0:
98,87,177361,1,0,0:0:0:0:
388,223,177519,6,0,L|373:340,1,101.999996887207
85,188,177835,2,0,L|100:71,1,101.999996887207
357,147,178151,2,0,P|254:179|144:128,1,203.999993774414
222,273,178624,5,0,0:0:0:0:
247,317,178703,1,0,0:0:0:0:
294,334,178782,1,0,0:0:0:0:
344,330,178861,1,0,0:0:0:0:
387,304,178940,2,0,L|435:244,1,50.9999984436036
222,273,179098,2,0,L|174:333,1,50.9999984436036
326,214,179256,5,0,0:0:0:0:
334,179,179335,1,0,0:0:0:0:
341,144,179414,1,0,0:0:0:0:
347,108,179493,1,0,0:0:0:0:
355,73,179572,1,0,0:0:0:0:
154,132,187151,6,0,P|218:140|354:128,1,170
151,204,187782,6,0,P|215:212|351:200,1,170
138,274,188414,5,0,0:0:0:0:
188,282,188493,1,0,0:0:0:0:
238,285,188572,1,0,0:0:0:0:
289,284,188651,1,0,0:0:0:0:
339,277,188730,2,0,L|410:253,1,50.9999984436036
202,148,188887,2,0,L|131:124,1,50.9999984436036
379,55,189045,5,0,0:0:0:0:
379,106,189124,1,0,0:0:0:0:
359,153,189203,1,0,0:0:0:0:
323,189,189282,1,0,0:0:0:0:
275,207,189361,1,0,0:0:0:0:
224,216,189440,1,0,0:0:0:0:
173,210,189519,1,0,0:0:0:0:
122,201,189598,1,0,0:0:0:0:
73,216,189677,6,0,P|49:289|163:362,1,203.999993774414
284,108,190151,1,0,0:0:0:0:
27,138,190308,1,0,0:0:0:0:
219,345,190466,1,0,0:0:0:0:
155,122,190624,1,0,0:0:0:0:
79,339,190782,1,0,0:0:0:0:
260,207,190940,2,0,P|317:197|367:213,1,101.999996887207
153,276,191256,5,0,0:0:0:0:
154,225,191335,1,0,0:0:0:0:
155,173,191414,2,0,L|155:98,1,50.9999984436036
157,33,191572,1,0,0:0:0:0:
310,275,191730,1,0,0:0:0:0:
56,187,191887,1,0,0:0:0:0:
325,110,192045,1,0,0:0:0:0:
124,307,192203,5,0,0:0:0:0:
232,99,192361,1,0,0:0:0:0:
208,321,192519,1,0,0:0:0:0:
138,84,192677,1,0,0:0:0:0:
41,312,192835,1,0,0:0:0:0:
232,99,192993,1,0,0:0:0:0:
345,348,193151,1,0,0:0:0:0:
138,177,193308,1,0,0:0:0:0:
409,71,193466,6,0,P|427:126|389:195,1,101.999996887207
216,325,193782,1,0,0:0:0:0:
165,315,193861,1,0,0:0:0:0:
131,276,193940,1,0,0:0:0:0:
121,225,194019,1,0,0:0:0:0:
138,177,194098,2,0,P|204:163|261:209,1,101.999996887207
304,279,194414,2,0,P|351:293|399:277,1,101.999996887207
219,74,194730,6,0,B|200:221|200:221|247:156,1,203.999993774414
294,78,195203,2,0,L|283:167,1,50.9999984436036
216,325,195361,1,0,0:0:0:0:
122,97,195519,1,0,0:0:0:0:
335,287,195677,1,0,0:0:0:0:
70,208,195835,1,0,0:0:0:0:
393,200,195993,5,0,0:0:0:0:
422,158,196072,1,0,0:0:0:0:
419,107,196151,1,0,0:0:0:0:
384,69,196230,1,0,0:0:0:0:
334,59,196308,2,0,L|272:76,1,50.9999984436036
157,201,196466,5,0,0:0:0:0:
162,251,196545,1,0,0:0:0:0:
168,301,196624,2,0,L|174:355,1,50.9999984436036
349,195,196782,2,0,L|343:141,1,50.9999984436036
142,113,196940,5,0,0:0:0:0:
95,133,197019,1,0,0:0:0:0:
72,178,197098,1,0,0:0:0:0:
74,228,197177,1,0,0:0:0:0:
103,269,197256,2,0,P|196:299|315:247,1,203.999993774414
142,113,197730,2,0,P|127:155|149:227,1,101.999996887207
366,216,198045,2,0,P|381:258|359:330,1,101.999996887207
237,162,198361,2,0,P|222:120|244:48,1,101.999996887207
454,102,198677,5,0,0:0:0:0:
457,152,198756,1,0,0:0:0:0:
460,202,198835,2,0,L|465:286,1,50.9999984436036
237,162,198993,1,0,0:0:0:0:
187,148,199072,1,0,0:0:0:0:
136,152,199151,1,0,0:0:0:0:
91,176,199230,1,0,0:0:0:0:
62,217,199308,2,0,L|40:278,1,50.9999984436036
366,216,199466,2,0,L|344:155,1,50.9999984436036
167,233,199624,5,0,0:0:0:0:
173,283,199703,1,0,0:0:0:0:
180,333,199782,2,0,P|245:349|415:322,1,203.999993774414
265,247,200256,1,0,0:0:0:0:
265,247,200335,1,0,0:0:0:0:
265,247,200414,2,0,P|251:188|276:136,1,101.999996887207
432,197,200730,2,0,P|373:211|321:186,1,101.999996887207
147,93,201045,5,0,0:0:0:0:
195,293,201203,1,0,0:0:0:0:
87,148,201361,1,0,0:0:0:0:
296,267,201519,1,0,0:0:0:0:
71,228,201677,1,0,0:0:0:0:
354,132,201835,1,0,0:0:0:0:
90,331,201993,1,0,0:0:0:0:
427,221,202151,1,0,0:0:0:0:
87,29,202308,6,0,P|167:254|264:31,1,611.999981323243
175,124,203414,5,0,0:0:0:0:
175,124,203493,1,0,0:0:0:0:
175,124,203572,1,0,0:0:0:0:
175,338,203730,1,0,0:0:0:0:
337,124,203887,1,0,0:0:0:0:
337,338,204045,1,0,0:0:0:0:
175,124,204203,6,0,L|176:266,1,101.999996887207
337,338,204519,2,0,L|337:236,1,101.999996887207
228,58,204835,6,0,P|163:42|103:76,1,101.999996887207
175,225,205151,1,0,0:0:0:0:
307,48,205308,1,0,0:0:0:0:
110,155,205466,1,0,0:0:0:0:
297,295,205624,1,0,0:0:0:0:
134,51,205782,1,0,0:0:0:0:
61,327,205940,1,0,0:0:0:0:
376,250,206098,6,0,P|388:315|364:365,1,101.999996887207
281,170,206414,1,0,0:0:0:0:
323,141,206493,1,0,0:0:0:0:
373,132,206572,1,0,0:0:0:0:
423,139,206651,1,0,0:0:0:0:
467,163,206730,2,0,L|477:276,1,101.999996887207
281,170,207045,2,0,P|214:158|162:182,1,101.999996887207
61,327,207361,5,0,0:0:0:0:
376,250,207519,1,0,0:0:0:0:
119,117,207677,2,0,P|102:191|145:245,1,101.999996887207
425,364,207993,1,0,0:0:0:0:
130,286,208151,1,0,0:0:0:0:
438,197,208309,2,0,P|455:271|412:325,1,101.999996887207
260,98,208624,5,0,0:0:0:0:
226,288,208782,1,0,0:0:0:0:
413,100,208940,1,0,0:0:0:0:
137,196,209098,1,0,0:0:0:0:
137,196,209177,1,0,0:0:0:0:
137,196,209256,1,0,0:0:0:0:
327,373,209414,1,0,0:0:0:0:
74,256,209572,1,0,0:0:0:0:
376,242,209730,1,0,0:0:0:0:
18,316,209887,6,0,B|-1:274|-1:274|0:113,1,203.999993774414
162,286,210361,1,0,0:0:0:0:
259,90,210519,1,0,0:0:0:0:
74,256,210677,1,0,0:0:0:0:
318,341,210835,1,0,0:0:0:0:
147,112,210993,1,0,0:0:0:0:
115,352,211151,6,0,P|171:365|227:335,1,101.999996887207
328,172,211466,2,0,P|384:159|440:189,1,101.999996887207
255,272,211782,1,0,0:0:0:0:
251,79,211940,1,0,0:0:0:0:
377,275,212098,1,0,0:0:0:0:
143,282,212256,1,0,0:0:0:0:
379,47,212414,5,0,0:0:0:0:
422,73,212493,1,0,0:0:0:0:
452,113,212572,1,0,0:0:0:0:
461,163,212651,1,0,0:0:0:0:
454,213,212730,1,0,0:0:0:0:
424,254,212808,1,0,0:0:0:0:
377,275,212887,2,0,L|312:276,1,50.9999984436036
143,282,213045,5,0,0:0:0:0:
100,256,213124,1,0,0:0:0:0:
70,216,213203,1,0,0:0:0:0:
61,166,213282,1,0,0:0:0:0:
68,116,213361,1,0,0:0:0:0:
98,75,213439,1,0,0:0:0:0:
145,54,213518,2,0,L|210:53,1,50.9999984436036
391,165,213677,5,0,0:0:0:0:
339,165,213756,1,0,0:0:0:0:
287,165,213835,1,0,0:0:0:0:
235,165,213914,1,0,0:0:0:0:
183,165,213993,2,0,L|129:166,1,50.9999984436036
326,275,214151,6,0,L|380:276,1,50.9999984436036
193,281,214308,2,0,L|139:282,1,50.9999984436036
339,165,214466,2,0,L|393:166,1,50.9999984436036
195,53,214624,2,0,L|141:54,1,50.9999984436036
326,53,214782,2,0,L|380:54,1,50.9999984436036
183,165,214940,6,0,B|36:165|36:165|104:200,1,203.999993774414
260,277,215414,1,0,0:0:0:0:
258,100,215572,1,0,0:0:0:0:
148,243,215730,1,0,0:0:0:0:
354,332,215887,1,0,0:0:0:0:
225,182,216045,1,0,0:0:0:0:
95,322,216203,6,0,P|158:337|216:307,1,101.999996887207
312,167,216519,1,0,0:0:0:0:
86,191,216677,1,0,0:0:0:0:
380,221,216835,2,0,P|393:155|357:92,1,101.999996887207
178,125,217151,2,0,P|165:191|201:254,1,101.999996887207
354,332,217466,5,0,0:0:0:0:
244,174,217624,1,0,0:0:0:0:
188,362,217782,1,0,0:0:0:0:
380,221,217940,1,0,0:0:0:0:
86,191,218098,1,0,0:0:0:0:
270,339,218256,1,0,0:0:0:0:
269,101,218414,1,0,0:0:0:0:
106,313,218572,1,0,0:0:0:0:
380,221,218730,6,0,P|444:208|496:239,1,101.999996887207
269,260,219045,1,0,0:0:0:0:
221,278,219124,1,0,0:0:0:0:
170,283,219203,1,0,0:0:0:0:
119,273,219282,1,0,0:0:0:0:
72,252,219361,2,0,B|49:221|49:221|51:129,1,101.999996887207
158,121,219677,2,0,P|224:132|284:95,1,101.999996887207
381,49,219993,6,0,B|406:9|406:9|401:174,1,203.999993774414
383,316,220466,1,0,0:0:0:0:
161,222,220624,2,0,L|157:87,1,101.999996887207
404,64,220940,2,0,L|400:199,1,101.999996887207
240,328,221256,5,0,0:0:0:0:
237,277,221335,1,0,0:0:0:0:
234,226,221414,1,0,0:0:0:0:
231,175,221493,1,0,0:0:0:0:
229,123,221572,2,0,L|227:51,1,50.9999984436036
311,224,221730,5,0,0:0:0:0:
314,275,221809,1,0,0:0:0:0:
317,326,221887,2,0,L|320:382,1,50.9999984436036
380,121,222045,2,0,L|378:49,1,50.9999984436036
154,230,222203,2,0,L|156:345,1,101.999996887207
307,146,222519,6,0,B|302:2|302:2|264:100,1,203.999993774414
154,230,222993,5,0,0:0:0:0:
472,287,223308,5,0,0:0:0:0:
154,74,223624,5,0,0:0:0:0:
360,332,223940,5,0,0:0:0:0:
360,332,224019,1,0,0:0:0:0:
360,332,224098,2,0,L|281:324,1,50.9999984436036
154,230,224256,2,0,L|233:222,1,50.9999984436036
393,103,224414,5,0,0:0:0:0:
394,154,224493,1,0,0:0:0:0:
395,205,224572,2,0,L|397:278,1,50.9999984436036
248,135,224730,1,0,0:0:0:0:
200,116,224808,1,0,0:0:0:0:
149,112,224887,1,0,0:0:0:0:
99,123,224966,1,0,0:0:0:0:
57,153,225045,6,0,B|58:304|58:304|98:233,1,203.999993774414
140,190,225519,1,0,0:0:0:0:
140,190,225598,1,0,0:0:0:0:
140,190,225677,2,0,P|201:200|255:180,1,101.999996887207
328,102,225993,2,0,P|389:92|443:112,1,101.999996887207
482,217,226308,5,0,0:0:0:0:
246,110,226466,1,0,0:0:0:0:
325,338,226624,1,0,0:0:0:0:
459,33,226782,1,0,0:0:0:0:
119,168,226940,1,0,0:0:0:0:
422,327,227098,1,0,0:0:0:0:
249,21,227256,1,0,0:0:0:0:
118,334,227414,1,0,0:0:0:0:
118,334,227493,1,0,0:0:0:0:
118,334,227572,1,0,0:0:0:0:
425,118,228203,6,0,L|417:202,1,50.9999984436036
329,284,228361,2,0,L|321:200,1,50.9999984436036
87,118,228519,2,0,L|95:202,1,50.9999984436036
183,284,228677,2,0,L|191:200,1,50.9999984436036
256,32,228835,5,0,0:0:0:0:
448,352,228993,1,0,0:0:0:0:
64,352,229151,1,0,0:0:0:0:
256,32,229308,1,0,0:0:0:0:
