osu file format v14

[General]
AudioFilename: audio.mp3
AudioLeadIn: 0
PreviewTime: 71103
Countdown: 0
SampleSet: Soft
StackLeniency: 0.4
Mode: 0
LetterboxInBreaks: 0
EpilepsyWarning: 1
WidescreenStoryboard: 1

[Editor]
DistanceSpacing: 0.4
BeatDivisor: 4
GridSize: 16
TimelineZoom: 2.7

[Metadata]
Title:Hyakka wa Gekka ni Chirinuru o
TitleUnicode:百花は月下に散りぬるを
Artist:Hanasakuya
ArtistUnicode:花咲夜
Creator:Fu3ya_
Version:Insane
Source:アイドルマスター ミリオンライブ!
Tags:アイマス ミリマス ミリシタ THE IDOLM@STER MILLION LIVE THE@TER WAVE 06 japanese idol エミリー スチュアート 白石紬 天空橋朋花 郁原ゆう 南早紀 小岩井ことり Emily Stewart Shiraishi Tsumugi Tenkubashi Tenkuubashi Tomoka Kahara Yu Yuu Minami Saki Koiwai Kotori 和 ロック rock 藤本記子 Fujimoto Noriko Nostalgic Orchestra MLTD theater days J-rock Jrock
BeatmapID:2756928
BeatmapSetID:1097046

[Difficulty]
HPDrainRate:5.4
CircleSize:3.7
OverallDifficulty:8
ApproachRate:8.8
SliderMultiplier:1.7
SliderTickRate:1

[Events]
//Background and Video events
0,0,"HanaSakuya.jpg",0,0
//Break Periods
2,59726,63816
2,150063,154154
2,186668,196288
2,251387,261345
//Storyboard Layer 0 (Background)
Sprite,Background,Centre,"sb/CursorFollow.png",0,0 F,0,400,738,0,1 F,0,738,5120,1 S,10,5120,5372,0.5,0.25 P,0,5120,5372,A F,10,5120,5372,1,0 S,0,0,,0.25 C,0,0,,170,207,83 M,0,401,,159,362 M,0,401,422,159,362,163.777,359.6764 M,0,422,443,163.777,359.6764,168.5403,357.3256 M,0,443,464,168.5403,357.3256,173.3613,355.0946 M,0,464,485,173.3613,355.0946,178.1889,352.8801 M,0,485,506,178.1889,352.8801,183.0369,350.7092 M,0,506,527,183.0369,350.7092,187.9404,348.666 M,0,527,548,187.9404,348.666,192.8475,346.6337 M,0,548,569,192.8475,346.6337,197.7735,344.6457 M,0,569,590,197.7735,344.6457,202.7523,342.7934 M,0,590,611,202.7523,342.7934,207.732,340.9461 M,0,611,632,207.732,340.9461,212.7245,339.1299 M,0,632,653,212.7245,339.1299,217.7551,337.4225 P,0,0,5794,A M,0,653,738,217.7551,337.4225,289,370 M,0,738,759,289,370,287.9581,375.2093 M,0,759,780,287.9581,375.2093,286.9163,380.4187 M,0,780,801,286.9163,380.4187,285.8744,385.628 M,0,801,822,285.8744,385.628,284.8325,390.8373 M,0,822,843,284.8325,390.8373,285.8744,385.628 M,0,843,864,285.8744,385.628,286.9163,380.4187 M,0,864,885,286.9163,380.4187,287.9581,375.2093 M,0,885,906,287.9581,375.2093,289,370 M,0,906,1075,289,370,365,308 M,0,1075,1096,365,308,369.9629,309.8945 M,0,1096,1117,369.9629,309.8945,374.9372,311.7582 M,0,1117,1138,374.9372,311.7582,379.8665,313.7386 M,0,1138,1159,379.8665,313.7386,384.7927,315.7249 M,0,1159,1180,384.7927,315.7249,389.7046,317.748 M,0,1180,1201,389.7046,317.748,394.5623,319.8981 M,0,1201,1222,394.5623,319.8981,399.422,322.0422 M,0,1222,1243,399.422,322.0422,404.2663,324.2227 M,0,1243,1264,404.2663,324.2227,409.0464,326.54 M,0,1264,1285,409.0464,326.54,413.8347,328.8396 M,0,1285,1306,413.8347,328.8396,418.6065,331.1751 M,0,1306,1327,418.6065,331.1751,423.3249,333.6161 M,0,1327,1348,423.3249,333.6161 M,0,1327,1412,423.3249,333.6161,493,374 M,0,1412,1433,493,374,494.0384,368.7905 M,0,1433,1454,494.0384,368.7905,495.0104,363.5682 M,0,1454,1475,495.0104,363.5682,496.1734,358.3851 M,0,1475,1496,496.1734,358.3851,497.3093,353.1969 M,0,1496,1517,497.3093,353.1969,498.5963,348.0432 M,0,1517,1538,498.5963,348.0432,499.8949,342.8939 M,0,1538,1559,499.8949,342.8939,501.2326,337.7529 M,0,1559,1580,501.2326,337.7529,502.7653,332.6668 M,0,1580,1601,502.7653,332.6668,504.264,327.5714 M,0,1601,1622,504.264,327.5714,505.9182,322.5236 M,0,1622,1643,505.9182,322.5236,507.5765,317.4785 M,0,1643,1664,507.5765,317.4785,509.2617,312.44 M,0,1664,1685,509.2617,312.44 M,0,1664,1749,509.2617,312.44,557,248 M,0,1749,1770,557,248,555.7372,242.8398 M,0,1770,1791,555.7372,242.8398,554.4916,237.6755 M,0,1791,1812,554.4916,237.6755,553.1902,232.5249 M,0,1812,1833,553.1902,232.5249,551.892,227.3736 M,0,1833,1854,551.892,227.3736,550.5795,222.2258 M,0,1854,1875,550.5795,222.2258,549.2012,217.0953 M,0,1875,1896,549.2012,217.0953,547.8362,211.9612 M,0,1896,1917,547.8362,211.9612,546.4194,206.8412 M,0,1917,1938,546.4194,206.8412,545.002,201.7214 M,0,1938,1959,545.002,201.7214,543.5704,196.6055 M,0,1959,1980,543.5704,196.6055,542.0773,191.5072 M,0,1980,2001,542.0773,191.5072,540.6044,186.403 M,0,2001,2022,540.6044,186.403 M,0,2001,2086,540.6044,186.403,475,140 M,0,2086,2107,475,140,469.9676,138.2979 M,0,2107,2128,469.9676,138.2979,464.9352,136.5957 M,0,2128,2149,464.9352,136.5957,459.9027,134.8936 M,0,2149,2170,459.9027,134.8936,454.8703,133.1914 M,0,2170,2191,454.8703,133.1914,449.8379,131.4893 M,0,2191,2212,449.8379,131.4893,444.8054,129.7871 M,0,2212,2233,444.8054,129.7871,439.773,128.085 M,0,2233,2254,439.773,128.085,434.7406,126.3828 M,0,2254,2275,434.7406,126.3828,429.7081,124.6807 M,0,2275,2296,429.7081,124.6807,424.6757,122.9785 M,0,2296,2317,424.6757,122.9785,419.6432,121.2764 M,0,2317,2338,419.6432,121.2764,414.6108,119.5742 M,0,2338,2359,414.6108,119.5742 M,0,2338,2423,414.6108,119.5742,348,187 M,0,2423,2444,348,187,345.9806,187.6615 M,0,2444,2465,345.9806,187.6615,343.9612,188.3231 M,0,2465,2486,343.9612,188.3231,341.9418,188.9846 M,0,2486,2507,341.9418,188.9846,339.9224,189.6461 M,0,2507,2528,339.9224,189.6461,337.903,190.3076 M,0,2528,2549,337.903,190.3076,335.8835,190.9692 M,0,2549,2570,335.8835,190.9692,333.8642,191.6307 M,0,2570,2591,333.8642,191.6307,331.8448,192.2922 M,0,2591,2612,331.8448,192.2922,329.8253,192.9538 M,0,2612,2633,329.8253,192.9538,327.8059,193.6153 M,0,2633,2654,327.8059,193.6153,325.7865,194.2768 M,0,2654,2675,325.7865,194.2768,323.7671,194.9384 M,0,2675,2696,323.7671,194.9384,321.7477,195.5999 M,0,2696,2717,321.7477,195.5999,319.7283,196.2614 M,0,2717,2739,319.7283,196.2614,317.7089,196.9229 M,0,2739,2760,317.7089,196.9229,315.6895,197.5845 M,0,2760,2781,315.6895,197.5845,313.6701,198.246 M,0,2781,2802,313.6701,198.246,311.6507,198.9075 M,0,2802,2823,311.6507,198.9075,309.6313,199.5691 M,0,2823,2844,309.6313,199.5691,307.6119,200.2306 M,0,2844,2865,307.6119,200.2306,305.5925,200.8921 M,0,2865,2886,305.5925,200.8921,303.5731,201.5536 M,0,2886,2907,303.5731,201.5536,301.5536,202.2152 M,0,2907,2928,301.5536,202.2152,299.5342,202.8767 M,0,2928,2949,299.5342,202.8767,297.5148,203.5382 M,0,2949,2970,297.5148,203.5382,295.4954,204.1998 M,0,2970,2991,295.4954,204.1998,293.476,204.8613 M,0,2991,3012,293.476,204.8613,291.4566,205.5228 M,0,3012,3033,291.4566,205.5228 M,0,3012,3097,291.4566,205.5228,291,205 M,0,3097,3118,291,205,289.2402,199.9875 M,0,3118,3139,289.2402,199.9875,287.4709,194.9783 M,0,3139,3160,287.4709,194.9783,285.743,189.9547 M,0,3160,3181,285.743,189.9547,284.0206,184.9293 M,0,3181,3202,284.0206,184.9293,282.3132,179.8987 M,0,3202,3223,282.3132,179.8987,280.6494,174.8536 M,0,3223,3244,280.6494,174.8536,278.9891,169.8073 M,0,3244,3265,278.9891,169.8073,277.3438,164.7561 M,0,3265,3286,277.3438,164.7561 M,0,3265,3350,277.3438,164.7561,206,133 M,0,3350,3371,206,133,204.245,138.0143 M,0,3371,3392,204.245,138.0143,202.49,143.0285 M,0,3392,3413,202.49,143.0285,200.735,148.0427 M,0,3413,3434,200.735,148.0427,198.9801,153.057 M,0,3434,3455,198.9801,153.057,197.2251,158.0712 M,0,3455,3476,197.2251,158.0712,195.4701,163.0855 M,0,3476,3497,195.4701,163.0855,193.7151,168.0997 M,0,3497,3518,193.7151,168.0997,192,173 M,0,3518,3539,192,173 M,0,3518,3603,192,173,129,227 M,0,3603,3624,129,227,129.6017,229.0379 M,0,3624,3645,129.6017,229.0379,130.2034,231.0758 M,0,3645,3666,130.2034,231.0758,130.8051,233.1137 M,0,3666,3687,130.8051,233.1137,131.3353,235.1728 M,0,3687,3708,131.3353,235.1728,131.9738,237.1994 M,0,3708,3729,131.9738,237.1994,132.6123,239.2261 M,0,3729,3750,132.6123,239.2261,133.2507,241.2528 M,0,3750,3771,133.2507,241.2528,133.8196,243.3014 M,0,3771,3792,133.8196,243.3014,134.4946,245.3163 M,0,3792,3813,134.4946,245.3163,135.1696,247.3311 M,0,3813,3834,135.1696,247.3311,135.8446,249.3459 M,0,3834,3855,135.8446,249.3459,136.4519,251.3834 M,0,3855,3876,136.4519,251.3834,137.1632,253.3856 M,0,3876,3897,137.1632,253.3856,137.8746,255.3879 M,0,3897,3919,137.8746,255.3879,138.5859,257.3902 M,0,3919,3940,138.5859,257.3902,139.2285,259.4169 M,0,3940,3961,139.2285,259.4169,139.9579,261.4128 M,0,3961,3982,139.9579,261.4128,140.6874,263.4086 M,0,3982,4003,140.6874,263.4086,141.4168,265.4044 M,0,4003,4024,141.4168,265.4044,142,267 M,0,4024,4045,142,267 M,0,4024,4108,142,267 M,0,4108,4129,142,267,147.1289,268.3841 M,0,4129,4150,147.1289,268.3841,152.2661,269.737 M,0,4150,4171,152.2661,269.737,157.3779,271.183 M,0,4171,4192,157.3779,271.183,162.4924,272.6184 M,0,4192,4213,162.4924,272.6184,167.5863,274.126 M,0,4213,4234,167.5863,274.126,172.6769,275.6436 M,0,4234,4255,172.6769,275.6436,177.7617,277.1816 M,0,4255,4276,177.7617,277.1816,182.8178,278.812 M,0,4276,4297,182.8178,278.812,187.877,280.4316 M,0,4297,4318,187.877,280.4316,192.9129,282.1229 M,0,4318,4339,192.9129,282.1229,197.9452,283.8238 M,0,4339,4360,197.9452,283.8238,202.971,285.545 M,0,4360,4445,202.971,285.545,269,337 M,0,4445,4466,269,337,274.101,335.5161 M,0,4466,4487,274.101,335.5161,279.2021,334.0321 M,0,4487,4508,279.2021,334.0321,284.3031,332.5482 M,0,4508,4529,284.3031,332.5482,289.4041,331.0642 M,0,4529,4550,289.4041,331.0642,294.5052,329.5803 M,0,4550,4571,294.5052,329.5803,299.6062,328.0964 M,0,4571,4592,299.6062,328.0964,304.7073,326.6124 M,0,4592,4613,304.7073,326.6124,309.8083,325.1285 M,0,4613,4698,309.8083,325.1285,386,301 M,0,4698,4719,386,301,391.101,299.5161 M,0,4719,4740,391.101,299.5161,396.2021,298.0321 M,0,4740,4761,396.2021,298.0321,401.3031,296.5482 M,0,4761,4782,401.3031,296.5482,406.4041,295.0642 M,0,4782,4803,406.4041,295.0642,411.5052,293.5803 M,0,4803,4824,411.5052,293.5803,416.6062,292.0964 M,0,4824,4845,416.6062,292.0964,421.7073,290.6124 M,0,4845,4866,421.7073,290.6124,426.8083,289.1285 M,0,4866,4951,426.8083,289.1285,501,265 M,0,4951,5120,501,265,297,420 M,0,5120,5141,297,420,283.5909,423.1292 M,0,5141,5162,283.5909,423.1292,269.9139,424.5308 M,0,5162,5183,269.9139,424.5308,256.1583,423.8155 M,0,5183,5204,256.1583,423.8155,242.7868,420.5435 M,0,5204,5225,242.7868,420.5435,230.0026,415.5078 M,0,5225,5246,230.0026,415.5078,218.1262,408.5608 M,0,5246,5267,218.1262,408.5608,207.4327,399.8531 M,0,5267,5288,207.4327,399.8531,198.6434,389.2545 M,0,5288,5309,198.6434,389.2545,191.2923,377.6376 M,0,5309,5330,191.2923,377.6376,185.8011,365.0076 M,0,5330,5351,185.8011,365.0076,182.7552,351.5832 M,0,5351,5372,182.7552,351.5832,181.5639,337.8955 M,0,5372,5393,181.5639,337.8955,182.4877,324.1692 M,0,5393,5414,182.4877,324.1692,185.5144,310.7177 M,0,5414,5436,185.5144,310.7177,191.0702,298.1199 M,0,5436,5457,191.0702,298.1199,198.1911,286.3619 M,0,5457,5478,198.1911,286.3619,207.0473,275.8177 M,0,5478,5499,207.0473,275.8177,217.6969,267.096 M,0,5499,5520,217.6969,267.096,229.4175,259.928 M,0,5520,5541,229.4175,259.928,242.1147,254.6363 M,0,5541,5562,242.1147,254.6363,255.5025,251.3493 M,0,5562,5583,255.5025,251.3493,269.2548,250.6924 M,0,5583,5604,269.2548,250.6924,282.9532,251.8248 M,0,5604,5625,282.9532,251.8248,296.3378,255.0511 M,0,5625,5646,296.3378,255.0511,308.8979,260.6829 M,0,5646,5667,308.8979,260.6829,320.5387,267.9785 M,0,5667,5688,320.5387,267.9785,330.9347,276.9841 M,0,5688,5709,330.9347,276.9841,339.8438,287.5007 M,0,5709,5794,339.8438,287.5007,378,370 M,0,5794,5815,378,370,386.9367,373.4024 M,0,5815,5836,386.9367,373.4024,395.8564,376.849 M,0,5836,5857,395.8564,376.849,404.7589,380.3396 M,0,5857,5878,404.7589,380.3396,413.6441,383.8743 M,0,5878,5899,413.6441,383.8743,422.5117,387.4529 M,0,5899,5920,422.5117,387.4529,431.3614,391.0753 M,0,5920,5941,431.3614,391.0753,440.1983,394.729 M,0,5941,5962,440.1983,394.729,449.0096,398.444
//Storyboard Layer 1 (Fail)
//Storyboard Layer 2 (Pass)
//Storyboard Layer 3 (Foreground)
Sprite,Foreground,Centre,"sb/flowerEffect.png",0,0 S,0,79951,80569,0.3,0.45 F,2,79951,80569,1,0 P,0,79951,80569,A C,0,79951,80569,252,238,241 R,4,79951,80569,3,1 M,1,79951,80569,274,190,307,165
Sprite,Foreground,Centre,"sb/flowerEffect.png",0,0 S,0,79951,80569,0.3,0.45 F,2,79951,80569,1,0 P,0,79951,80569,A C,0,79951,80569,241,159,160 R,4,79951,80569,0,2 M,1,79951,80569,274,190,240,130
Sprite,Foreground,Centre,"sb/flowerEffect.png",0,0 S,0,79951,80569,0.3,0.45 F,2,79951,80569,1,0 P,0,79951,80569,A C,0,79951,80569,159,215,238 R,4,79951,80569,4,2 M,1,79951,80569,274,190,215,225
Sprite,Foreground,Centre,"sb/flowerEffect.png",0,0 S,0,79951,80569,0.3,0.45 F,2,79951,80569,1,0 P,0,79951,80569,A C,0,79951,80569,192,227,232 R,4,79951,80569,4,0 M,1,79951,80569,274,190,313,260
Sprite,Foreground,Centre,"sb/flowerEffect.png",0,0 S,0,80288,80906,0.3,0.45 F,2,80288,80906,1,0 P,0,80288,80906,A C,0,80288,80906,252,238,241 R,4,80288,80906,3 M,1,80288,80906,183,333,211,308
Sprite,Foreground,Centre,"sb/flowerEffect.png",0,0 S,0,80288,80906,0.3,0.45 F,2,80288,80906,1,0 P,0,80288,80906,A C,0,80288,80906,241,159,160 R,4,80288,80906,3 M,1,80288,80906,183,333,245,273
Sprite,Foreground,Centre,"sb/flowerEffect.png",0,0 S,0,80288,80906,0.3,0.45 F,2,80288,80906,1,0 P,0,80288,80906,A C,0,80288,80906,159,215,238 R,4,80288,80906,4,1 M,1,80288,80906,183,333,186,368
Sprite,Foreground,Centre,"sb/flowerEffect.png",0,0 S,0,80288,80906,0.3,0.45 F,2,80288,80906,1,0 P,0,80288,80906,A C,0,80288,80906,192,227,232 R,4,80288,80906,3,0 M,1,80288,80906,183,333,116,403
Sprite,Foreground,Centre,"sb/flowerEffect.png",0,0 S,0,80625,81075,0.3,0.45 F,2,80625,81075,1,0 P,0,80625,81075,A C,0,80625,81075,252,238,241 R,4,80625,81075,3,4 M,1,80625,81075,125,175,188,150
Sprite,Foreground,Centre,"sb/flowerEffect.png",0,0 S,0,80625,81075,0.3,0.45 F,2,80625,81075,1,0 P,0,80625,81075,A C,0,80625,81075,241,159,160 R,4,80625,81075,1,5 M,1,80625,81075,125,175,136,115
Sprite,Foreground,Centre,"sb/flowerEffect.png",0,0 S,0,80625,81075,0.3,0.45 F,2,80625,81075,1,0 P,0,80625,81075,A C,0,80625,81075,159,215,238 R,4,80625,81075,3 M,1,80625,81075,125,175,145,210
Sprite,Foreground,Centre,"sb/flowerEffect.png",0,0 S,0,80625,81075,0.3,0.45 F,2,80625,81075,1,0 P,0,80625,81075,A C,0,80625,81075,192,227,232 R,4,80625,81075,3,1 M,1,80625,81075,125,175,157,245
Sprite,Foreground,Centre,"sb/flowerEffect.png",0,0 S,0,80962,81580,0.3,0.45 F,2,80962,81580,1,0 P,0,80962,81580,A C,0,80962,81580,252,238,241 R,4,80962,81580,3 M,1,80962,81580,125,175,131,150
Sprite,Foreground,Centre,"sb/flowerEffect.png",0,0 S,0,80962,81580,0.3,0.45 F,2,80962,81580,1,0 P,0,80962,81580,A C,0,80962,81580,241,159,160 R,4,80962,81580,3,4 M,1,80962,81580,125,175,126,115
Sprite,Foreground,Centre,"sb/flowerEffect.png",0,0 S,0,80962,81580,0.3,0.45 F,2,80962,81580,1,0 P,0,80962,81580,A C,0,80962,81580,159,215,238 R,4,80962,81580,5,2 M,1,80962,81580,125,175,111,210
Sprite,Foreground,Centre,"sb/flowerEffect.png",0,0 S,0,80962,81580,0.3,0.45 F,2,80962,81580,1,0 P,0,80962,81580,A C,0,80962,81580,192,227,232 R,4,80962,81580,4,0 M,1,80962,81580,125,175,117,245
Sprite,Foreground,Centre,"sb/flowerEffect.png",0,0 S,0,81299,81917,0.3,0.45 F,2,81299,81917,1,0 P,0,81299,81917,A C,0,81299,81917,252,238,241 R,4,81299,81917,3,5 M,1,81299,81917,248,275,317,250
Sprite,Foreground,Centre,"sb/flowerEffect.png",0,0 S,0,81299,81917,0.3,0.45 F,2,81299,81917,1,0 P,0,81299,81917,A C,0,81299,81917,241,159,160 R,4,81299,81917,3,2 M,1,81299,81917,248,275,276,215
Sprite,Foreground,Centre,"sb/flowerEffect.png",0,0 S,0,81299,81917,0.3,0.45 F,2,81299,81917,1,0 P,0,81299,81917,A C,0,81299,81917,159,215,238 R,4,81299,81917,5,1 M,1,81299,81917,248,275,274,310
Sprite,Foreground,Centre,"sb/flowerEffect.png",0,0 S,0,81299,81917,0.3,0.45 F,2,81299,81917,1,0 P,0,81299,81917,A C,0,81299,81917,192,227,232 R,4,81299,81917,3,0 M,1,81299,81917,248,275,248,345
Sprite,Foreground,Centre,"sb/flowerEffect.png",0,0 S,0,81636,82086,0.3,0.45 F,2,81636,82086,1,0 P,0,81636,82086,A C,0,81636,82086,252,238,241 R,4,81636,82086,3,2 M,1,81636,82086,119,375,143,350
Sprite,Foreground,Centre,"sb/flowerEffect.png",0,0 S,0,81636,82086,0.3,0.45 F,2,81636,82086,1,0 P,0,81636,82086,A C,0,81636,82086,241,159,160 R,4,81636,82086,2,4 M,1,81636,82086,119,375,145,315
Sprite,Foreground,Centre,"sb/flowerEffect.png",0,0 S,0,81636,82086,0.3,0.45 F,2,81636,82086,1,0 P,0,81636,82086,A C,0,81636,82086,159,215,238 R,4,81636,82086,3,2 M,1,81636,82086,119,375,146,410
Sprite,Foreground,Centre,"sb/flowerEffect.png",0,0 S,0,81636,82086,0.3,0.45 F,2,81636,82086,1,0 P,0,81636,82086,A C,0,81636,82086,192,227,232 R,4,81636,82086,4,1 M,1,81636,82086,119,375,130,445
Sprite,Foreground,Centre,"sb/flowerEffect.png",0,0 S,0,111299,111749,0.3,0.45 F,2,111299,111749,1,0 P,0,111299,111749,A C,0,111299,111749,252,238,241 R,4,111299,111749,3,4 M,1,111299,111749,183,258,219,233
Sprite,Foreground,Centre,"sb/flowerEffect.png",0,0 S,0,111299,111749,0.3,0.45 F,2,111299,111749,1,0 P,0,111299,111749,A C,0,111299,111749,241,159,160 R,4,111299,111749,1,3 M,1,111299,111749,183,258,202,198
Sprite,Foreground,Centre,"sb/flowerEffect.png",0,0 S,0,111299,111749,0.3,0.45 F,2,111299,111749,1,0 P,0,111299,111749,A C,0,111299,111749,159,215,238 R,4,111299,111749,4,1 M,1,111299,111749,183,258,137,293
Sprite,Foreground,Centre,"sb/flowerEffect.png",0,0 S,0,111299,111749,0.3,0.45 F,2,111299,111749,1,0 P,0,111299,111749,A C,0,111299,111749,192,227,232 R,4,111299,111749,3,0 M,1,111299,111749,183,258,120,328
Sprite,Foreground,Centre,"sb/flowerEffect.png",0,0 S,0,111468,111918,0.3,0.45 F,2,111468,111918,1,0 P,0,111468,111918,A C,0,111468,111918,252,238,241 R,4,111468,111918,3,1 M,1,111468,111918,155,439,201,414
Sprite,Foreground,Centre,"sb/flowerEffect.png",0,0 S,0,111468,111918,0.3,0.45 F,2,111468,111918,1,0 P,0,111468,111918,A C,0,111468,111918,241,159,160 R,4,111468,111918,0,3 M,1,111468,111918,155,439,138,379
Sprite,Foreground,Centre,"sb/flowerEffect.png",0,0 S,0,111468,111918,0.3,0.45 F,2,111468,111918,1,0 P,0,111468,111918,A C,0,111468,111918,159,215,238 R,4,111468,111918,5,3 M,1,111468,111918,155,439,103,474
Sprite,Foreground,Centre,"sb/flowerEffect.png",0,0 S,0,111468,111918,0.3,0.45 F,2,111468,111918,1,0 P,0,111468,111918,A C,0,111468,111918,192,227,232 R,4,111468,111918,4,0 M,1,111468,111918,155,439,131,509
Sprite,Foreground,Centre,"sb/flowerEffect.png",0,0 S,0,111636,112086,0.3,0.45 F,2,111636,112086,1,0 P,0,111636,112086,A C,0,111636,112086,252,238,241 R,4,111636,112086,3,1 M,1,111636,112086,265,225,247,200
Sprite,Foreground,Centre,"sb/flowerEffect.png",0,0 S,0,111636,112086,0.3,0.45 F,2,111636,112086,1,0 P,0,111636,112086,A C,0,111636,112086,241,159,160 R,4,111636,112086,3 M,1,111636,112086,265,225,328,165
Sprite,Foreground,Centre,"sb/flowerEffect.png",0,0 S,0,111636,112086,0.3,0.45 F,2,111636,112086,1,0 P,0,111636,112086,A C,0,111636,112086,159,215,238 R,4,111636,112086,4,2 M,1,111636,112086,265,225,206,260
Sprite,Foreground,Centre,"sb/flowerEffect.png",0,0 S,0,111636,112086,0.3,0.45 F,2,111636,112086,1,0 P,0,111636,112086,A C,0,111636,112086,192,227,232 R,4,111636,112086,3,0 M,1,111636,112086,265,225,257,295
Sprite,Foreground,Centre,"sb/flowerEffect.png",0,0 S,0,111805,112255,0.3,0.45 F,2,111805,112255,1,0 P,0,111805,112255,A C,0,111805,112255,252,238,241 R,4,111805,112255,3 M,1,111805,112255,321,381,392,356
Sprite,Foreground,Centre,"sb/flowerEffect.png",0,0 S,0,111805,112255,0.3,0.45 F,2,111805,112255,1,0 P,0,111805,112255,A C,0,111805,112255,241,159,160 R,4,111805,112255,1,2 M,1,111805,112255,321,381,390,321
Sprite,Foreground,Centre,"sb/flowerEffect.png",0,0 S,0,111805,112255,0.3,0.45 F,2,111805,112255,1,0 P,0,111805,112255,A C,0,111805,112255,159,215,238 R,4,111805,112255,3,1 M,1,111805,112255,321,381,246,416
Sprite,Foreground,Centre,"sb/flowerEffect.png",0,0 S,0,111805,112255,0.3,0.45 F,2,111805,112255,1,0 P,0,111805,112255,A C,0,111805,112255,192,227,232 R,4,111805,112255,3,1 M,1,111805,112255,321,381,309,451
Sprite,Foreground,Centre,"sb/flowerEffect.png",0,0 S,0,111974,112424,0.3,0.45 F,2,111974,112424,1,0 P,0,111974,112424,A C,0,111974,112424,252,238,241 R,4,111974,112424,3,5 M,1,111974,112424,196,172,280,147
Sprite,Foreground,Centre,"sb/flowerEffect.png",0,0 S,0,111974,112424,0.3,0.45 F,2,111974,112424,1,0 P,0,111974,112424,A C,0,111974,112424,241,159,160 R,4,111974,112424,2,4 M,1,111974,112424,196,172,265,112
Sprite,Foreground,Centre,"sb/flowerEffect.png",0,0 S,0,111974,112424,0.3,0.45 F,2,111974,112424,1,0 P,0,111974,112424,A C,0,111974,112424,159,215,238 R,4,111974,112424,4,3 M,1,111974,112424,196,172,140,207
Sprite,Foreground,Centre,"sb/flowerEffect.png",0,0 S,0,111974,112424,0.3,0.45 F,2,111974,112424,1,0 P,0,111974,112424,A C,0,111974,112424,192,227,232 R,4,111974,112424,3,0 M,1,111974,112424,196,172,176,242
Sprite,Foreground,Centre,"sb/flowerEffect.png",0,0 S,0,112142,112592,0.3,0.45 F,2,112142,112592,1,0 P,0,112142,112592,A C,0,112142,112592,252,238,241 R,4,112142,112592,3 M,1,112142,112592,170,345,242,320
Sprite,Foreground,Centre,"sb/flowerEffect.png",0,0 S,0,112142,112592,0.3,0.45 F,2,112142,112592,1,0 P,0,112142,112592,A C,0,112142,112592,241,159,160 R,4,112142,112592,1,4 M,1,112142,112592,170,345,201,285
Sprite,Foreground,Centre,"sb/flowerEffect.png",0,0 S,0,112142,112592,0.3,0.45 F,2,112142,112592,1,0 P,0,112142,112592,A C,0,112142,112592,159,215,238 R,4,112142,112592,5,2 M,1,112142,112592,170,345,191,380
Sprite,Foreground,Centre,"sb/flowerEffect.png",0,0 S,0,112142,112592,0.3,0.45 F,2,112142,112592,1,0 P,0,112142,112592,A C,0,112142,112592,192,227,232 R,4,112142,112592,3,0 M,1,112142,112592,170,345,202,415
Sprite,Foreground,Centre,"sb/flowerEffect.png",0,0 S,0,170288,170906,0.3,0.45 F,2,170288,170906,1,0 P,0,170288,170906,A C,0,170288,170906,252,238,241 R,4,170288,170906,3 M,1,170288,170906,557,238,612,213
Sprite,Foreground,Centre,"sb/flowerEffect.png",0,0 S,0,170288,170906,0.3,0.45 F,2,170288,170906,1,0 P,0,170288,170906,A C,0,170288,170906,241,159,160 R,4,170288,170906,1,3 M,1,170288,170906,557,238,530,178
Sprite,Foreground,Centre,"sb/flowerEffect.png",0,0 S,0,170288,170906,0.3,0.45 F,2,170288,170906,1,0 P,0,170288,170906,A C,0,170288,170906,159,215,238 R,4,170288,170906,3,2 M,1,170288,170906,557,238,479,273
Sprite,Foreground,Centre,"sb/flowerEffect.png",0,0 S,0,170288,170906,0.3,0.45 F,2,170288,170906,1,0 P,0,170288,170906,A C,0,170288,170906,192,227,232 R,4,170288,170906,4,1 M,1,170288,170906,557,238,568,308
Sprite,Foreground,Centre,"sb/flowerEffect.png",0,0 S,0,170625,171243,0.3,0.45 F,2,170625,171243,1,0 P,0,170625,171243,A C,0,170625,171243,252,238,241 R,4,170625,171243,3,5 M,1,170625,171243,368,308,445,283
Sprite,Foreground,Centre,"sb/flowerEffect.png",0,0 S,0,170625,171243,0.3,0.45 F,2,170625,171243,1,0 P,0,170625,171243,A C,0,170625,171243,241,159,160 R,4,170625,171243,0,4 M,1,170625,171243,368,308,346,248
Sprite,Foreground,Centre,"sb/flowerEffect.png",0,0 S,0,170625,171243,0.3,0.45 F,2,170625,171243,1,0 P,0,170625,171243,A C,0,170625,171243,159,215,238 R,4,170625,171243,3,1 M,1,170625,171243,368,308,318,343
Sprite,Foreground,Centre,"sb/flowerEffect.png",0,0 S,0,170625,171243,0.3,0.45 F,2,170625,171243,1,0 P,0,170625,171243,A C,0,170625,171243,192,227,232 R,4,170625,171243,3,1 M,1,170625,171243,368,308,361,378
Sprite,Foreground,Centre,"sb/flowerEffect.png",0,0 S,0,170962,171412,0.3,0.45 F,2,170962,171412,1,0 P,0,170962,171412,A C,0,170962,171412,252,238,241 R,4,170962,171412,3,5 M,1,170962,171412,539,384,581,359
Sprite,Foreground,Centre,"sb/flowerEffect.png",0,0 S,0,170962,171412,0.3,0.45 F,2,170962,171412,1,0 P,0,170962,171412,A C,0,170962,171412,241,159,160 R,4,170962,171412,1,4 M,1,170962,171412,539,384,532,324
Sprite,Foreground,Centre,"sb/flowerEffect.png",0,0 S,0,170962,171412,0.3,0.45 F,2,170962,171412,1,0 P,0,170962,171412,A C,0,170962,171412,159,215,238 R,4,170962,171412,4,3 M,1,170962,171412,539,384,540,419
Sprite,Foreground,Centre,"sb/flowerEffect.png",0,0 S,0,170962,171412,0.3,0.45 F,2,170962,171412,1,0 P,0,170962,171412,A C,0,170962,171412,192,227,232 R,4,170962,171412,3,0 M,1,170962,171412,539,384,482,454
Sprite,Foreground,Centre,"sb/flowerEffect.png",0,0 S,0,171299,171917,0.3,0.45 F,2,171299,171917,1,0 P,0,171299,171917,A C,0,171299,171917,252,238,241 R,4,171299,171917,3,1 M,1,171299,171917,539,384,581,359
Sprite,Foreground,Centre,"sb/flowerEffect.png",0,0 S,0,171299,171917,0.3,0.45 F,2,171299,171917,1,0 P,0,171299,171917,A C,0,171299,171917,241,159,160 R,4,171299,171917,0,5 M,1,171299,171917,539,384,566,324
Sprite,Foreground,Centre,"sb/flowerEffect.png",0,0 S,0,171299,171917,0.3,0.45 F,2,171299,171917,1,0 P,0,171299,171917,A C,0,171299,171917,159,215,238 R,4,171299,171917,4,3 M,1,171299,171917,539,384,521,419
Sprite,Foreground,Centre,"sb/flowerEffect.png",0,0 S,0,171299,171917,0.3,0.45 F,2,171299,171917,1,0 P,0,171299,171917,A C,0,171299,171917,192,227,232 R,4,171299,171917,3,0 M,1,171299,171917,539,384,554,454
Sprite,Foreground,Centre,"sb/flowerEffect.png",0,0 S,0,171636,172254,0.3,0.45 F,2,171636,172254,1,0 P,0,171636,172254,A C,0,171636,172254,252,238,241 R,4,171636,172254,3,4 M,1,171636,172254,391,221,473,196
Sprite,Foreground,Centre,"sb/flowerEffect.png",0,0 S,0,171636,172254,0.3,0.45 F,2,171636,172254,1,0 P,0,171636,172254,A C,0,171636,172254,241,159,160 R,4,171636,172254,2,5 M,1,171636,172254,391,221,349,161
Sprite,Foreground,Centre,"sb/flowerEffect.png",0,0 S,0,171636,172254,0.3,0.45 F,2,171636,172254,1,0 P,0,171636,172254,A C,0,171636,172254,159,215,238 R,4,171636,172254,4,1 M,1,171636,172254,391,221,392,256
Sprite,Foreground,Centre,"sb/flowerEffect.png",0,0 S,0,171636,172254,0.3,0.45 F,2,171636,172254,1,0 P,0,171636,172254,A C,0,171636,172254,192,227,232 R,4,171636,172254,3,0 M,1,171636,172254,391,221,388,291
Sprite,Foreground,Centre,"sb/flowerEffect.png",0,0 S,0,171974,172424,0.3,0.45 F,2,171974,172424,1,0 P,0,171974,172424,A C,0,171974,172424,252,238,241 R,4,171974,172424,3,5 M,1,171974,172424,186,345,177,320
Sprite,Foreground,Centre,"sb/flowerEffect.png",0,0 S,0,171974,172424,0.3,0.45 F,2,171974,172424,1,0 P,0,171974,172424,A C,0,171974,172424,241,159,160 R,4,171974,172424,2,5 M,1,171974,172424,186,345,251,285
Sprite,Foreground,Centre,"sb/flowerEffect.png",0,0 S,0,171974,172424,0.3,0.45 F,2,171974,172424,1,0 P,0,171974,172424,A C,0,171974,172424,159,215,238 R,4,171974,172424,5,3 M,1,171974,172424,186,345,190,380
Sprite,Foreground,Centre,"sb/flowerEffect.png",0,0 S,0,171974,172424,0.3,0.45 F,2,171974,172424,1,0 P,0,171974,172424,A C,0,171974,172424,192,227,232 R,4,171974,172424,4,1 M,1,171974,172424,186,345,188,415
Sprite,Foreground,Centre,"sb/flowerEffect.png",0,0 S,0,199951,200401,0.3,0.45 F,2,199951,200401,1,0 P,0,199951,200401,A C,0,199951,200401,252,238,241 R,4,199951,200401,3,2 M,1,199951,200401,386,116,381,91
Sprite,Foreground,Centre,"sb/flowerEffect.png",0,0 S,0,199951,200401,0.3,0.45 F,2,199951,200401,1,0 P,0,199951,200401,A C,0,199951,200401,241,159,160 R,4,199951,200401,2 M,1,199951,200401,386,116,444,56
Sprite,Foreground,Centre,"sb/flowerEffect.png",0,0 S,0,199951,200401,0.3,0.45 F,2,199951,200401,1,0 P,0,199951,200401,A C,0,199951,200401,159,215,238 R,4,199951,200401,5,1 M,1,199951,200401,386,116,361,151
Sprite,Foreground,Centre,"sb/flowerEffect.png",0,0 S,0,199951,200401,0.3,0.45 F,2,199951,200401,1,0 P,0,199951,200401,A C,0,199951,200401,192,227,232 R,4,199951,200401,4,1 M,1,199951,200401,386,116,424,186
Sprite,Foreground,Centre,"sb/flowerEffect.png",0,0 S,0,200120,200570,0.3,0.45 F,2,200120,200570,1,0 P,0,200120,200570,A C,0,200120,200570,252,238,241 R,4,200120,200570,3,5 M,1,200120,200570,444,295,436,270
Sprite,Foreground,Centre,"sb/flowerEffect.png",0,0 S,0,200120,200570,0.3,0.45 F,2,200120,200570,1,0 P,0,200120,200570,A C,0,200120,200570,241,159,160 R,4,200120,200570,2,4 M,1,200120,200570,444,295,403,235
Sprite,Foreground,Centre,"sb/flowerEffect.png",0,0 S,0,200120,200570,0.3,0.45 F,2,200120,200570,1,0 P,0,200120,200570,A C,0,200120,200570,159,215,238 R,4,200120,200570,4,1 M,1,200120,200570,444,295,361,330
Sprite,Foreground,Centre,"sb/flowerEffect.png",0,0 S,0,200120,200570,0.3,0.45 F,2,200120,200570,1,0 P,0,200120,200570,A C,0,200120,200570,192,227,232 R,4,200120,200570,3,0 M,1,200120,200570,444,295,487,365
Sprite,Foreground,Centre,"sb/flowerEffect.png",0,0 S,0,200288,200738,0.3,0.45 F,2,200288,200738,1,0 P,0,200288,200738,A C,0,200288,200738,252,238,241 R,4,200288,200738,3,4 M,1,200288,200738,497,93,585,68
Sprite,Foreground,Centre,"sb/flowerEffect.png",0,0 S,0,200288,200738,0.3,0.45 F,2,200288,200738,1,0 P,0,200288,200738,A C,0,200288,200738,241,159,160 R,4,200288,200738,2 M,1,200288,200738,497,93,493,33
Sprite,Foreground,Centre,"sb/flowerEffect.png",0,0 S,0,200288,200738,0.3,0.45 F,2,200288,200738,1,0 P,0,200288,200738,A C,0,200288,200738,159,215,238 R,4,200288,200738,5,1 M,1,200288,200738,497,93,497,128
Sprite,Foreground,Centre,"sb/flowerEffect.png",0,0 S,0,200288,200738,0.3,0.45 F,2,200288,200738,1,0 P,0,200288,200738,A C,0,200288,200738,192,227,232 R,4,200288,200738,3,1 M,1,200288,200738,497,93,496,163
Sprite,Foreground,Centre,"sb/flowerEffect.png",0,0 S,0,200625,201075,0.3,0.45 F,2,200625,201075,1,0 P,0,200625,201075,A C,0,200625,201075,252,238,241 R,4,200625,201075,3,5 M,1,200625,201075,505,101,489,76
Sprite,Foreground,Centre,"sb/flowerEffect.png",0,0 S,0,200625,201075,0.3,0.45 F,2,200625,201075,1,0 P,0,200625,201075,A C,0,200625,201075,241,159,160 R,4,200625,201075,3,2 M,1,200625,201075,505,101,460,41
Sprite,Foreground,Centre,"sb/flowerEffect.png",0,0 S,0,200625,201075,0.3,0.45 F,2,200625,201075,1,0 P,0,200625,201075,A C,0,200625,201075,159,215,238 R,4,200625,201075,3 M,1,200625,201075,505,101,456,136
Sprite,Foreground,Centre,"sb/flowerEffect.png",0,0 S,0,200625,201075,0.3,0.45 F,2,200625,201075,1,0 P,0,200625,201075,A C,0,200625,201075,192,227,232 R,4,200625,201075,3,0 M,1,200625,201075,505,101,439,171
Sprite,Foreground,Centre,"sb/flowerEffect.png",0,0 S,0,200709,201159,0.3,0.45 F,2,200709,201159,1,0 P,0,200709,201159,A C,0,200709,201159,252,238,241 R,4,200709,201159,3,2 M,1,200709,201159,505,101,536,76
Sprite,Foreground,Centre,"sb/flowerEffect.png",0,0 S,0,200709,201159,0.3,0.45 F,2,200709,201159,1,0 P,0,200709,201159,A C,0,200709,201159,241,159,160 R,4,200709,201159,2,3 M,1,200709,201159,505,101,540,41
Sprite,Foreground,Centre,"sb/flowerEffect.png",0,0 S,0,200709,201159,0.3,0.45 F,2,200709,201159,1,0 P,0,200709,201159,A C,0,200709,201159,159,215,238 R,4,200709,201159,4,3 M,1,200709,201159,505,101,516,136
Sprite,Foreground,Centre,"sb/flowerEffect.png",0,0 S,0,200709,201159,0.3,0.45 F,2,200709,201159,1,0 P,0,200709,201159,A C,0,200709,201159,192,227,232 R,4,200709,201159,3,0 M,1,200709,201159,505,101,477,171
Sprite,Foreground,Centre,"sb/flowerEffect.png",0,0 S,0,200794,201244,0.3,0.45 F,2,200794,201244,1,0 P,0,200794,201244,A C,0,200794,201244,252,238,241 R,4,200794,201244,3,2 M,1,200794,201244,505,101,584,76
Sprite,Foreground,Centre,"sb/flowerEffect.png",0,0 S,0,200794,201244,0.3,0.45 F,2,200794,201244,1,0 P,0,200794,201244,A C,0,200794,201244,241,159,160 R,4,200794,201244,0,5 M,1,200794,201244,505,101,515,41
Sprite,Foreground,Centre,"sb/flowerEffect.png",0,0 S,0,200794,201244,0.3,0.45 F,2,200794,201244,1,0 P,0,200794,201244,A C,0,200794,201244,159,215,238 R,4,200794,201244,3,1 M,1,200794,201244,505,101,536,136
Sprite,Foreground,Centre,"sb/flowerEffect.png",0,0 S,0,200794,201244,0.3,0.45 F,2,200794,201244,1,0 P,0,200794,201244,A C,0,200794,201244,192,227,232 R,4,200794,201244,4,1 M,1,200794,201244,505,101,505,171
Sprite,Foreground,Centre,"sb/flowerEffect.png",0,0 S,0,200962,201580,0.3,0.45 F,2,200962,201580,1,0 P,0,200962,201580,A C,0,200962,201580,252,238,241 R,4,200962,201580,3 M,1,200962,201580,366,243,343,218
Sprite,Foreground,Centre,"sb/flowerEffect.png",0,0 S,0,200962,201580,0.3,0.45 F,2,200962,201580,1,0 P,0,200962,201580,A C,0,200962,201580,241,159,160 R,4,200962,201580,3,5 M,1,200962,201580,366,243,392,183
Sprite,Foreground,Centre,"sb/flowerEffect.png",0,0 S,0,200962,201580,0.3,0.45 F,2,200962,201580,1,0 P,0,200962,201580,A C,0,200962,201580,159,215,238 R,4,200962,201580,4,1 M,1,200962,201580,366,243,333,278
Sprite,Foreground,Centre,"sb/flowerEffect.png",0,0 S,0,200962,201580,0.3,0.45 F,2,200962,201580,1,0 P,0,200962,201580,A C,0,200962,201580,192,227,232 R,4,200962,201580,4,1 M,1,200962,201580,366,243,401,313
Sprite,Foreground,Centre,"sb/flowerEffect.png",0,0 S,0,201299,201749,0.3,0.45 F,2,201299,201749,1,0 P,0,201299,201749,A C,0,201299,201749,252,238,241 R,4,201299,201749,3,2 M,1,201299,201749,141,115,202,90
Sprite,Foreground,Centre,"sb/flowerEffect.png",0,0 S,0,201299,201749,0.3,0.45 F,2,201299,201749,1,0 P,0,201299,201749,A C,0,201299,201749,241,159,160 R,4,201299,201749,3,4 M,1,201299,201749,141,115,126,55
Sprite,Foreground,Centre,"sb/flowerEffect.png",0,0 S,0,201299,201749,0.3,0.45 F,2,201299,201749,1,0 P,0,201299,201749,A C,0,201299,201749,159,215,238 R,4,201299,201749,5,3 M,1,201299,201749,141,115,149,150
Sprite,Foreground,Centre,"sb/flowerEffect.png",0,0 S,0,201299,201749,0.3,0.45 F,2,201299,201749,1,0 P,0,201299,201749,A C,0,201299,201749,192,227,232 R,4,201299,201749,4,1 M,1,201299,201749,141,115,167,185
Sprite,Foreground,Centre,"sb/flowerEffect.png",0,0 S,0,201468,201918,0.3,0.45 F,2,201468,201918,1,0 P,0,201468,201918,A C,0,201468,201918,252,238,241 R,4,201468,201918,3,5 M,1,201468,201918,211,296,292,271
Sprite,Foreground,Centre,"sb/flowerEffect.png",0,0 S,0,201468,201918,0.3,0.45 F,2,201468,201918,1,0 P,0,201468,201918,A C,0,201468,201918,241,159,160 R,4,201468,201918,3,2 M,1,201468,201918,211,296,168,236
Sprite,Foreground,Centre,"sb/flowerEffect.png",0,0 S,0,201468,201918,0.3,0.45 F,2,201468,201918,1,0 P,0,201468,201918,A C,0,201468,201918,159,215,238 R,4,201468,201918,3,1 M,1,201468,201918,211,296,192,331
Sprite,Foreground,Centre,"sb/flowerEffect.png",0,0 S,0,201468,201918,0.3,0.45 F,2,201468,201918,1,0 P,0,201468,201918,A C,0,201468,201918,192,227,232 R,4,201468,201918,4,1 M,1,201468,201918,211,296,235,366
Sprite,Foreground,Centre,"sb/flowerEffect.png",0,0 S,0,201636,202086,0.3,0.45 F,2,201636,202086,1,0 P,0,201636,202086,A C,0,201636,202086,252,238,241 R,4,201636,202086,3,4 M,1,201636,202086,282,105,344,80
Sprite,Foreground,Centre,"sb/flowerEffect.png",0,0 S,0,201636,202086,0.3,0.45 F,2,201636,202086,1,0 P,0,201636,202086,A C,0,201636,202086,241,159,160 R,4,201636,202086,0,4 M,1,201636,202086,282,105,334,45
Sprite,Foreground,Centre,"sb/flowerEffect.png",0,0 S,0,201636,202086,0.3,0.45 F,2,201636,202086,1,0 P,0,201636,202086,A C,0,201636,202086,159,215,238 R,4,201636,202086,5,1 M,1,201636,202086,282,105,266,140
Sprite,Foreground,Centre,"sb/flowerEffect.png",0,0 S,0,201636,202086,0.3,0.45 F,2,201636,202086,1,0 P,0,201636,202086,A C,0,201636,202086,192,227,232 R,4,201636,202086,4,0 M,1,201636,202086,282,105,282,175
Sprite,Foreground,Centre,"sb/flowerEffect.png",0,0 S,0,201805,202255,0.3,0.45 F,2,201805,202255,1,0 P,0,201805,202255,A C,0,201805,202255,252,238,241 R,4,201805,202255,3,2 M,1,201805,202255,104,266,133,241
Sprite,Foreground,Centre,"sb/flowerEffect.png",0,0 S,0,201805,202255,0.3,0.45 F,2,201805,202255,1,0 P,0,201805,202255,A C,0,201805,202255,241,159,160 R,4,201805,202255,2,5 M,1,201805,202255,104,266,63,206
Sprite,Foreground,Centre,"sb/flowerEffect.png",0,0 S,0,201805,202255,0.3,0.45 F,2,201805,202255,1,0 P,0,201805,202255,A C,0,201805,202255,159,215,238 R,4,201805,202255,5,1 M,1,201805,202255,104,266,103,301
Sprite,Foreground,Centre,"sb/flowerEffect.png",0,0 S,0,201805,202255,0.3,0.45 F,2,201805,202255,1,0 P,0,201805,202255,A C,0,201805,202255,192,227,232 R,4,201805,202255,3,1 M,1,201805,202255,104,266,34,336
Sprite,Foreground,Centre,"sb/flowerEffect.png",0,0 S,0,201974,202424,0.3,0.45 F,2,201974,202424,1,0 P,0,201974,202424,A C,0,201974,202424,252,238,241 R,4,201974,202424,3,5 M,1,201974,202424,297,219,301,194
Sprite,Foreground,Centre,"sb/flowerEffect.png",0,0 S,0,201974,202424,0.3,0.45 F,2,201974,202424,1,0 P,0,201974,202424,A C,0,201974,202424,241,159,160 R,4,201974,202424,1,5 M,1,201974,202424,297,219,311,159
Sprite,Foreground,Centre,"sb/flowerEffect.png",0,0 S,0,201974,202424,0.3,0.45 F,2,201974,202424,1,0 P,0,201974,202424,A C,0,201974,202424,159,215,238 R,4,201974,202424,3,1 M,1,201974,202424,297,219,288,254
Sprite,Foreground,Centre,"sb/flowerEffect.png",0,0 S,0,201974,202424,0.3,0.45 F,2,201974,202424,1,0 P,0,201974,202424,A C,0,201974,202424,192,227,232 R,4,201974,202424,4,0 M,1,201974,202424,297,219,238,289
Sprite,Foreground,Centre,"sb/flowerEffect.png",0,0 S,0,222704,223322,0.3,0.45 F,2,222704,223322,1,0 P,0,222704,223322,A C,0,222704,223322,252,238,241 R,4,222704,223322,3,4 M,1,222704,223322,177,357,162,332
Sprite,Foreground,Centre,"sb/flowerEffect.png",0,0 S,0,222704,223322,0.3,0.45 F,2,222704,223322,1,0 P,0,222704,223322,A C,0,222704,223322,241,159,160 R,4,222704,223322,3,5 M,1,222704,223322,177,357,224,297
Sprite,Foreground,Centre,"sb/flowerEffect.png",0,0 S,0,222704,223322,0.3,0.45 F,2,222704,223322,1,0 P,0,222704,223322,A C,0,222704,223322,159,215,238 R,4,222704,223322,3,1 M,1,222704,223322,177,357,181,392
Sprite,Foreground,Centre,"sb/flowerEffect.png",0,0 S,0,222704,223322,0.3,0.45 F,2,222704,223322,1,0 P,0,222704,223322,A C,0,222704,223322,192,227,232 R,4,222704,223322,3,0 M,1,222704,223322,177,357,206,427
Sprite,Foreground,Centre,"sb/flowerEffect.png",0,0 S,0,223041,223491,0.3,0.45 F,2,223041,223491,1,0 P,0,223041,223491,A C,0,223041,223491,252,238,241 R,4,223041,223491,3,2 M,1,223041,223491,362,157,391,132
Sprite,Foreground,Centre,"sb/flowerEffect.png",0,0 S,0,223041,223491,0.3,0.45 F,2,223041,223491,1,0 P,0,223041,223491,A C,0,223041,223491,241,159,160 R,4,223041,223491,1,2 M,1,223041,223491,362,157,357,97
Sprite,Foreground,Centre,"sb/flowerEffect.png",0,0 S,0,223041,223491,0.3,0.45 F,2,223041,223491,1,0 P,0,223041,223491,A C,0,223041,223491,159,215,238 R,4,223041,223491,3,2 M,1,223041,223491,362,157,376,192
Sprite,Foreground,Centre,"sb/flowerEffect.png",0,0 S,0,223041,223491,0.3,0.45 F,2,223041,223491,1,0 P,0,223041,223491,A C,0,223041,223491,192,227,232 R,4,223041,223491,4,0 M,1,223041,223491,362,157,380,227
Sprite,Foreground,Centre,"sb/flowerEffect.png",0,0 S,0,223209,223659,0.3,0.45 F,2,223209,223659,1,0 P,0,223209,223659,A C,0,223209,223659,252,238,241 R,4,223209,223659,3 M,1,223209,223659,447,368,446,343
Sprite,Foreground,Centre,"sb/flowerEffect.png",0,0 S,0,223209,223659,0.3,0.45 F,2,223209,223659,1,0 P,0,223209,223659,A C,0,223209,223659,241,159,160 R,4,223209,223659,0,4 M,1,223209,223659,447,368,415,308
Sprite,Foreground,Centre,"sb/flowerEffect.png",0,0 S,0,223209,223659,0.3,0.45 F,2,223209,223659,1,0 P,0,223209,223659,A C,0,223209,223659,159,215,238 R,4,223209,223659,5,3 M,1,223209,223659,447,368,471,403
Sprite,Foreground,Centre,"sb/flowerEffect.png",0,0 S,0,223209,223659,0.3,0.45 F,2,223209,223659,1,0 P,0,223209,223659,A C,0,223209,223659,192,227,232 R,4,223209,223659,3,0 M,1,223209,223659,447,368,399,438
Sprite,Foreground,Centre,"sb/flowerEffect.png",0,0 S,0,223378,223828,0.3,0.45 F,2,223378,223828,1,0 P,0,223378,223828,A C,0,223378,223828,252,238,241 R,4,223378,223828,3,5 M,1,223378,223828,288,185,320,160
Sprite,Foreground,Centre,"sb/flowerEffect.png",0,0 S,0,223378,223828,0.3,0.45 F,2,223378,223828,1,0 P,0,223378,223828,A C,0,223378,223828,241,159,160 R,4,223378,223828,3,5 M,1,223378,223828,288,185,310,125
Sprite,Foreground,Centre,"sb/flowerEffect.png",0,0 S,0,223378,223828,0.3,0.45 F,2,223378,223828,1,0 P,0,223378,223828,A C,0,223378,223828,159,215,238 R,4,223378,223828,3,2 M,1,223378,223828,288,185,302,220
Sprite,Foreground,Centre,"sb/flowerEffect.png",0,0 S,0,223378,223828,0.3,0.45 F,2,223378,223828,1,0 P,0,223378,223828,A C,0,223378,223828,192,227,232 R,4,223378,223828,3,1 M,1,223378,223828,288,185,271,255
Sprite,Foreground,Centre,"sb/flowerEffect.png",0,0 S,0,223547,223997,0.3,0.45 F,2,223547,223997,1,0 P,0,223547,223997,A C,0,223547,223997,252,238,241 R,4,223547,223997,3,5 M,1,223547,223997,497,303,588,278
Sprite,Foreground,Centre,"sb/flowerEffect.png",0,0 S,0,223547,223997,0.3,0.45 F,2,223547,223997,1,0 P,0,223547,223997,A C,0,223547,223997,241,159,160 R,4,223547,223997,1,5 M,1,223547,223997,497,303,544,243
Sprite,Foreground,Centre,"sb/flowerEffect.png",0,0 S,0,223547,223997,0.3,0.45 F,2,223547,223997,1,0 P,0,223547,223997,A C,0,223547,223997,159,215,238 R,4,223547,223997,3 M,1,223547,223997,497,303,435,338
Sprite,Foreground,Centre,"sb/flowerEffect.png",0,0 S,0,223547,223997,0.3,0.45 F,2,223547,223997,1,0 P,0,223547,223997,A C,0,223547,223997,192,227,232 R,4,223547,223997,3,0 M,1,223547,223997,497,303,457,373
Sprite,Foreground,Centre,"sb/flowerEffect.png",0,0 S,0,223715,224165,0.3,0.45 F,2,223715,224165,1,0 P,0,223715,224165,A C,0,223715,224165,252,238,241 R,4,223715,224165,3,1 M,1,223715,224165,311,419,348,394
Sprite,Foreground,Centre,"sb/flowerEffect.png",0,0 S,0,223715,224165,0.3,0.45 F,2,223715,224165,1,0 P,0,223715,224165,A C,0,223715,224165,241,159,160 R,4,223715,224165,2,3 M,1,223715,224165,311,419,281,359
Sprite,Foreground,Centre,"sb/flowerEffect.png",0,0 S,0,223715,224165,0.3,0.45 F,2,223715,224165,1,0 P,0,223715,224165,A C,0,223715,224165,159,215,238 R,4,223715,224165,5,1 M,1,223715,224165,311,419,260,454
Sprite,Foreground,Centre,"sb/flowerEffect.png",0,0 S,0,223715,224165,0.3,0.45 F,2,223715,224165,1,0 P,0,223715,224165,A C,0,223715,224165,192,227,232 R,4,223715,224165,3,0 M,1,223715,224165,311,419,263,489
Sprite,Foreground,Centre,"sb/flowerEffect.png",0,0 S,0,223884,224671,0.3,0.45 F,2,223884,224671,1,0 P,0,223884,224671,A C,0,223884,224671,252,238,241 R,4,223884,224671,3,1 M,1,223884,224671,449,240,483,215
Sprite,Foreground,Centre,"sb/flowerEffect.png",0,0 S,0,223884,224671,0.3,0.45 F,2,223884,224671,1,0 P,0,223884,224671,A C,0,223884,224671,241,159,160 R,4,223884,224671,0,3 M,1,223884,224671,449,240,513,180
Sprite,Foreground,Centre,"sb/flowerEffect.png",0,0 S,0,223884,224671,0.3,0.45 F,2,223884,224671,1,0 P,0,223884,224671,A C,0,223884,224671,159,215,238 R,4,223884,224671,5,1 M,1,223884,224671,449,240,456,275
Sprite,Foreground,Centre,"sb/flowerEffect.png",0,0 S,0,223884,224671,0.3,0.45 F,2,223884,224671,1,0 P,0,223884,224671,A C,0,223884,224671,192,227,232 R,4,223884,224671,4,1 M,1,223884,224671,449,240,477,310
Sprite,Foreground,Centre,"sb/flowerEffect.png",0,0 S,0,224895,226103,0.3,0.45 F,2,224895,226103,1,0 P,0,224895,226103,A C,0,224895,226103,252,238,241 R,4,224895,226103,3,4 M,1,224895,226103,311,419,286,394
Sprite,Foreground,Centre,"sb/flowerEffect.png",0,0 S,0,224895,226103,0.3,0.45 F,2,224895,226103,1,0 P,0,224895,226103,A C,0,224895,226103,241,159,160 R,4,224895,226103,0,2 M,1,224895,226103,311,419,293,359
Sprite,Foreground,Centre,"sb/flowerEffect.png",0,0 S,0,224895,226103,0.3,0.45 F,2,224895,226103,1,0 P,0,224895,226103,A C,0,224895,226103,159,215,238 R,4,224895,226103,5,2 M,1,224895,226103,311,419,293,454
Sprite,Foreground,Centre,"sb/flowerEffect.png",0,0 S,0,224895,226103,0.3,0.45 F,2,224895,226103,1,0 P,0,224895,226103,A C,0,224895,226103,192,227,232 R,4,224895,226103,3,0 M,1,224895,226103,311,419,336,489
Sprite,Foreground,Centre,"sb/flowerEffect.png",0,0 S,0,225738,226188,0.3,0.45 F,2,225738,226188,1,0 P,0,225738,226188,A C,0,225738,226188,252,238,241 R,4,225738,226188,3,4 M,1,225738,226188,231,403,219,378
Sprite,Foreground,Centre,"sb/flowerEffect.png",0,0 S,0,225738,226188,0.3,0.45 F,2,225738,226188,1,0 P,0,225738,226188,A C,0,225738,226188,241,159,160 R,4,225738,226188,2,3 M,1,225738,226188,231,403,244,343
Sprite,Foreground,Centre,"sb/flowerEffect.png",0,0 S,0,225738,226188,0.3,0.45 F,2,225738,226188,1,0 P,0,225738,226188,A C,0,225738,226188,159,215,238 R,4,225738,226188,3 M,1,225738,226188,231,403,189,438
Sprite,Foreground,Centre,"sb/flowerEffect.png",0,0 S,0,225738,226188,0.3,0.45 F,2,225738,226188,1,0 P,0,225738,226188,A C,0,225738,226188,192,227,232 R,4,225738,226188,4,0 M,1,225738,226188,231,403,239,473
Sprite,Foreground,Centre,"sb/flowerEffect.png",0,0 S,0,225906,226356,0.3,0.45 F,2,225906,226356,1,0 P,0,225906,226356,A C,0,225906,226356,252,238,241 R,4,225906,226356,3,1 M,1,225906,226356,161,198,180,173
Sprite,Foreground,Centre,"sb/flowerEffect.png",0,0 S,0,225906,226356,0.3,0.45 F,2,225906,226356,1,0 P,0,225906,226356,A C,0,225906,226356,241,159,160 R,4,225906,226356,0,3 M,1,225906,226356,161,198,125,138
Sprite,Foreground,Centre,"sb/flowerEffect.png",0,0 S,0,225906,226356,0.3,0.45 F,2,225906,226356,1,0 P,0,225906,226356,A C,0,225906,226356,159,215,238 R,4,225906,226356,4,3 M,1,225906,226356,161,198,104,233
Sprite,Foreground,Centre,"sb/flowerEffect.png",0,0 S,0,225906,226356,0.3,0.45 F,2,225906,226356,1,0 P,0,225906,226356,A C,0,225906,226356,192,227,232 R,4,225906,226356,4,0 M,1,225906,226356,161,198,168,268
Sprite,Foreground,Centre,"sb/flowerEffect.png",0,0 S,0,235007,235457,0.3,0.45 F,2,235007,235457,1,0 P,0,235007,235457,A C,0,235007,235457,252,238,241 R,4,235007,235457,3,5 M,1,235007,235457,481,182,473,157
Sprite,Foreground,Centre,"sb/flowerEffect.png",0,0 S,0,235007,235457,0.3,0.45 F,2,235007,235457,1,0 P,0,235007,235457,A C,0,235007,235457,241,159,160 R,4,235007,235457,0,3 M,1,235007,235457,481,182,531,122
Sprite,Foreground,Centre,"sb/flowerEffect.png",0,0 S,0,235007,235457,0.3,0.45 F,2,235007,235457,1,0 P,0,235007,235457,A C,0,235007,235457,159,215,238 R,4,235007,235457,4,2 M,1,235007,235457,481,182,505,217
Sprite,Foreground,Centre,"sb/flowerEffect.png",0,0 S,0,235007,235457,0.3,0.45 F,2,235007,235457,1,0 P,0,235007,235457,A C,0,235007,235457,192,227,232 R,4,235007,235457,4,0 M,1,235007,235457,481,182,507,252
Sprite,Foreground,Centre,"sb/flowerEffect.png",0,0 S,0,235176,235626,0.3,0.45 F,2,235176,235626,1,0 P,0,235176,235626,A C,0,235176,235626,252,238,241 R,4,235176,235626,3,2 M,1,235176,235626,532,344,592,319
Sprite,Foreground,Centre,"sb/flowerEffect.png",0,0 S,0,235176,235626,0.3,0.45 F,2,235176,235626,1,0 P,0,235176,235626,A C,0,235176,235626,241,159,160 R,4,235176,235626,0,4 M,1,235176,235626,532,344,498,284
Sprite,Foreground,Centre,"sb/flowerEffect.png",0,0 S,0,235176,235626,0.3,0.45 F,2,235176,235626,1,0 P,0,235176,235626,A C,0,235176,235626,159,215,238 R,4,235176,235626,4,2 M,1,235176,235626,532,344,487,379
Sprite,Foreground,Centre,"sb/flowerEffect.png",0,0 S,0,235176,235626,0.3,0.45 F,2,235176,235626,1,0 P,0,235176,235626,A C,0,235176,235626,192,227,232 R,4,235176,235626,3,1 M,1,235176,235626,532,344,467,414
Sprite,Foreground,Centre,"sb/flowerEffect.png",0,0 S,0,235344,235794,0.3,0.45 F,2,235344,235794,1,0 P,0,235344,235794,A C,0,235344,235794,252,238,241 R,4,235344,235794,3,4 M,1,235344,235794,393,153,393,128
Sprite,Foreground,Centre,"sb/flowerEffect.png",0,0 S,0,235344,235794,0.3,0.45 F,2,235344,235794,1,0 P,0,235344,235794,A C,0,235344,235794,241,159,160 R,4,235344,235794,1,5 M,1,235344,235794,393,153,393,93
Sprite,Foreground,Centre,"sb/flowerEffect.png",0,0 S,0,235344,235794,0.3,0.45 F,2,235344,235794,1,0 P,0,235344,235794,A C,0,235344,235794,159,215,238 R,4,235344,235794,4,2 M,1,235344,235794,393,153,339,188
Sprite,Foreground,Centre,"sb/flowerEffect.png",0,0 S,0,235344,235794,0.3,0.45 F,2,235344,235794,1,0 P,0,235344,235794,A C,0,235344,235794,192,227,232 R,4,235344,235794,3,0 M,1,235344,235794,393,153,402,223
Sprite,Foreground,Centre,"sb/flowerEffect.png",0,0 S,0,235513,235963,0.3,0.45 F,2,235513,235963,1,0 P,0,235513,235963,A C,0,235513,235963,252,238,241 R,4,235513,235963,3,1 M,1,235513,235963,325,320,363,295
Sprite,Foreground,Centre,"sb/flowerEffect.png",0,0 S,0,235513,235963,0.3,0.45 F,2,235513,235963,1,0 P,0,235513,235963,A C,0,235513,235963,241,159,160 R,4,235513,235963,2 M,1,235513,235963,325,320,358,260
Sprite,Foreground,Centre,"sb/flowerEffect.png",0,0 S,0,235513,235963,0.3,0.45 F,2,235513,235963,1,0 P,0,235513,235963,A C,0,235513,235963,159,215,238 R,4,235513,235963,5,2 M,1,235513,235963,325,320,347,355
Sprite,Foreground,Centre,"sb/flowerEffect.png",0,0 S,0,235513,235963,0.3,0.45 F,2,235513,235963,1,0 P,0,235513,235963,A C,0,235513,235963,192,227,232 R,4,235513,235963,4,0 M,1,235513,235963,325,320,276,390
Sprite,Foreground,Centre,"sb/flowerEffect.png",0,0 S,0,235681,236131,0.3,0.45 F,2,235681,236131,1,0 P,0,235681,236131,A C,0,235681,236131,252,238,241 R,4,235681,236131,3,2 M,1,235681,236131,481,182,488,157
Sprite,Foreground,Centre,"sb/flowerEffect.png",0,0 S,0,235681,236131,0.3,0.45 F,2,235681,236131,1,0 P,0,235681,236131,A C,0,235681,236131,241,159,160 R,4,235681,236131,0,2 M,1,235681,236131,481,182,432,122
Sprite,Foreground,Centre,"sb/flowerEffect.png",0,0 S,0,235681,236131,0.3,0.45 F,2,235681,236131,1,0 P,0,235681,236131,A C,0,235681,236131,159,215,238 R,4,235681,236131,3 M,1,235681,236131,481,182,400,217
Sprite,Foreground,Centre,"sb/flowerEffect.png",0,0 S,0,235681,236131,0.3,0.45 F,2,235681,236131,1,0 P,0,235681,236131,A C,0,235681,236131,192,227,232 R,4,235681,236131,3,0 M,1,235681,236131,481,182,476,252
Sprite,Foreground,Centre,"sb/flowerEffect.png",0,0 S,0,236018,236468,0.3,0.45 F,2,236018,236468,1,0 P,0,236018,236468,A C,0,236018,236468,252,238,241 R,4,236018,236468,3,1 M,1,236018,236468,481,182,565,157
Sprite,Foreground,Centre,"sb/flowerEffect.png",0,0 S,0,236018,236468,0.3,0.45 F,2,236018,236468,1,0 P,0,236018,236468,A C,0,236018,236468,241,159,160 R,4,236018,236468,1,2 M,1,236018,236468,481,182,522,122
Sprite,Foreground,Centre,"sb/flowerEffect.png",0,0 S,0,236018,236468,0.3,0.45 F,2,236018,236468,1,0 P,0,236018,236468,A C,0,236018,236468,159,215,238 R,4,236018,236468,4,2 M,1,236018,236468,481,182,487,217
Sprite,Foreground,Centre,"sb/flowerEffect.png",0,0 S,0,236018,236468,0.3,0.45 F,2,236018,236468,1,0 P,0,236018,236468,A C,0,236018,236468,192,227,232 R,4,236018,236468,3,1 M,1,236018,236468,481,182,464,252
Sprite,Foreground,Centre,"sb/flowerEffect.png",0,0 S,0,236187,236637,0.3,0.45 F,2,236187,236637,1,0 P,0,236187,236637,A C,0,236187,236637,252,238,241 R,4,236187,236637,3,5 M,1,236187,236637,278,115,281,90
Sprite,Foreground,Centre,"sb/flowerEffect.png",0,0 S,0,236187,236637,0.3,0.45 F,2,236187,236637,1,0 P,0,236187,236637,A C,0,236187,236637,241,159,160 R,4,236187,236637,2,4 M,1,236187,236637,278,115,248,55
Sprite,Foreground,Centre,"sb/flowerEffect.png",0,0 S,0,236187,236637,0.3,0.45 F,2,236187,236637,1,0 P,0,236187,236637,A C,0,236187,236637,159,215,238 R,4,236187,236637,3,2 M,1,236187,236637,278,115,233,150
Sprite,Foreground,Centre,"sb/flowerEffect.png",0,0 S,0,236187,236637,0.3,0.45 F,2,236187,236637,1,0 P,0,236187,236637,A C,0,236187,236637,192,227,232 R,4,236187,236637,3,0 M,1,236187,236637,278,115,269,185
Sprite,Foreground,Centre,"sb/flowerEffect.png",0,0 S,0,236356,236806,0.3,0.45 F,2,236356,236806,1,0 P,0,236356,236806,A C,0,236356,236806,252,238,241 R,4,236356,236806,3 M,1,236356,236806,434,280,426,255
Sprite,Foreground,Centre,"sb/flowerEffect.png",0,0 S,0,236356,236806,0.3,0.45 F,2,236356,236806,1,0 P,0,236356,236806,A C,0,236356,236806,241,159,160 R,4,236356,236806,1,2 M,1,236356,236806,434,280,465,220
Sprite,Foreground,Centre,"sb/flowerEffect.png",0,0 S,0,236356,236806,0.3,0.45 F,2,236356,236806,1,0 P,0,236356,236806,A C,0,236356,236806,159,215,238 R,4,236356,236806,4,1 M,1,236356,236806,434,280,352,315
Sprite,Foreground,Centre,"sb/flowerEffect.png",0,0 S,0,236356,236806,0.3,0.45 F,2,236356,236806,1,0 P,0,236356,236806,A C,0,236356,236806,192,227,232 R,4,236356,236806,4,1 M,1,236356,236806,434,280,482,350
Sprite,Foreground,Centre,"sb/flowerEffect.png",0,0 S,0,236524,236974,0.3,0.45 F,2,236524,236974,1,0 P,0,236524,236974,A C,0,236524,236974,252,238,241 R,4,236524,236974,3,2 M,1,236524,236974,368,72,399,47
Sprite,Foreground,Centre,"sb/flowerEffect.png",0,0 S,0,236524,236974,0.3,0.45 F,2,236524,236974,1,0 P,0,236524,236974,A C,0,236524,236974,241,159,160 R,4,236524,236974,0,2 M,1,236524,236974,368,72,322,12
Sprite,Foreground,Centre,"sb/flowerEffect.png",0,0 S,0,236524,236974,0.3,0.45 F,2,236524,236974,1,0 P,0,236524,236974,A C,0,236524,236974,159,215,238 R,4,236524,236974,4,2 M,1,236524,236974,368,72,328,107
Sprite,Foreground,Centre,"sb/flowerEffect.png",0,0 S,0,236524,236974,0.3,0.45 F,2,236524,236974,1,0 P,0,236524,236974,A C,0,236524,236974,192,227,232 R,4,236524,236974,4,0 M,1,236524,236974,368,72,334,142
Sprite,Foreground,Centre,"sb/flowerEffect.png",0,0 S,0,236693,237143,0.3,0.45 F,2,236693,237143,1,0 P,0,236693,237143,A C,0,236693,237143,252,238,241 R,4,236693,237143,3,4 M,1,236693,237143,224,218,224,193
Sprite,Foreground,Centre,"sb/flowerEffect.png",0,0 S,0,236693,237143,0.3,0.45 F,2,236693,237143,1,0 P,0,236693,237143,A C,0,236693,237143,241,159,160 R,4,236693,237143,3,5 M,1,236693,237143,224,218,267,158
Sprite,Foreground,Centre,"sb/flowerEffect.png",0,0 S,0,236693,237143,0.3,0.45 F,2,236693,237143,1,0 P,0,236693,237143,A C,0,236693,237143,159,215,238 R,4,236693,237143,3,2 M,1,236693,237143,224,218,155,253
Sprite,Foreground,Centre,"sb/flowerEffect.png",0,0 S,0,236693,237143,0.3,0.45 F,2,236693,237143,1,0 P,0,236693,237143,A C,0,236693,237143,192,227,232 R,4,236693,237143,3,0 M,1,236693,237143,224,218,235,288
Sprite,Foreground,Centre,"sb/flowerEffect.png",0,0 S,0,287423,288041,0.3,0.45 F,2,287423,288041,1,0 P,0,287423,288041,A C,0,287423,288041,252,238,241 R,4,287423,288041,3,2 M,1,287423,288041,314,419,313,394
Sprite,Foreground,Centre,"sb/flowerEffect.png",0,0 S,0,287423,288041,0.3,0.45 F,2,287423,288041,1,0 P,0,287423,288041,A C,0,287423,288041,241,159,160 R,4,287423,288041,0,3 M,1,287423,288041,314,419,332,359
Sprite,Foreground,Centre,"sb/flowerEffect.png",0,0 S,0,287423,288041,0.3,0.45 F,2,287423,288041,1,0 P,0,287423,288041,A C,0,287423,288041,159,215,238 R,4,287423,288041,4,2 M,1,287423,288041,314,419,233,454
Sprite,Foreground,Centre,"sb/flowerEffect.png",0,0 S,0,287423,288041,0.3,0.45 F,2,287423,288041,1,0 P,0,287423,288041,A C,0,287423,288041,192,227,232 R,4,287423,288041,3,1 M,1,287423,288041,314,419,285,489
Sprite,Foreground,Centre,"sb/flowerEffect.png",0,0 S,0,287760,288210,0.3,0.45 F,2,287760,288210,1,0 P,0,287760,288210,A C,0,287760,288210,252,238,241 R,4,287760,288210,3,1 M,1,287760,288210,252,169,266,144
Sprite,Foreground,Centre,"sb/flowerEffect.png",0,0 S,0,287760,288210,0.3,0.45 F,2,287760,288210,1,0 P,0,287760,288210,A C,0,287760,288210,241,159,160 R,4,287760,288210,1,4 M,1,287760,288210,252,169,283,109
Sprite,Foreground,Centre,"sb/flowerEffect.png",0,0 S,0,287760,288210,0.3,0.45 F,2,287760,288210,1,0 P,0,287760,288210,A C,0,287760,288210,159,215,238 R,4,287760,288210,3,1 M,1,287760,288210,252,169,284,204
Sprite,Foreground,Centre,"sb/flowerEffect.png",0,0 S,0,287760,288210,0.3,0.45 F,2,287760,288210,1,0 P,0,287760,288210,A C,0,287760,288210,192,227,232 R,4,287760,288210,4,0 M,1,287760,288210,252,169,241,239
Sprite,Foreground,Centre,"sb/flowerEffect.png",0,0 S,0,287929,288379,0.3,0.45 F,2,287929,288379,1,0 P,0,287929,288379,A C,0,287929,288379,252,238,241 R,4,287929,288379,3,4 M,1,287929,288379,451,273,465,248
Sprite,Foreground,Centre,"sb/flowerEffect.png",0,0 S,0,287929,288379,0.3,0.45 F,2,287929,288379,1,0 P,0,287929,288379,A C,0,287929,288379,241,159,160 R,4,287929,288379,1,5 M,1,287929,288379,451,273,437,213
Sprite,Foreground,Centre,"sb/flowerEffect.png",0,0 S,0,287929,288379,0.3,0.45 F,2,287929,288379,1,0 P,0,287929,288379,A C,0,287929,288379,159,215,238 R,4,287929,288379,5,2 M,1,287929,288379,451,273,475,308
Sprite,Foreground,Centre,"sb/flowerEffect.png",0,0 S,0,287929,288379,0.3,0.45 F,2,287929,288379,1,0 P,0,287929,288379,A C,0,287929,288379,192,227,232 R,4,287929,288379,4,1 M,1,287929,288379,451,273,467,343
Sprite,Foreground,Centre,"sb/flowerEffect.png",0,0 S,0,288097,288547,0.3,0.45 F,2,288097,288547,1,0 P,0,288097,288547,A C,0,288097,288547,252,238,241 R,4,288097,288547,3,2 M,1,288097,288547,236,377,322,352
Sprite,Foreground,Centre,"sb/flowerEffect.png",0,0 S,0,288097,288547,0.3,0.45 F,2,288097,288547,1,0 P,0,288097,288547,A C,0,288097,288547,241,159,160 R,4,288097,288547,3 M,1,288097,288547,236,377,289,317
Sprite,Foreground,Centre,"sb/flowerEffect.png",0,0 S,0,288097,288547,0.3,0.45 F,2,288097,288547,1,0 P,0,288097,288547,A C,0,288097,288547,159,215,238 R,4,288097,288547,3,2 M,1,288097,288547,236,377,247,412
Sprite,Foreground,Centre,"sb/flowerEffect.png",0,0 S,0,288097,288547,0.3,0.45 F,2,288097,288547,1,0 P,0,288097,288547,A C,0,288097,288547,192,227,232 R,4,288097,288547,4,0 M,1,288097,288547,236,377,278,447
Sprite,Foreground,Centre,"sb/flowerEffect.png",0,0 S,0,288266,288716,0.3,0.45 F,2,288266,288716,1,0 P,0,288266,288716,A C,0,288266,288716,252,238,241 R,4,288266,288716,3,5 M,1,288266,288716,395,167,486,142
Sprite,Foreground,Centre,"sb/flowerEffect.png",0,0 S,0,288266,288716,0.3,0.45 F,2,288266,288716,1,0 P,0,288266,288716,A C,0,288266,288716,241,159,160 R,4,288266,288716,1,3 M,1,288266,288716,395,167,346,107
Sprite,Foreground,Centre,"sb/flowerEffect.png",0,0 S,0,288266,288716,0.3,0.45 F,2,288266,288716,1,0 P,0,288266,288716,A C,0,288266,288716,159,215,238 R,4,288266,288716,5,3 M,1,288266,288716,395,167,408,202
Sprite,Foreground,Centre,"sb/flowerEffect.png",0,0 S,0,288266,288716,0.3,0.45 F,2,288266,288716,1,0 P,0,288266,288716,A C,0,288266,288716,192,227,232 R,4,288266,288716,4,1 M,1,288266,288716,395,167,406,237
Sprite,Foreground,Centre,"sb/flowerEffect.png",0,0 S,0,288434,288884,0.3,0.45 F,2,288434,288884,1,0 P,0,288434,288884,A C,0,288434,288884,252,238,241 R,4,288434,288884,3,1 M,1,288434,288884,506,375,583,350
Sprite,Foreground,Centre,"sb/flowerEffect.png",0,0 S,0,288434,288884,0.3,0.45 F,2,288434,288884,1,0 P,0,288434,288884,A C,0,288434,288884,241,159,160 R,4,288434,288884,2,3 M,1,288434,288884,506,375,514,315
Sprite,Foreground,Centre,"sb/flowerEffect.png",0,0 S,0,288434,288884,0.3,0.45 F,2,288434,288884,1,0 P,0,288434,288884,A C,0,288434,288884,159,215,238 R,4,288434,288884,4,3 M,1,288434,288884,506,375,481,410
Sprite,Foreground,Centre,"sb/flowerEffect.png",0,0 S,0,288434,288884,0.3,0.45 F,2,288434,288884,1,0 P,0,288434,288884,A C,0,288434,288884,192,227,232 R,4,288434,288884,4,0 M,1,288434,288884,506,375,470,445
Sprite,Foreground,Centre,"sb/flowerEffect.png",0,0 S,0,288603,289221,0.3,0.45 F,2,288603,289221,1,0 P,0,288603,289221,A C,0,288603,289221,252,238,241 R,4,288603,289221,3,2 M,1,288603,289221,330,232,414,207
Sprite,Foreground,Centre,"sb/flowerEffect.png",0,0 S,0,288603,289221,0.3,0.45 F,2,288603,289221,1,0 P,0,288603,289221,A C,0,288603,289221,241,159,160 R,4,288603,289221,0,4 M,1,288603,289221,330,232,394,172
Sprite,Foreground,Centre,"sb/flowerEffect.png",0,0 S,0,288603,289221,0.3,0.45 F,2,288603,289221,1,0 P,0,288603,289221,A C,0,288603,289221,159,215,238 R,4,288603,289221,5,2 M,1,288603,289221,330,232,314,267
Sprite,Foreground,Centre,"sb/flowerEffect.png",0,0 S,0,288603,289221,0.3,0.45 F,2,288603,289221,1,0 P,0,288603,289221,A C,0,288603,289221,192,227,232 R,4,288603,289221,3,1 M,1,288603,289221,330,232,362,302
Sprite,Foreground,Centre,"sb/flowerEffect.png",0,0 S,0,288940,289390,0.3,0.45 F,2,288940,289390,1,0 P,0,288940,289390,A C,0,288940,289390,252,238,241 R,4,288940,289390,3,2 M,1,288940,289390,118,440,105,415
Sprite,Foreground,Centre,"sb/flowerEffect.png",0,0 S,0,288940,289390,0.3,0.45 F,2,288940,289390,1,0 P,0,288940,289390,A C,0,288940,289390,241,159,160 R,4,288940,289390,3,2 M,1,288940,289390,118,440,155,380
Sprite,Foreground,Centre,"sb/flowerEffect.png",0,0 S,0,288940,289390,0.3,0.45 F,2,288940,289390,1,0 P,0,288940,289390,A C,0,288940,289390,159,215,238 R,4,288940,289390,5,1 M,1,288940,289390,118,440,118,475
Sprite,Foreground,Centre,"sb/flowerEffect.png",0,0 S,0,288940,289390,0.3,0.45 F,2,288940,289390,1,0 P,0,288940,289390,A C,0,288940,289390,192,227,232 R,4,288940,289390,3,1 M,1,288940,289390,118,440,78,510
//Storyboard Sound Samples

[TimingPoints]
401,337.078651685393,4,2,1,50,1,0
401,-200,4,2,1,50,0,0
653,-200,4,2,1,5,0,0
738,-200,4,2,1,30,0,0
1327,-200,4,2,1,5,0,0
1412,-200,4,2,1,30,0,0
1665,-200,4,2,1,5,0,0
1749,-200,4,2,1,30,0,0
2002,-200,4,2,1,5,0,0
2086,-200,4,2,1,30,0,0
2339,-200,4,2,1,5,0,0
2423,-500,4,2,1,30,0,0
2507,-200,4,2,1,5,0,0
3097,-200,4,2,1,30,0,0
3266,-200,4,2,1,5,0,0
3350,-200,4,2,1,30,0,0
3518,-200,4,2,1,5,0,0
3603,-500,4,2,1,30,0,0
3687,-200,4,2,1,5,0,0
4108,-200,4,2,1,30,0,0
4361,-200,4,2,1,5,0,0
4445,-200,4,2,1,30,0,0
4614,-200,4,2,1,5,0,0
4698,-200,4,2,1,30,0,0
4867,-200,4,2,1,5,0,0
4951,-200,4,2,1,30,0,0
5120,-76.9230769230769,4,2,1,70,0,0
5204,-200,4,2,1,5,0,0
5794,-111.111111111111,4,2,1,70,0,0
16580,-100,4,2,1,80,0,1
21974,-166.666666666667,4,2,1,70,0,0
22058,-166.666666666667,4,2,1,40,0,0
24165,-83.3333333333333,4,2,1,70,0,0
24670,-111.111111111111,4,2,1,70,0,0
27704,-83.3333333333333,4,2,1,70,0,0
27957,-83.3333333333333,4,2,1,5,0,0
28041,-111.111111111111,4,2,1,70,0,0
29052,-83.3333333333333,4,2,1,70,0,0
29305,-83.3333333333333,4,2,1,5,0,0
29389,-111.111111111111,4,2,1,70,0,0
30063,-125,4,2,1,70,0,0
32760,-111.111111111111,4,2,1,70,0,1
35457,-125,4,2,1,70,0,0
41187,-83.3333333333333,4,2,1,70,0,0
41440,-83.3333333333333,4,2,1,5,0,0
41524,-111.111111111111,4,2,1,70,0,0
42535,-83.3333333333333,4,2,1,70,0,0
42788,-83.3333333333333,4,2,1,5,0,0
42872,-111.111111111111,4,2,1,70,0,0
43546,-125,4,2,1,70,0,0
46243,-111.111111111111,4,2,1,70,0,1
48940,-125,4,2,1,60,0,0
51889,-125,4,2,1,5,0,0
51974,-125,4,2,1,60,0,0
57283,-125,4,2,1,5,0,0
57368,-125,4,2,1,60,0,0
64445,-111.111111111111,4,2,1,70,0,0
65035,-66.6666666666667,4,2,1,5,0,0
65120,-111.111111111111,4,2,1,70,0,0
69249,-111.111111111111,4,2,1,5,0,0
69333,-111.111111111111,4,2,1,70,0,0
71693,-95.2380952380952,4,2,1,90,0,1
87872,-100,4,2,1,90,0,1
90738,-117.647058823529,4,2,1,90,0,1
93434,-95.2380952380951,4,2,1,90,0,1
96131,-111.111111111111,4,2,1,70,0,0
111215,-111.111111111111,4,2,1,5,0,0
111299,-111.111111111111,4,2,1,70,0,0
112311,-133.333333333333,4,2,1,60,0,0
114502,-83.3333333333333,4,2,1,70,0,0
115007,-111.111111111111,4,2,1,70,0,0
118041,-83.3333333333333,4,2,1,70,0,0
118294,-83.3333333333333,4,2,1,5,0,0
118378,-111.111111111111,4,2,1,70,0,0
119389,-83.3333333333333,4,2,1,70,0,0
119642,-83.3333333333333,4,2,1,5,0,0
119726,-111.111111111111,4,2,1,70,0,0
120400,-125,4,2,1,70,0,0
123097,-111.111111111111,4,2,1,70,0,1
125794,-125,4,2,1,70,0,0
131524,-83.3333333333333,4,2,1,70,0,0
131777,-83.3333333333333,4,2,1,5,0,0
131861,-111.111111111111,4,2,1,70,0,0
132872,-83.3333333333333,4,2,1,70,0,0
133125,-83.3333333333333,4,2,1,5,0,0
133209,-111.111111111111,4,2,1,70,0,0
133883,-125,4,2,1,70,0,0
136580,-111.111111111111,4,2,1,70,0,1
139277,-125,4,2,1,60,0,0
142226,-125,4,2,1,5,0,0
142311,-125,4,2,1,60,0,0
147620,-125,4,2,1,5,0,0
147705,-125,4,2,1,60,0,0
154782,-111.111111111111,4,2,1,70,0,0
155372,-66.6666666666667,4,2,1,5,0,0
155457,-111.111111111111,4,2,1,70,0,0
159586,-111.111111111111,4,2,1,5,0,0
159670,-111.111111111111,4,2,1,70,0,0
162030,-95.2380952380952,4,2,1,90,0,1
178209,-100,4,2,1,90,0,1
181075,-117.647058823529,4,2,1,90,0,1
183771,-95.2380952380951,4,2,1,90,0,1
186131,-133.333333333333,4,2,1,90,0,1
186468,-111.111111111111,4,2,1,70,0,0
196917,-200,4,2,1,40,0,0
197170,-200,4,2,1,5,0,0
197254,-117.647058823529,4,2,1,40,0,0
199951,-117.647058823529,4,2,1,60,0,0
202311,-200,4,2,1,60,0,0
202563,-200,4,2,1,5,0,0
202648,-100,4,2,1,80,0,0
207704,-200,4,2,1,80,0,0
207957,-200,4,2,1,5,0,0
208041,-100,4,2,1,80,0,0
213097,-200,4,2,1,80,0,0
213350,-200,4,2,1,5,0,0
213434,-95.2380952380952,4,2,1,90,0,1
223884,-100,4,2,1,90,0,1
224221,-133.333333333333,4,2,1,5,0,0
224895,-133.333333333333,4,2,1,50,0,0
225063,-133.333333333333,4,2,1,5,0,0
225738,-111.111111111111,4,2,1,80,0,0
229445,-153.846153846153,4,2,1,80,0,0
229614,-153.846153846153,4,2,1,60,0,0
230962,-133.333333333333,4,2,1,80,0,0
232142,-95.2380952380951,4,2,1,90,0,1
242929,-100,4,2,1,90,0,1
245794,-117.647058823529,4,2,1,90,0,1
248490,-95.2380952380951,4,2,1,90,0,1
251187,-100,4,2,1,80,0,0
283547,-95.2380952380952,4,2,1,90,0,1
286327,-95.2380952380952,4,2,1,50,0,1
286580,-95.2380952380952,4,2,1,90,0,1
286665,-95.2380952380952,4,2,1,50,0,1
286917,-95.2380952380952,4,2,1,90,0,1
289614,-153.846153846153,4,2,1,90,0,0
289698,-153.846153846153,4,2,1,30,0,0
290288,-153.846153846153,4,2,1,25,0,0
291636,-153.846153846153,4,2,1,20,0,0
292985,-153.846153846153,4,2,1,15,0,0

[Colours]
Combo1 : 91,91,255
Combo2 : 255,142,255
Combo3 : 238,0,119
Combo4 : 145,34,255

[HitObjects]
95,306,401,6,0,P|116:296|155:281,1,63.75,2|0,0:0|0:0,0:0:0:0:
225,314,738,2,0,L|218:349,2,21.25,2|2|2,0:0|0:0|0:0,0:0:0:0:
301,252,1075,2,0,P|324:261|362:279,1,63.75,2|0,0:0|0:0,0:0:0:0:
429,318,1412,2,0,P|435:290|448:249,1,63.75,2|0,0:0|0:0,0:0:0:0:
493,192,1749,6,0,P|486:164|475:125,1,63.75,2|0,0:0|0:0,0:0:0:0:
411,84,2086,2,0,L|343:61,1,63.75,2|0,0:0|0:0,0:0:0:0:
284,131,2423,6,0,L|226:150,1,59.5,10|0,0:1|0:0,0:0:0:0:
227,149,3097,6,0,P|218:123|209:95,1,42.5,2|0,0:0|0:0,0:0:0:0:
142,77,3350,2,0,P|135:97|128:117,1,42.5,2|0,0:0|0:0,0:0:0:0:
65,171,3603,6,0,P|71:191|78:211,1,42.5,2|0,0:0|0:0,0:0:0:0:
78,211,4108,6,0,P|110:220|154:235,1,63.75,2|0,0:0|0:0,0:0:0:0:
205,281,4445,6,0,L|260:265,1,42.5,2|0,0:0|0:0,0:0:0:0:
322,245,4698,2,0,L|377:229,1,42.5,2|0,0:0|0:0,0:0:0:0:
437,209,4951,1,2,3:2:0:0:
233,364,5120,6,0,P|159:356|289:260,1,386.749982295991,12|0,0:0|0:0,0:0:0:0:
314,314,5794,6,0,P|350:328|398:348,1,76.4999976654053,6|0,3:2|0:0,0:0:0:0:
442,174,6131,1,10,0:0:0:0:
442,174,6215,1,2,0:0:0:0:
442,174,6299,1,2,0:0:0:0:
275,231,6468,1,2,3:2:0:0:
438,272,6636,2,0,P|474:258|522:238,1,76.4999976654053,2|8,0:0|0:0,0:0:0:0:
357,92,6974,6,0,L|343:186,1,76.4999976654053,2|0,0:0|3:2,0:0:0:0:
249,317,7311,2,0,L|237:241,1,76.4999976654053,2|8,0:0|0:0,0:0:0:0:
148,88,7648,2,0,L|134:182,1,76.4999976654053,2|0,0:0|3:2,0:0:0:0:
43,306,7985,1,2,0:0:0:0:
43,306,8153,2,0,P|79:310|118:278,1,76.4999976654053,10|2,0:0|0:0,0:0:0:0:
148,88,8490,6,0,P|112:84|73:116,1,76.4999976654053,4|0,3:2|0:0,0:0:0:0:
224,235,8827,2,0,P|233:198|245:160,1,76.4999976654053,10|0,0:0|1:2,0:0:0:0:
275,131,9080,1,0,1:2:0:0:
275,131,9165,2,0,P|265:94|254:56,1,76.4999976654053,0|0,3:2|0:0,0:0:0:0:
389,197,9502,1,8,0:0:0:0:
447,36,9670,6,0,P|412:50|377:67,1,76.4999976654053,2|0,0:0|3:2,0:0:0:0:
491,198,10007,2,0,L|510:112,1,76.4999976654053,2|8,0:0|0:0,0:0:0:0:
346,245,10344,2,0,L|327:159,1,76.4999976654053,2|0,0:0|3:2,0:0:0:0:
469,309,10681,1,2,0:0:0:0:
330,364,10850,2,0,P|295:349|260:333,1,76.4999976654053,8|0,0:0|0:0,0:0:0:0:
153,184,11187,6,0,P|165:222|179:267,1,76.4999976654053,6|0,3:2|0:0,0:0:0:0:
90,384,11524,1,10,0:0:0:0:
90,384,11608,1,2,0:0:0:0:
90,384,11693,1,2,0:0:0:0:
260,333,11861,1,2,3:2:0:0:
84,283,12030,2,0,P|71:246|60:210,1,76.4999976654053,2|8,0:0|0:0,0:0:0:0:
207,119,12367,6,0,P|170:98|124:109,1,76.4999976654053,2|0,0:0|3:2,0:0:0:0:
207,277,12704,2,0,P|244:279|276:259,1,76.4999976654053,2|8,0:0|0:0,0:0:0:0:
368,99,13041,2,0,P|355:135|344:171,1,76.4999976654053,2|0,0:0|3:2,0:0:0:0:
431,336,13378,1,2,0:0:0:0:
431,336,13547,2,0,P|419:299|407:263,1,76.4999976654053,10|2,0:0|0:0,0:0:0:0:
251,384,13884,6,0,L|268:300,1,76.4999976654053,4|0,3:2|0:0,0:0:0:0:
184,157,14221,2,0,P|145:151|106:180,1,76.4999976654053,10|0,0:0|1:2,0:0:0:0:
91,206,14474,1,0,1:2:0:0:
91,206,14558,2,0,L|75:280,1,76.4999976654053,0|0,3:2|0:0,0:0:0:0:
1,93,14895,1,8,0:0:0:0:
166,237,15063,6,0,P|227:232|262:144,1,152.999995330811,14|2,0:0|0:0,0:0:0:0:
170,4,15569,1,10,0:0:0:0:
349,150,15738,2,0,B|431:149|403:85|490:82,1,152.999995330811,10|2,0:0|0:0,0:0:0:0:
324,10,16243,2,0,P|313:46|301:97,1,76.4999976654053,14|0,0:0|0:0,0:0:0:0:
359,282,16580,6,0,P|399:265|448:243,1,85,14|0,0:0|1:2,0:0:0:0:
304,83,16917,2,0,P|265:65|226:49,1,85,10|0,0:0|1:2,0:0:0:0:
154,237,17254,5,10,0:0:0:0:
354,149,17423,1,2,1:2:0:0:
149,61,17592,1,8,3:2:0:0:
238,259,17760,6,0,P|180:323|98:305,1,170,14|2,0:0|0:0,0:0:0:0:
11,142,18266,1,14,0:0:0:0:
248,180,18434,2,0,P|274:256|307:358,1,170,10|2,0:0|0:0,0:0:0:0:
66,240,18940,2,0,P|76:200|95:144,1,85,10|0,0:0|0:0,0:0:0:0:
262,66,19277,6,0,P|221:40|169:51,1,85,14|0,0:0|1:2,0:0:0:0:
190,237,19614,2,0,P|231:263|283:252,1,85,10|0,0:0|1:2,0:0:0:0:
427,102,19951,5,10,0:0:0:0:
248,180,20120,1,2,1:2:0:0:
453,246,20288,1,8,3:2:0:0:
258,98,20457,6,0,P|187:120|169:212,1,170,14|2,0:0|0:0,0:0:0:0:
369,273,20962,1,14,0:0:0:0:
163,367,21131,2,0,B|218:385|218:385|324:337,1,170,10|2,0:0|0:0,0:0:0:0:
424,130,21636,2,0,P|438:171|458:232,1,85,10|0,0:0|0:0,0:0:0:0:
215,298,21974,6,0,B|180:222|240:167|240:167|306:104|247:1|247:1|125:42|163:151,1,509.999984436036,4|0,3:2|0:0,0:0:0:0:
292,239,23827,5,2,0:0:0:0:
304,234,23912,1,2,0:0:0:0:
316,230,23996,1,2,0:0:0:0:
123,350,24165,6,0,P|94:298|186:213,1,203.999993774414,12|0,3:2|0:0,0:0:0:0:
292,349,24670,2,0,P|327:363|376:381,1,76.4999976654053,2|0,3:2|0:0,0:0:0:0:
422,187,25007,2,0,P|386:200|350:214,1,76.4999976654053,8|2,0:0|0:0,0:0:0:0:
451,354,25344,1,0,3:2:0:0:
451,354,25513,1,0,3:2:0:0:
266,234,25681,2,0,P|275:196|290:145,1,76.4999976654053,8|0,0:0|0:0,0:0:0:0:
428,78,26018,5,2,3:2:0:0:
428,78,26187,2,0,P|386:64|351:53,1,76.4999976654053,2|8,0:0|0:0,0:0:0:0:
477,211,26524,2,0,P|435:224|400:236,1,76.4999976654053,2|0,3:2|0:0,0:0:0:0:
468,67,26861,2,0,P|394:45|307:18,1,152.999995330811,2|0,3:2|0:0,0:0:0:0:
249,170,27367,1,2,3:2:0:0:
249,170,27704,6,0,P|232:97|157:98,1,152.999995330811,14|0,0:0|0:0,0:0:0:0:
111,152,28041,2,0,P|123:187|138:237,1,76.4999976654053,2|0,0:0|3:2,0:0:0:0:
270,90,28378,2,0,P|281:53|293:17,1,76.4999976654053,14|0,0:0|0:0,0:0:0:0:
393,187,28715,1,2,3:2:0:0:
393,187,29052,6,0,P|378:258|305:266,1,152.999995330811,14|0,0:0|0:0,0:0:0:0:
245,221,29389,5,2,0:0:0:0:
321,351,29558,1,2,3:2:0:0:
126,254,29726,1,14,0:0:0:0:
331,100,30063,5,6,3:2:0:0:
331,100,30232,2,0,P|319:133|306:180,1,68,2|8,0:0|0:0,0:0:0:0:
200,54,30569,1,2,0:0:0:0:
150,122,30738,1,2,3:2:0:0:
150,122,30906,2,0,P|161:155|175:202,1,68,2|8,0:0|0:0,0:0:0:0:
279,283,31243,1,2,0:0:0:0:
221,351,31412,5,2,3:2:0:0:
221,351,31580,2,0,P|182:334|141:318,1,68,2|8,0:0|0:0,0:0:0:0:
249,204,31917,2,0,P|317:207|360:280,1,136,2|0,0:0|0:0,0:0:0:0:
463,355,32423,2,0,P|472:323|488:277,1,68,14|0,0:0|0:0,0:0:0:0:
335,168,32760,5,10,0:0:0:0:
383,334,32929,1,2,3:2:0:0:
414,138,33097,5,8,0:0:0:0:
304,310,33266,1,2,3:2:0:0:
473,196,33434,5,10,0:0:0:0:
270,111,33603,1,2,3:2:0:0:
431,265,33771,5,8,0:0:0:0:
347,87,33940,1,2,3:2:0:0:
254,233,34108,6,0,P|288:221|326:208,1,76.4999976654053,8|4,3:0|3:0,0:0:0:0:
213,54,34445,2,0,P|126:97|182:199,1,229.499992996216,14|0,0:0|3:2,0:0:0:0:
288,28,35120,1,8,0:0:0:0:
288,28,35457,6,0,P|299:62|311:100,1,68,6|0,3:2|0:0,0:0:0:0:
458,155,35794,2,0,P|447:187|437:219,1,68,10|0,0:0|0:0,0:0:0:0:
362,333,36131,2,0,P|333:351|300:351,1,68,2|0,3:2|3:2,0:0:0:0:
220,204,36468,2,0,P|248:185|281:185,1,68,10|0,0:0|0:0,0:0:0:0:
113,321,36805,6,0,P|124:256|143:169,1,136,2|8,3:2|0:0,0:0:0:0:
273,96,37311,2,0,P|282:128|296:182,1,68,2|2,3:2|0:0,0:0:0:0:
148,21,37648,1,2,3:2:0:0:
307,82,37816,1,10,0:0:0:0:
147,154,37985,1,2,0:0:0:0:
276,11,38153,6,0,P|334:9|383:83,1,136,2|8,3:2|0:0,0:0:0:0:
267,188,38659,2,0,P|298:174|342:157,1,68,2|0,0:0|3:2,0:0:0:0:
488,239,38996,1,0,3:2:0:0:
424,66,39165,2,0,P|414:98|401:152,1,68,8|0,0:0|0:0,0:0:0:0:
315,264,39502,6,0,B|235:271|265:206|170:215,1,136,2|8,3:2|0:0,0:0:0:0:
85,118,40007,2,0,P|103:185|124:271,1,136,2|0,3:2|3:2,0:0:0:0:
9,371,40513,2,0,P|17:339|32:295,1,68,8|0,0:0|0:0,0:0:0:0:
149,160,40850,1,0,3:2:0:0:
149,160,41187,6,0,L|314:201,1,152.999995330811,14|0,0:0|0:0,0:0:0:0:
374,219,41524,2,0,P|388:256|407:311,1,76.4999976654053,2|0,3:2|3:2,0:0:0:0:
298,117,41861,1,10,0:0:0:0:
247,293,42030,1,2,1:0:0:0:
247,293,42114,1,0,1:0:0:0:
247,293,42198,1,0,3:2:0:0:
247,293,42535,6,0,P|192:237|113:265,1,152.999995330811,14|0,0:0|0:0,0:0:0:0:
78,314,42872,5,2,0:0:0:0:
11,152,43041,1,0,3:2:0:0:
174,313,43209,1,14,0:0:0:0:
231,81,43547,5,6,3:2:0:0:
231,81,43715,2,0,P|262:68|305:52,1,68,2|8,0:0|0:0,0:0:0:0:
156,184,44052,1,2,0:0:0:0:
231,241,44221,1,2,3:2:0:0:
231,241,44389,2,0,P|241:205|255:163,1,68,2|8,0:0|0:0,0:0:0:0:
114,319,44726,1,2,0:0:0:0:
43,264,44895,5,2,3:2:0:0:
43,264,45063,2,0,P|32:228|19:186,1,68,2|8,0:0|0:0,0:0:0:0:
114,72,45400,2,0,P|152:126|220:114,1,136,2|0,0:0|0:0,0:0:0:0:
343,12,45906,2,0,P|332:44|323:77,1,68,14|0,0:0|0:0,0:0:0:0:
465,245,46243,5,10,0:0:0:0:
407,73,46412,1,2,3:2:0:0:
309,219,46580,5,8,0:0:0:0:
496,158,46749,1,2,3:2:0:0:
273,145,46917,5,10,0:0:0:0:
465,245,47086,1,2,3:2:0:0:
262,285,47254,5,8,0:0:0:0:
383,113,47423,1,2,3:2:0:0:
447,286,47592,6,0,P|408:269|370:253,1,76.4999976654053,8|4,3:0|3:0,0:0:0:0:
245,102,47929,2,0,P|280:87|315:71,1,76.4999976654053,14|0,0:0|0:0,0:0:0:0:
153,215,48266,1,8,0:0:0:0:
209,26,48434,1,8,0:3:0:0:
281,174,48603,1,6,0:3:0:0:
281,174,48940,6,0,P|344:189|428:212,1,136,6|0,3:2|3:2,0:0:0:0:
296,261,49445,1,2,3:2:0:0:
378,115,49614,2,0,P|443:97|509:81,1,136,10|0,0:0|3:2,0:0:0:0:
313,34,50120,1,10,1:3:0:0:
313,34,50204,1,4,1:3:0:0:
313,34,50288,6,0,P|298:83|282:145,2,102,2|0|2,3:2|3:2|3:2,0:0:0:0:
443,133,50962,2,0,L|357:109,1,68,10|2,0:0|0:0,0:0:0:0:
265,230,51299,2,0,L|351:206,1,68,2|2,3:2|0:0,0:0:0:0:
201,106,51636,6,0,P|186:155|170:217,1,102,6|0,3:1|0:0,0:0:0:0:
115,256,51974,2,0,P|125:289|141:342,1,68,4|2,1:2|3:2,0:0:0:0:
0,155,52311,2,0,P|52:131|102:192,1,136,10|0,0:0|3:2,0:0:0:0:
30,327,52816,1,10,1:3:0:0:
30,327,52900,1,4,1:3:0:0:
30,327,52985,6,0,P|76:309|150:285,2,102,2|0|2,3:2|3:2|3:2,0:0:0:0:
101,180,53659,2,0,L|180:201,1,68,10|2,0:0|0:0,0:0:0:0:
236,319,53996,2,0,L|301:301,1,68,2|2,3:2|0:0,0:0:0:0:
413,198,54333,6,0,P|396:262|375:357,1,136,6|2,3:2|3:2,0:0:0:0:
506,230,54839,1,2,3:2:0:0:
327,168,55007,2,0,P|257:193|187:221,1,136,8|2,0:0|3:2,0:0:0:0:
305,67,55513,1,8,1:3:0:0:
305,67,55597,1,4,1:3:0:0:
305,67,55681,6,0,B|349:92|349:92|413:80,2,102,2|0|0,3:2|3:2|3:2,0:0:0:0:
186,0,56356,2,0,P|176:33|165:75,1,68,10|0,0:0|0:0,0:0:0:0:
136,103,56608,1,2,0:0:0:0:
136,103,56693,2,0,P|145:136|157:178,1,68,0|2,3:2|0:0,0:0:0:0:
314,251,57030,6,0,P|262:232|205:212,1,102,6|0,3:1|0:0,0:0:0:0:
153,264,57367,2,0,P|117:278|81:294,1,68,6|2,1:2|3:2,0:0:0:0:
228,138,57704,1,8,0:0:0:0:
228,138,58041,2,0,P|219:105|209:72,1,68,6|0,1:2|0:0,0:0:0:0:
345,211,58378,5,10,0:0:0:0:
373,78,58547,2,0,L|341:233,1,136,0|0,1:2|1:2,0:0:0:0:
403,330,59052,1,8,0:0:0:0:
345,211,59221,1,0,1:2:0:0:
206,285,59389,1,8,0:0:0:0:
206,285,64445,6,0,L|197:253,6,19.1249994163513,4|0|0|0|0|0|0,0:1|0:0|0:0|0:0|3:0|0:0|0:0,0:0:0:0:
281,329,64783,6,0,P|293:267|308:204,1,114.749996498108,8|0,3:2|0:0,0:0:0:0:
342,149,65120,6,0,P|377:134|424:117,1,76.4999976654053,6|0,3:1|0:0,0:0:0:0:
506,217,65457,1,14,0:0:0:0:
419,37,65625,2,0,P|347:63|263:96,1,152.999995330811,2|0,0:0|3:2,0:0:0:0:
230,259,66131,1,10,0:0:0:0:
342,149,66299,1,0,0:0:0:0:
174,193,66468,6,0,P|137:178|87:157,1,76.4999976654053,6|0,3:1|0:0,0:0:0:0:
241,56,66805,1,14,0:0:0:0:
296,220,66974,2,0,P|365:233|423:166,1,152.999995330811,2|0,3:2|3:2,0:0:0:0:
445,43,67479,1,10,0:0:0:0:
342,149,67648,1,0,0:0:0:0:
430,15,67816,5,2,0:0:0:0:
502,164,67985,1,10,0:0:0:0:
354,64,68153,2,0,P|315:50|274:38,1,76.4999976654053,2|0,3:2|0:0,0:0:0:0:
329,240,68490,5,10,0:0:0:0:
436,103,68659,2,0,P|474:89|516:77,1,76.4999976654053,2|0,3:2|0:0,0:0:0:0:
412,251,68996,6,0,P|374:315|300:319,1,152.999995330811,14|10,3:2|3:2,0:0:0:0:
191,151,69502,1,10,0:0:0:0:
191,151,70681,5,12,0:0:0:0:
120,328,70850,1,12,0:0:0:0:
120,328,71187,6,0,L|133:378,2,38.2499988327027,8|8|0,0:0|3:2|3:2,0:0:0:0:
30,211,71524,1,8,0:0:0:0:
211,317,71693,6,0,B|311:328|273:249|376:260,1,178.499994552612,6|2,3:2|3:2,0:0:0:0:
484,131,72198,2,0,P|469:174|454:229,1,89.2499972763062,10|0,0:0|0:0,0:0:0:0:
355,337,72535,1,2,3:2:0:0:
296,164,72704,1,0,3:2:0:0:
442,295,72872,1,8,0:0:0:0:
367,124,73041,6,0,P|291:82|216:141,1,178.499994552612,6|2,3:2|3:2,0:0:0:0:
158,264,73547,2,0,P|144:218|128:170,1,89.2499972763062,10|2,0:0|0:0,0:0:0:0:
283,331,73884,1,2,3:2:0:0:
350,167,74052,2,0,P|387:143|436:152,1,89.2499972763062,2|8,3:2|0:0,0:0:0:0:
316,253,74389,6,0,P|262:184|304:91,1,178.499994552612,6|0,3:2|3:2,0:0:0:0:
475,61,74895,2,0,P|431:46|378:27,1,89.2499972763062,10|0,0:0|3:0,0:0:0:0:
358,1,75148,1,0,3:0:0:0:
358,1,75232,2,0,P|314:15|261:35,1,89.2499972763062,2|0,3:2|3:2,0:0:0:0:
181,160,75569,1,10,0:0:0:0:
74,34,75738,6,0,P|87:74|102:125,1,89.2499972763062,2|0,3:2|0:0,0:0:0:0:
45,262,76075,1,2,3:2:0:0:
181,160,76243,1,10,0:0:0:0:
13,254,76412,1,2,0:0:0:0:
195,321,76580,1,2,3:2:0:0:
77,175,76749,1,2,3:2:0:0:
13,357,76917,1,10,0:0:0:0:
165,241,77086,6,0,B|266:216|240:308|355:284,1,178.499994552612,6|2,3:2|3:2,0:0:0:0:
450,381,77592,2,0,P|460:336|473:290,1,89.2499972763062,10|2,0:0|0:0,0:0:0:0:
316,173,77929,1,2,3:2:0:0:
372,355,78097,1,0,3:2:0:0:
426,173,78266,1,8,0:0:0:0:
248,309,78434,6,0,P|229:220|209:129,1,178.499994552612,6|2,3:2|3:2,0:0:0:0:
82,55,78940,2,0,P|70:97|59:153,1,89.2499972763062,10|2,0:0|0:0,0:0:0:0:
211,6,79277,1,2,3:2:0:0:
49,64,79445,1,2,3:2:0:0:
210,134,79614,1,14,0:0:0:0:
210,134,79951,6,0,P|251:115|299:96,1,89.2499972763062,2|2,3:2|0:0,0:0:0:0:
119,277,80288,2,0,P|160:295|208:315,1,89.2499972763062,10|2,0:0|0:0,0:0:0:0:
61,119,80625,1,0,3:2:0:0:
61,119,80962,6,0,P|47:73|34:29,1,89.2499972763062,10|2,0:0|0:0,0:0:0:0:
184,219,81299,2,0,P|197:173|211:129,1,89.2499972763062,2|2,3:2|0:0,0:0:0:0:
55,319,81636,1,8,0:0:0:0:
55,319,81974,6,0,L|122:335,1,44.6249986381531,10|0,3:2|0:0,0:0:0:0:
256,373,82142,1,8,1:3:0:0:
256,373,82226,1,4,1:3:0:0:
256,373,82311,1,2,3:2:0:0:
157,243,82479,6,0,P|202:313|295:281,1,178.499994552612,6|2,3:2|3:2,0:0:0:0:
385,159,82985,2,0,P|399:202|414:249,1,89.2499972763062,10|2,0:0|0:0,0:0:0:0:
497,368,83322,1,2,3:2:0:0:
318,273,83490,1,0,3:2:0:0:
506,209,83659,1,8,0:0:0:0:
354,348,83827,6,0,P|278:348|237:249,1,178.499994552612,6|2,3:2|3:2,0:0:0:0:
94,146,84333,2,0,P|108:189|123:236,1,89.2499972763062,10|2,0:0|1:2,0:0:0:0:
154,265,84586,1,0,1:2:0:0:
154,265,84670,2,0,P|139:308|125:355,1,89.2499972763062,2|2,3:2|3:2,0:0:0:0:
270,152,85007,1,14,0:0:0:0:
270,152,85344,6,0,P|305:126|352:134,1,89.2499972763062,6|0,3:2|0:0,0:0:0:0:
425,286,85681,2,0,P|390:312|343:304,1,89.2499972763062,10|0,0:0|0:0,0:0:0:0:
465,113,86018,2,0,P|454:157|444:212,1,89.2499972763062,6|0,3:2|3:2,0:0:0:0:
355,344,86356,1,10,0:0:0:0:
270,152,86524,6,0,B|211:125|211:125|100:160,1,178.499994552612,6|0,3:2|3:2,0:0:0:0:
23,308,87030,2,0,P|11:264|-5:207,1,89.2499972763062,8|0,0:0|1:0,0:0:0:0:
177,370,87367,2,0,P|188:326|205:269,1,89.2499972763062,2|2,3:2|3:2,0:0:0:0:
56,150,87704,1,10,0:0:0:0:
200,283,87872,6,0,P|276:311|340:240,1,170,6|2,3:2|3:2,0:0:0:0:
366,102,88378,2,0,P|404:85|449:68,1,85,10|0,0:0|0:0,0:0:0:0:
263,233,88715,2,0,P|259:192|292:142,1,85,2|0,3:2|3:2,0:0:0:0:
425,239,89052,1,10,0:0:0:0:
261,338,89221,6,0,P|170:308|87:283,1,170,6|2,3:2|3:2,0:0:0:0:
40,157,89726,2,0,P|80:142|129:124,1,85,10|0,0:0|0:0,0:0:0:0:
235,36,90063,1,2,3:2:0:0:
173,206,90232,1,0,3:2:0:0:
101,21,90400,1,14,0:0:0:0:
290,153,90738,5,2,3:2:0:0:
290,153,90906,2,0,P|323:139|360:126,1,72.2500013780594,2|8,0:0|0:0,0:0:0:0:
465,15,91243,1,2,0:0:0:0:
465,15,91412,2,0,P|453:51|442:94,1,72.2500013780594,2|0,3:2|0:0,0:0:0:0:
495,224,91749,1,10,0:0:0:0:
357,126,91917,6,0,P|323:112|289:99,1,72.2500013780594,14|0,0:0|3:2,0:0:0:0:
196,245,92254,1,2,0:0:0:0:
196,245,92423,2,0,P|186:210|175:175,1,72.2500013780594,10|0,0:0|0:0,0:0:0:0:
51,100,92760,2,0,P|40:134|30:169,1,72.2500013780594,2|8,3:2|0:0,0:0:0:0:
4,206,93013,1,8,0:0:0:0:
4,206,93097,2,0,L|15:254,3,36.1250006890297,8|4|4|4,0:3|0:3|0:3|0:3,0:0:0:0:
84,309,93434,5,10,3:2:0:0:
142,133,93603,2,0,P|183:116|242:96,1,89.2499972763062,14|0,0:0|0:0,0:0:0:0:
345,256,93940,5,10,3:2:0:0:
299,46,94108,2,0,P|258:29|199:9,1,89.2499972763062,14|0,0:0|0:0,0:0:0:0:
137,217,94445,5,10,3:2:0:0:
328,130,94614,2,0,P|314:89|290:24,1,89.2499972763062,14|0,0:0|0:0,0:0:0:0:
150,135,94951,5,10,3:2:0:0:
345,256,95120,2,0,P|393:261|432:224,1,89.2499972763062,14|0,0:0|0:0,0:0:0:0:
298,45,95457,2,0,P|250:40|211:77,1,89.2499972763062,14|0,3:2|0:0,0:0:0:0:
130,249,95794,1,8,0:1:0:0:
68,41,96131,6,0,P|56:80|40:137,1,76.4999976654053,6|0,3:2|0:0,0:0:0:0:
138,257,96468,1,10,0:0:0:0:
138,257,96552,1,2,0:0:0:0:
138,257,96636,1,2,0:0:0:0:
162,98,96805,1,2,3:2:0:0:
13,218,96974,2,0,P|25:257|41:314,1,76.4999976654053,2|8,0:0|0:0,0:0:0:0:
158,369,97311,6,0,L|241:342,1,76.4999976654053,2|0,0:0|3:2,0:0:0:0:
321,224,97648,2,0,L|248:200,1,76.4999976654053,2|8,0:0|0:0,0:0:0:0:
101,130,97985,2,0,L|184:103,1,76.4999976654053,2|0,0:0|3:2,0:0:0:0:
298,26,98322,1,2,0:0:0:0:
298,26,98490,2,0,P|285:64|273:114,1,76.4999976654053,10|2,0:0|0:0,0:0:0:0:
122,203,98827,6,0,P|111:166|100:129,1,76.4999976654053,4|0,3:2|0:0,0:0:0:0:
251,237,99165,2,0,P|289:242|332:205,1,76.4999976654053,10|0,0:0|1:2,0:0:0:0:
345,198,99417,1,0,1:2:0:0:
345,198,99502,2,0,P|377:179|414:184,1,76.4999976654053,0|0,3:2|0:0,0:0:0:0:
350,343,99839,1,8,0:0:0:0:
269,159,100007,6,0,P|231:153|199:172,1,76.4999976654053,2|0,0:0|3:2,0:0:0:0:
124,304,100344,2,0,P|85:289|42:275,1,76.4999976654053,2|8,0:0|0:0,0:0:0:0:
148,104,100681,2,0,P|109:118|66:133,1,76.4999976654053,2|0,0:0|3:2,0:0:0:0:
251,237,101018,1,2,0:0:0:0:
294,55,101187,2,0,P|305:91|323:141,1,76.4999976654053,8|0,0:0|0:0,0:0:0:0:
466,233,101524,6,0,P|478:196|490:160,1,76.4999976654053,6|0,3:2|0:0,0:0:0:0:
321,273,101861,1,10,0:0:0:0:
321,273,101945,1,2,0:0:0:0:
321,273,102030,1,2,0:0:0:0:
477,334,102198,1,2,3:2:0:0:
373,193,102367,2,0,P|333:180|285:168,1,76.4999976654053,2|8,0:0|0:0,0:0:0:0:
204,321,102704,6,0,P|194:282|183:243,1,76.4999976654053,2|0,0:0|3:2,0:0:0:0:
319,97,103041,2,0,P|308:133|299:170,1,76.4999976654053,2|8,0:0|0:0,0:0:0:0:
436,304,103378,2,0,P|426:266|416:230,1,76.4999976654053,2|0,0:0|3:2,0:0:0:0:
500,100,103715,1,2,0:0:0:0:
500,100,103884,2,0,P|459:97|422:138,1,76.4999976654053,10|2,0:0|0:0,0:0:0:0:
347,278,104221,6,0,P|306:281|269:240,1,76.4999976654053,4|0,3:2|0:0,0:0:0:0:
210,105,104558,2,0,P|172:122|132:142,1,76.4999976654053,10|0,0:0|1:2,0:0:0:0:
112,169,104811,1,0,1:2:0:0:
112,169,104895,2,0,P|101:205|92:242,1,76.4999976654053,0|0,3:2|0:0,0:0:0:0:
30,72,105232,1,8,0:0:0:0:
186,209,105400,6,0,P|251:224|300:162,1,152.999995330811,14|2,0:0|0:0,0:0:0:0:
238,0,105906,1,10,0:0:0:0:
397,136,106075,2,0,P|382:203|362:309,1,152.999995330811,10|2,0:0|0:0,0:0:0:0:
190,335,106580,2,0,P|224:319|278:299,1,76.4999976654053,14|0,0:0|0:0,0:0:0:0:
449,195,106917,6,0,P|373:212|320:153,1,152.999995330811,6|8,3:1|0:0,0:0:0:0:
230,33,107423,2,0,P|219:71|205:126,1,76.4999976654053,6|0,0:0|3:2,0:0:0:0:
100,207,107760,1,2,0:0:0:0:
100,207,107929,2,0,P|90:170|79:133,1,76.4999976654053,10|2,0:0|0:0,0:0:0:0:
207,252,108266,6,0,P|241:273|290:258,1,76.4999976654053,2|2,3:2|0:0,0:0:0:0:
360,114,108603,2,0,P|397:109|428:130,1,76.4999976654053,10|2,0:0|1:0,0:0:0:0:
456,168,108856,1,0,1:0:0:0:
456,168,108940,2,0,P|466:206|478:250,1,76.4999976654053,2|2,3:2|0:0,0:0:0:0:
257,190,109277,2,0,P|266:152|276:116,1,76.4999976654053,10|2,0:0|0:0,0:0:0:0:
384,265,109614,6,0,B|316:278|316:278|305:291|305:291|224:308,1,152.999995330811,6|8,3:1|0:0,0:0:0:0:
119,202,110120,2,0,P|151:216|202:236,1,76.4999976654053,6|0,0:0|3:2,0:0:0:0:
91,383,110457,1,0,0:0:0:0:
91,383,110625,2,0,P|126:367|161:353,1,76.4999976654053,8|0,0:0|0:0,0:0:0:0:
23,164,110962,6,0,P|35:217|92:226,1,114.749996498108,6|0,3:2|0:0,0:0:0:0:
119,202,111299,1,8,1:2:0:0:
91,383,111468,1,8,1:2:0:0:
201,169,111636,1,8,3:2:0:0:
257,325,111805,1,8,3:2:0:0:
132,116,111974,1,8,0:0:0:0:
106,289,112142,1,8,0:0:0:0:
210,87,112311,6,0,P|238:74|274:60,1,63.7500024318696,6|0,3:2|0:0,0:0:0:0:
321,173,112648,2,0,P|349:186|385:200,1,63.7500024318696,2|0,3:2|0:0,0:0:0:0:
482,111,112985,2,0,P|493:143|506:184,1,63.7500024318696,2|0,3:2|0:0,0:0:0:0:
415,272,113322,2,0,P|404:302|394:332,1,63.7500024318696,2|0,3:2|0:0,0:0:0:0:
321,173,113659,6,0,P|253:170|224:230,1,127.500004863739,2|2,3:2|3:2,0:0:0:0:
316,303,114165,1,2,0:0:0:0:
316,303,114249,1,2,0:0:0:0:
316,303,114333,1,2,0:0:0:0:
151,354,114502,6,0,B|165:235|87:272|105:155,1,203.999993774414,12|0,3:2|0:0,0:0:0:0:
169,41,115007,6,0,P|203:27|243:14,1,76.4999976654053,2|0,3:2|0:0,0:0:0:0:
308,135,115344,2,0,P|342:148|382:162,1,76.4999976654053,8|2,0:0|0:0,0:0:0:0:
497,47,115681,1,0,3:2:0:0:
497,47,115850,1,0,3:2:0:0:
482,218,116018,2,0,P|471:179|458:135,1,76.4999976654053,8|2,0:0|0:0,0:0:0:0:
328,61,116356,5,2,3:2:0:0:
328,61,116524,2,0,P|316:97|307:134,1,76.4999976654053,2|8,0:0|0:0,0:0:0:0:
192,245,116861,2,0,P|228:232|277:212,1,76.4999976654053,2|0,3:2|0:0,0:0:0:0:
146,111,117198,2,0,P|74:127|72:210,1,152.999995330811,2|0,3:2|0:0,0:0:0:0:
119,338,117704,1,2,3:2:0:0:
119,338,118041,6,0,P|188:315|275:290,1,152.999995330811,14|0,0:0|0:0,0:0:0:0:
335,332,118378,2,0,P|372:344|426:363,1,76.4999976654053,2|0,0:0|3:2,0:0:0:0:
460,162,118715,2,0,P|423:174|387:186,1,76.4999976654053,14|0,0:0|0:0,0:0:0:0:
265,292,119052,1,2,3:2:0:0:
265,292,119389,6,0,B|320:212|245:216|296:132,1,152.999995330811,14|0,0:0|0:0,0:0:0:0:
336,83,119726,1,2,0:0:0:0:
396,251,119895,1,2,3:2:0:0:
205,122,120063,1,14,0:0:0:0:
458,51,120400,5,6,3:2:0:0:
458,51,120569,2,0,P|469:83|481:121,1,68,2|8,0:0|0:0,0:0:0:0:
396,251,120906,1,2,0:0:0:0:
332,179,121075,1,2,3:2:0:0:
332,179,121243,2,0,P|293:168|255:160,1,68,2|8,0:0|0:0,0:0:0:0:
159,312,121580,1,2,0:0:0:0:
246,267,121749,5,2,3:2:0:0:
246,267,121917,2,0,P|257:300|272:344,1,68,2|8,0:0|0:0,0:0:0:0:
95,369,122254,2,0,P|109:306|129:229,1,136,2|0,0:0|0:0,0:0:0:0:
37,132,122760,2,0,P|68:120|108:107,1,68,14|0,0:0|0:0,0:0:0:0:
219,201,123097,5,10,0:0:0:0:
269,30,123266,1,2,3:2:0:0:
306,225,123434,5,8,0:0:0:0:
180,95,123603,1,2,3:2:0:0:
344,149,123771,5,10,0:0:0:0:
142,232,123940,1,2,3:2:0:0:
262,122,124108,5,8,0:0:0:0:
339,303,124277,1,2,3:2:0:0:
174,212,124445,6,0,P|164:175|149:126,1,76.4999976654053,8|4,3:0|3:0,0:0:0:0:
260,320,124783,2,0,P|324:380|424:291,1,229.499992996216,14|0,0:0|3:2,0:0:0:0:
465,161,125457,1,8,0:0:0:0:
465,161,125794,6,0,P|456:126|444:86,1,68,6|0,3:2|0:0,0:0:0:0:
338,231,126131,2,0,P|346:198|355:165,1,68,10|0,0:0|0:0,0:0:0:0:
268,62,126468,2,0,P|233:58|196:83,1,68,2|0,3:2|3:2,0:0:0:0:
159,223,126805,2,0,P|194:227|231:202,1,68,10|0,0:0|0:0,0:0:0:0:
86,94,127142,6,0,B|52:138|52:138|75:242,1,136,2|8,3:2|0:0,0:0:0:0:
190,312,127648,2,0,P|196:278|208:235,1,68,2|2,3:2|0:0,0:0:0:0:
294,136,127985,1,2,3:2:0:0:
344,273,128153,1,10,0:0:0:0:
212,162,128322,1,2,0:0:0:0:
392,206,128490,6,0,P|426:261|390:341,1,136,2|8,3:2|0:0,0:0:0:0:
268,379,128996,2,0,P|235:364|204:352,1,68,2|0,0:0|3:2,0:0:0:0:
119,224,129333,1,0,3:2:0:0:
61,360,129502,2,0,P|51:327|38:283,1,68,8|0,0:0|0:0,0:0:0:0:
0,141,129839,6,0,P|61:119|138:95,1,136,2|8,3:2|0:0,0:0:0:0:
232,200,130344,2,0,P|292:217|343:158,1,136,2|0,3:2|3:2,0:0:0:0:
382,38,130850,2,0,P|416:46|469:63,1,68,8|0,0:0|0:0,0:0:0:0:
272,127,131187,1,0,3:2:0:0:
272,127,131524,6,0,B|207:108|207:108|188:117|188:117|121:96,1,152.999995330811,14|0,0:0|0:0,0:0:0:0:
52,73,131861,2,0,P|42:37|31:-1,1,76.4999976654053,2|0,3:2|3:2,0:0:0:0:
0,212,132198,1,10,0:0:0:0:
136,106,132367,1,2,1:0:0:0:
136,106,132451,1,0,1:0:0:0:
136,106,132535,1,0,3:2:0:0:
136,106,132872,6,0,P|161:172|249:183,1,152.999995330811,14|0,0:0|0:0,0:0:0:0:
294,135,133209,1,2,0:0:0:0:
346,275,133378,1,0,3:2:0:0:
215,113,133547,1,14,0:0:0:0:
143,334,133884,5,6,3:2:0:0:
143,334,134052,2,0,P|105:347|69:360,1,68,2|8,0:0|0:0,0:0:0:0:
188,204,134389,1,2,0:0:0:0:
246,283,134558,1,2,3:2:0:0:
246,283,134726,2,0,P|283:296|320:309,1,68,2|8,0:0|0:0,0:0:0:0:
424,175,135063,1,2,0:0:0:0:
347,225,135232,5,2,3:2:0:0:
347,225,135400,2,0,P|338:192|326:149,1,68,2|8,0:0|0:0,0:0:0:0:
413,19,135738,2,0,P|375:79|307:72,1,136,2|0,0:0|0:0,0:0:0:0:
191,11,136243,2,0,P|155:23|114:40,1,68,14|0,0:0|0:0,0:0:0:0:
72,191,136580,5,10,0:0:0:0:
127,34,136749,1,2,3:2:0:0:
173,235,136917,5,8,0:0:0:0:
101,113,137086,1,2,3:2:0:0:
43,271,137254,5,10,0:0:0:0:
188,150,137423,1,2,3:2:0:0:
222,314,137592,5,8,0:0:0:0:
91,197,137760,1,2,3:2:0:0:
26,351,137929,6,0,P|64:353|111:311,1,76.4999976654053,8|4,3:0|3:0,0:0:0:0:
188,150,138266,2,0,P|226:148|273:190,1,76.4999976654053,14|0,0:0|0:0,0:0:0:0:
344,318,138603,1,8,0:0:0:0:
205,232,138771,1,8,0:3:0:0:
372,186,138940,1,6,0:3:0:0:
372,186,139277,6,0,P|388:115|405:48,1,136,6|0,3:2|3:2,0:0:0:0:
296,121,139783,1,2,3:2:0:0:
466,161,139951,2,0,P|482:226|497:293,1,136,10|0,0:0|3:2,0:0:0:0:
396,358,140457,1,10,1:3:0:0:
396,358,140541,1,4,1:3:0:0:
396,358,140625,6,0,P|350:323|296:332,2,102,2|0|2,3:2|3:2|3:2,0:0:0:0:
349,241,141299,2,0,P|317:228|285:216,1,68,10|2,0:0|0:0,0:0:0:0:
244,350,141636,2,0,P|275:337|307:325,1,68,2|2,3:2|0:0,0:0:0:0:
181,219,141974,6,0,P|166:270|150:330,1,102,6|0,3:1|0:0,0:0:0:0:
86,358,142311,2,0,P|77:325|64:282,1,68,4|2,1:2|3:2,0:0:0:0:
0,151,142648,2,0,P|29:212|95:203,1,136,10|0,0:0|3:2,0:0:0:0:
170,120,143153,1,10,1:3:0:0:
170,120,143238,1,4,1:3:0:0:
170,120,143322,6,0,P|155:65|142:17,2,102,2|0|2,3:2|3:2|3:2,0:0:0:0:
270,189,143996,2,0,P|277:155|290:114,1,68,10|2,0:0|0:0,0:0:0:0:
359,35,144333,2,0,P|391:23|426:12,1,68,2|2,3:2|0:0,0:0:0:0:
494,153,144670,6,0,B|421:167|438:107|343:118,1,136,6|2,3:2|3:2,0:0:0:0:
480,72,145176,1,2,3:2:0:0:
371,195,145344,2,0,P|307:174|291:94,1,136,8|2,0:0|3:2,0:0:0:0:
196,37,145850,1,8,1:3:0:0:
196,37,145934,1,4,1:3:0:0:
196,37,146018,6,0,P|140:22|96:8,2,102,2|0|0,3:2|3:2|3:2,0:0:0:0:
74,94,146693,2,0,P|85:126|95:161,1,68,10|0,0:0|0:0,0:0:0:0:
126,189,146945,1,2,0:0:0:0:
126,189,147030,2,0,P|114:221|105:256,1,68,0|2,3:2|0:0,0:0:0:0:
208,117,147367,6,0,P|257:108|296:159,1,102,6|0,3:1|0:0,0:0:0:0:
319,214,147704,2,0,P|330:246|340:281,1,68,6|2,1:2|3:2,0:0:0:0:
431,157,148041,1,8,0:0:0:0:
431,157,148378,2,0,P|440:124|451:92,1,68,6|0,1:2|0:0,0:0:0:0:
319,214,148715,5,10,0:0:0:0:
448,254,148884,2,0,L|305:209,1,136,0|0,1:2|1:2,0:0:0:0:
250,124,149389,1,8,0:0:0:0:
319,214,149558,1,0,1:2:0:0:
197,304,149726,1,8,0:0:0:0:
103,83,154783,6,0,L|74:72,6,19.1249994163513,4|0|0|0|0|0|0,0:1|0:0|0:0|0:0|3:0|0:0|0:0,0:0:0:0:
188,37,155120,6,0,P|203:95|220:160,1,114.749996498108,8|0,3:2|0:0,0:0:0:0:
279,200,155457,6,0,P|316:211|369:229,1,76.4999976654053,6|0,3:1|0:0,0:0:0:0:
462,151,155794,1,14,0:0:0:0:
366,312,155962,2,0,P|288:285|202:260,1,152.999995330811,2|0,0:0|3:2,0:0:0:0:
112,158,156468,1,10,0:0:0:0:
55,307,156636,1,0,0:0:0:0:
202,167,156805,6,0,P|187:132|169:92,1,76.4999976654053,6|0,3:1|0:0,0:0:0:0:
83,233,157142,1,14,0:0:0:0:
10,88,157311,2,0,P|54:32|141:40,1,152.999995330811,2|0,3:2|3:2,0:0:0:0:
202,167,157816,1,10,0:0:0:0:
91,102,157985,1,0,0:0:0:0:
232,153,158153,5,2,0:0:0:0:
83,233,158322,1,10,0:0:0:0:
184,82,158490,2,0,P|220:67|274:80,1,76.4999976654053,2|0,3:2|0:0,0:0:0:0:
363,201,158827,5,10,0:0:0:0:
441,39,158996,2,0,P|428:78|416:123,1,76.4999976654053,2|0,3:2|0:0,0:0:0:0:
293,249,159333,6,0,P|356:286|434:244,1,152.999995330811,14|10,3:2|3:2,0:0:0:0:
309,89,159839,1,10,0:0:0:0:
309,89,161018,5,12,0:0:0:0:
179,231,161187,1,12,0:0:0:0:
179,231,161524,6,0,L|188:184,2,38.2499988327027,10|8|0,0:0|3:2|3:2,0:0:0:0:
302,317,161861,1,10,0:0:0:0:
106,192,162030,6,0,P|152:122|248:146,1,178.499994552612,6|2,3:2|3:2,0:0:0:0:
357,246,162535,2,0,P|367:203|382:152,1,89.2499972763062,10|0,0:0|0:0,0:0:0:0:
484,47,162872,1,2,3:2:0:0:
316,110,163041,1,0,3:2:0:0:
454,202,163209,1,8,0:0:0:0:
349,32,163378,6,0,P|267:39|233:132,1,178.499994552612,6|2,3:2|3:2,0:0:0:0:
128,215,163884,2,0,P|116:173|103:129,1,89.2499972763062,10|2,0:0|0:0,0:0:0:0:
7,18,164221,1,2,3:2:0:0:
181,89,164389,2,0,P|194:131|205:174,1,89.2499972763062,2|8,3:2|0:0,0:0:0:0:
53,249,164726,6,0,B|146:228|127:318|234:289,1,178.499994552612,6|0,3:2|3:2,0:0:0:0:
310,169,165232,2,0,P|347:144|400:157,1,89.2499972763062,10|0,0:0|3:0,0:0:0:0:
427,175,165485,1,0,3:0:0:0:
427,175,165569,2,0,L|406:274,1,89.2499972763062,2|0,3:2|3:2,0:0:0:0:
286,143,165906,1,10,0:0:0:0:
345,309,166075,6,0,P|382:337|439:334,1,89.2499972763062,2|0,3:2|0:0,0:0:0:0:
310,169,166412,1,2,3:2:0:0:
262,347,166580,1,10,0:0:0:0:
178,184,166749,1,2,0:0:0:0:
345,309,166917,1,2,3:2:0:0:
152,272,167086,1,2,3:2:0:0:
310,169,167254,1,10,0:0:0:0:
176,351,167423,6,0,P|96:336|75:238,1,178.499994552612,6|2,3:2|3:2,0:0:0:0:
202,98,167929,2,0,P|188:142|176:190,1,89.2499972763062,10|2,0:0|0:0,0:0:0:0:
265,324,168266,1,2,3:2:0:0:
310,169,168434,1,0,3:2:0:0:
152,272,168603,1,8,0:0:0:0:
361,240,168771,6,0,B|404:189|404:189|366:66,1,178.499994552612,6|2,3:2|3:2,0:0:0:0:
189,21,169277,2,0,P|230:36|282:53,1,89.2499972763062,10|2,0:0|0:0,0:0:0:0:
437,3,169614,1,2,3:2:0:0:
301,131,169783,1,2,3:2:0:0:
493,182,169951,1,14,0:0:0:0:
493,182,170288,6,0,P|481:139|467:88,1,89.2499972763062,2|2,3:2|0:0,0:0:0:0:
304,252,170625,2,0,P|315:209|330:158,1,89.2499972763062,10|2,0:0|0:0,0:0:0:0:
475,328,170962,1,0,3:2:0:0:
475,328,171299,6,0,P|430:343|376:364,1,89.2499972763062,10|2,0:0|0:0,0:0:0:0:
327,165,171636,2,0,P|282:149|228:129,1,89.2499972763062,2|2,3:2|0:0,0:0:0:0:
122,289,171974,1,8,0:0:0:0:
122,289,172311,6,0,L|180:275,1,44.6249986381531,10|0,3:2|0:0,0:0:0:0:
307,256,172479,1,8,1:3:0:0:
307,256,172563,1,4,1:3:0:0:
307,256,172648,1,2,3:2:0:0:
107,210,172816,6,0,P|43:260|78:359,1,178.499994552612,6|2,3:2|3:2,0:0:0:0:
223,282,173322,2,0,P|210:238|195:191,1,89.2499972763062,10|2,0:0|0:0,0:0:0:0:
78,73,173659,1,2,3:2:0:0:
257,133,173827,1,0,3:2:0:0:
52,86,173996,1,8,0:0:0:0:
238,13,174165,6,0,B|329:-3|321:82|420:66,1,178.499994552612,6|2,3:2|3:2,0:0:0:0:
257,133,174670,2,0,P|270:175|283:218,1,89.2499972763062,10|2,0:0|1:2,0:0:0:0:
321,243,174923,1,0,1:2:0:0:
321,243,175007,2,0,B|368:255|368:255|416:226,1,89.2499972763062,2|2,3:2|3:2,0:0:0:0:
479,51,175344,1,14,0:0:0:0:
479,51,175681,6,0,P|465:93|452:136,1,89.2499972763062,6|0,3:2|0:0,0:0:0:0:
283,218,176018,2,0,P|270:175|257:133,1,89.2499972763062,10|0,0:0|0:0,0:0:0:0:
109,27,176356,2,0,P|153:19|190:66,1,89.2499972763062,6|0,3:2|3:2,0:0:0:0:
109,188,176693,1,10,0:0:0:0:
264,51,176861,6,0,P|345:61|357:147,1,178.499994552612,6|0,3:2|3:2,0:0:0:0:
200,185,177367,2,0,P|240:200|290:221,1,89.2499972763062,8|0,0:0|1:0,0:0:0:0:
441,111,177704,2,0,P|399:126|358:143,1,89.2499972763062,2|2,3:2|3:2,0:0:0:0:
289,309,178041,1,10,0:0:0:0:
242,118,178209,6,0,P|160:114|121:198,1,170,6|2,3:2|3:2,0:0:0:0:
29,319,178715,2,0,P|18:277|1:220,1,85,10|0,0:0|0:0,0:0:0:0:
200,185,179052,2,0,P|188:225|177:266,1,85,2|0,3:2|3:2,0:0:0:0:
269,384,179389,1,10,0:0:0:0:
349,203,179558,6,0,B|276:154|276:154|187:190,1,170,6|2,3:2|3:2,0:0:0:0:
331,306,180063,2,0,P|374:310|422:274,1,85,10|0,0:0|0:0,0:0:0:0:
446,124,180400,1,2,3:2:0:0:
512,279,180569,1,0,3:2:0:0:
366,119,180738,1,14,0:0:0:0:
257,346,181075,5,2,3:2:0:0:
257,346,181243,2,0,P|215:328|173:312,1,72.2500013780594,2|8,0:0|0:0,0:0:0:0:
110,217,181580,1,2,0:0:0:0:
110,217,181749,2,0,P|143:203|176:189,1,72.2500013780594,2|0,3:2|0:0,0:0:0:0:
276,91,182086,1,10,0:0:0:0:
330,256,182254,6,0,P|338:222|352:180,1,72.2500013780594,14|0,0:0|3:2,0:0:0:0:
466,96,182592,1,2,0:0:0:0:
466,96,182760,2,0,P|476:130|485:165,1,72.2500013780594,10|0,0:0|0:0,0:0:0:0:
398,279,183097,2,0,L|315:251,1,72.2500013780594,2|8,3:2|0:0,0:0:0:0:
297,230,183350,1,8,0:0:0:0:
297,230,183434,2,0,L|254:246,3,36.1250006890297,8|4|4|4,0:3|0:3|0:3|0:3,0:0:0:0:
191,325,183771,5,10,3:2:0:0:
275,147,183940,2,0,P|324:148|371:191,1,89.2499972763062,14|0,0:0|0:0,0:0:0:0:
196,304,184277,5,10,3:2:0:0:
159,114,184445,2,0,P|110:115|63:158,1,89.2499972763062,14|0,0:0|0:0,0:0:0:0:
201,283,184783,5,10,3:2:0:0:
280,107,184951,2,0,P|322:92|370:77,1,89.2499972763062,14|0,0:0|0:0,0:0:0:0:
205,261,185288,5,10,3:2:0:0:
155,72,185457,2,0,P|112:57|65:42,1,89.2499972763062,14|0,0:0|0:0,0:0:0:0:
0,246,185794,2,0,P|42:232|84:217,1,89.2499972763062,14|0,3:2|0:0,0:0:0:0:
229,35,186131,1,8,0:1:0:0:
325,259,186468,5,4,3:2:0:0:
453,127,196917,6,0,P|419:138|383:153,1,63.75,2|0,3:1|0:0,0:0:0:0:
373,161,197254,6,0,P|361:199|349:247,1,72.2500013780594,6|0,3:2|0:0,0:0:0:0:
268,286,197592,1,2,3:2:0:0:
268,286,197760,2,0,P|258:251|247:216,1,72.2500013780594,2|0,0:0|3:2,0:0:0:0:
170,154,198097,2,0,P|133:135|84:149,1,72.2500013780594,2|0,0:0|3:2,0:0:0:0:
44,228,198434,6,0,P|81:247|130:233,1,72.2500013780594,2|0,0:0|3:2,0:0:0:0:
170,154,198771,2,0,P|203:141|248:128,1,72.2500013780594,2|0,0:0|3:2,0:0:0:0:
312,216,199108,2,0,P|346:226|380:239,1,72.2500013780594,2|0,0:0|3:2,0:0:0:0:
463,172,199445,1,0,0:0:0:0:
463,172,199614,2,0,L|484:100,1,72.2500013780594,0|0,3:2|0:0,0:0:0:0:
322,60,199951,5,12,3:2:0:0:
380,239,200120,1,8,0:0:0:0:
433,37,200288,1,8,0:0:0:0:
441,45,200625,1,8,0:0:0:0:
441,45,200709,1,8,0:0:0:0:
441,45,200794,1,8,0:0:0:0:
302,187,200962,2,0,P|267:175|217:157,1,72.2500013780594,8|8,0:0|0:0,0:0:0:0:
77,59,201299,5,8,0:0:0:0:
147,240,201468,1,8,0:0:0:0:
218,49,201636,1,8,0:0:0:0:
40,210,201805,1,8,0:0:0:0:
233,163,201974,1,8,3:2:0:0:
233,163,202311,6,0,P|243:195|257:236,1,63.75,10|0,3:2|0:0,0:0:0:0:
265,252,202648,6,0,P|303:275|362:259,1,85,6|0,3:2|0:0,0:0:0:0:
462,141,202985,1,10,0:0:0:0:
462,141,203153,2,0,P|424:118|365:134,1,85,2|0,0:0|3:2,0:0:0:0:
265,252,203490,2,0,P|303:275|362:259,1,85,2|8,0:0|0:0,0:0:0:0:
225,101,203827,6,0,P|211:142|197:190,1,85,2|0,0:0|3:2,0:0:0:0:
359,40,204165,2,0,P|372:80|384:120,1,85,2|8,0:0|0:0,0:0:0:0:
482,243,204502,2,0,L|312:195,1,170,2|0,0:0|0:0,0:0:0:0:
261,35,205007,2,0,P|218:25|169:50,1,85,10|0,0:0|0:0,0:0:0:0:
83,204,205344,6,0,B|123:160|123:160|77:40,1,170,6|10,3:2|0:0,0:0:0:0:
228,133,205850,2,0,P|215:173|204:217,1,85,2|0,0:0|3:2,0:0:0:0:
77,310,206187,2,0,P|66:268|53:228,1,85,2|8,0:0|0:0,0:0:0:0:
251,329,206524,6,0,P|212:312|159:292,1,85,2|0,0:0|3:2,0:0:0:0:
243,175,206861,2,0,P|282:159|321:142,1,85,2|8,0:0|0:0,0:0:0:0:
405,281,207198,2,0,P|456:223|416:136,1,170,2|0,0:0|0:0,0:0:0:0:
288,46,207704,6,0,P|319:57|357:72,1,63.75,10|0,0:0|0:0,0:0:0:0:
370,75,208041,6,0,L|462:41,1,85,6|0,3:2|0:0,0:0:0:0:
297,177,208378,1,10,0:0:0:0:
297,177,208547,2,0,L|376:206,1,85,2|0,0:0|3:2,0:0:0:0:
206,42,208884,2,0,P|180:73|182:135,1,85,2|8,0:0|0:0,0:0:0:0:
235,255,209221,6,0,P|202:219|150:222,1,85,2|0,0:0|3:2,0:0:0:0:
58,339,209558,2,0,P|105:328|129:281,1,85,2|8,0:0|0:0,0:0:0:0:
57,108,209895,2,0,P|24:180|91:226,1,170,2|0,0:0|0:0,0:0:0:0:
174,98,210400,2,0,P|213:82|258:67,1,85,10|0,0:0|0:0,0:0:0:0:
348,207,210738,6,0,B|325:116|404:141|381:26,1,170,6|10,3:2|0:0,0:0:0:0:
505,209,211243,2,0,P|465:193|421:178,1,85,2|0,0:0|3:2,0:0:0:0:
302,68,211580,2,0,P|261:82|222:97,1,85,2|8,0:0|0:0,0:0:0:0:
145,230,211917,6,0,L|123:139,1,85,2|0,0:0|3:2,0:0:0:0:
307,290,212254,2,0,L|329:199,1,85,2|8,0:0|0:0,0:0:0:0:
131,317,212592,2,0,P|199:299|220:197,1,170,2|0,0:0|0:0,0:0:0:0:
107,110,213097,6,0,P|96:142|85:191,1,63.75,10|0,0:0|0:0,0:0:0:0:
85,212,213434,6,0,P|39:221|2:186,1,89.2499972763062,14|0,0:0|0:0,0:0:0:0:
85,15,213771,2,0,P|131:6|168:41,1,89.2499972763062,10|2,0:0|0:0,0:0:0:0:
187,200,214108,5,8,0:0:0:0:
23,75,214277,1,2,0:0:0:0:
247,125,214445,1,8,3:2:0:0:
65,253,214614,6,0,P|53:211|38:156,1,89.2499972763062,14|0,0:0|3:2,0:0:0:0:
194,25,214951,1,2,0:0:0:0:
136,192,215120,1,8,3:2:0:0:
280,45,215288,6,0,P|302:127|330:224,1,178.499994552612,14|0,0:0|0:0,0:0:0:0:
483,305,215794,2,0,P|450:273|393:278,1,89.2499972763062,10|0,0:0|0:0,0:0:0:0:
252,357,216131,6,0,P|296:344|320:292,1,89.2499972763062,14|0,0:0|0:0,0:0:0:0:
273,148,216468,2,0,P|228:134|177:119,1,89.2499972763062,10|2,0:0|0:0,0:0:0:0:
50,269,216805,5,8,0:0:0:0:
225,216,216974,1,2,0:0:0:0:
27,152,217142,1,8,3:2:0:0:
187,288,217311,6,0,P|229:298|287:266,1,89.2499972763062,14|0,0:0|3:2,0:0:0:0:
344,61,217648,1,2,0:0:0:0:
225,216,217816,1,8,3:2:0:0:
123,24,217985,6,0,P|201:44|188:153,1,178.499994552612,14|0,0:0|1:2,0:0:0:0:
175,152,218406,1,0,1:2:0:0:
175,152,218490,2,0,P|130:136|82:121,1,89.2499972763062,10|0,0:0|0:0,0:0:0:0:
5,298,218827,6,0,P|47:284|89:269,1,89.2499972763062,14|0,0:0|0:0,0:0:0:0:
209,130,219165,5,10,0:0:0:0:
275,315,219333,1,2,0:0:0:0:
223,100,219502,5,8,0:0:0:0:
138,275,219670,1,0,0:0:0:0:
313,164,219839,5,10,3:2:0:0:
115,69,220007,1,12,0:0:0:0:
267,231,220176,6,0,P|300:245|358:230,1,89.2499972763062,10|0,0:0|0:0,0:0:0:0:
493,65,220513,1,10,0:0:0:0:
450,273,220681,6,0,P|436:233|417:181,1,89.2499972763062,14|0,3:2|3:2,0:0:0:0:
312,44,221018,1,8,3:2:0:0:
267,231,221187,2,0,P|224:241|183:227,1,89.2499972763062,14|0,0:0|0:0,0:0:0:0:
81,43,221524,5,14,0:0:0:0:
227,161,221693,1,0,0:0:0:0:
32,225,221861,5,10,0:0:0:0:
191,91,222030,1,0,0:0:0:0:
261,326,222198,5,10,0:0:0:0:
145,155,222367,1,2,3:2:0:0:
353,235,222535,1,8,0:0:0:0:
113,301,222704,6,0,P|152:287|203:267,1,89.2499972763062,14|0,3:2|0:0,0:0:0:0:
298,101,223041,1,10,0:0:0:0:
383,312,223209,1,10,0:0:0:0:
224,129,223378,1,10,3:2:0:0:
433,247,223547,1,10,0:0:0:0:
247,363,223715,1,10,0:0:0:0:
385,184,223884,2,0,P|465:175|508:271,1,170,10|0,3:2|0:0,0:0:0:0:
247,363,224895,6,0,P|290:271|154:271,1,286.875010943413,10|0,0:1|0:0,0:0:0:0:
167,347,225738,5,12,0:0:0:0:
97,142,225906,1,12,0:0:0:0:
97,142,226243,6,0,L|77:203,2,38.2499988327027,10|8|0,0:0|3:2|3:2,0:0:0:0:
219,49,226580,1,10,0:0:0:0:
289,254,226749,5,6,3:2:0:0:
289,254,227760,5,6,3:1:0:0:
78,63,228097,5,12,3:2:0:0:
78,63,229108,5,6,3:1:0:0:
52,356,229445,6,0,P|101:364|156:313,1,110.499994941712,12|0,3:2|3:2,0:0:0:0:
199,226,229951,2,0,P|223:234|252:246,1,55.2499974708558,2|0,3:2|0:0,0:0:0:0:
305,348,230288,2,0,P|330:337|356:328,1,55.2499974708558,2|0,3:2|0:0,0:0:0:0:
470,169,230625,5,14,3:2:0:0:
470,169,230962,5,14,3:2:0:0:
329,78,231131,1,8,0:0:0:0:
329,78,231215,1,8,0:0:0:0:
329,78,231299,2,0,L|349:163,1,63.7500024318696,8|0,0:0|0:0,0:0:0:0:
298,268,231636,1,8,0:0:0:0:
298,268,231721,1,8,0:0:0:0:
298,268,231805,1,8,0:0:0:0:
470,169,231974,1,8,3:2:0:0:
346,335,232142,6,0,P|258:342|209:256,1,178.499994552612,6|2,3:2|3:2,0:0:0:0:
98,148,232648,2,0,P|85:191|73:243,1,89.2499972763062,10|2,0:0|0:0,0:0:0:0:
212,127,232985,1,2,3:2:0:0:
18,76,233153,1,0,3:2:0:0:
173,217,233322,1,8,0:0:0:0:
1,264,233490,6,0,P|81:240|178:215,1,178.499994552612,6|2,3:2|3:2,0:0:0:0:
350,358,233996,2,0,P|305:366|261:331,1,89.2499972763062,10|2,0:0|3:2,0:0:0:0:
241,312,234249,1,0,3:2:0:0:
241,312,234333,2,0,P|253:266|272:208,1,89.2499972763062,2|2,3:2|3:2,0:0:0:0:
417,126,234670,1,14,0:0:0:0:
417,126,235007,5,2,3:2:0:0:
468,288,235176,1,2,0:0:0:0:
329,97,235344,1,10,0:0:0:0:
261,264,235513,1,2,0:0:0:0:
417,126,235681,1,0,3:2:0:0:
417,126,236018,5,10,0:0:0:0:
214,59,236187,1,2,0:0:0:0:
370,224,236356,1,2,3:2:0:0:
304,16,236524,1,2,0:0:0:0:
160,162,236693,1,8,0:0:0:0:
160,162,237030,6,0,L|224:182,1,44.6249986381531,10|0,3:2|0:0,0:0:0:0:
378,232,237198,1,8,1:3:0:0:
378,232,237283,1,4,1:3:0:0:
378,232,237367,1,2,3:2:0:0:
149,288,237535,6,0,P|227:284|253:389,1,178.499994552612,6|2,3:2|3:2,0:0:0:0:
170,196,238041,2,0,P|210:180|265:161,1,89.2499972763062,10|2,0:0|0:0,0:0:0:0:
412,336,238378,1,2,3:2:0:0:
239,255,238547,1,0,3:2:0:0:
420,185,238715,1,8,0:0:0:0:
265,334,238884,6,0,P|196:326|164:220,1,178.499994552612,6|2,3:2|3:2,0:0:0:0:
296,134,239389,2,0,P|255:118|201:99,1,89.2499972763062,10|2,0:0|1:2,0:0:0:0:
178,87,239642,1,0,1:2:0:0:
178,87,239726,2,0,P|163:41|150:0,1,89.2499972763062,2|2,3:2|3:2,0:0:0:0:
51,195,240063,1,14,0:0:0:0:
51,195,240400,6,0,P|80:164|139:170,1,89.2499972763062,6|0,3:2|0:0,0:0:0:0:
251,327,240738,2,0,P|209:317|185:263,1,89.2499972763062,10|0,0:0|0:0,0:0:0:0:
320,124,241075,2,0,P|334:166|350:220,1,89.2499972763062,6|0,3:2|3:2,0:0:0:0:
429,352,241412,1,10,0:0:0:0:
492,169,241580,6,0,P|412:146|309:121,1,178.499994552612,6|0,3:2|3:2,0:0:0:0:
205,241,242086,2,0,P|191:198|176:149,1,89.2499972763062,8|0,0:0|1:0,0:0:0:0:
346,38,242423,2,0,P|332:80|319:123,1,89.2499972763062,2|2,3:2|3:2,0:0:0:0:
384,267,242760,1,10,0:0:0:0:
242,115,242929,6,0,P|171:78|105:127,1,170,6|2,3:2|3:2,0:0:0:0:
28,266,243434,2,0,P|16:224|0:172,1,85,10|0,0:0|0:0,0:0:0:0:
187,271,243771,2,0,P|174:311|162:352,1,85,2|0,3:2|3:2,0:0:0:0:
277,166,244108,1,10,0:0:0:0:
363,338,244277,6,0,B|329:235|329:235|375:166,1,170,6|2,3:2|3:2,0:0:0:0:
507,275,244783,2,0,P|465:262|415:244,1,85,10|0,0:0|0:0,0:0:0:0:
302,77,245120,1,2,3:2:0:0:
448,169,245288,1,0,3:2:0:0:
246,254,245457,1,14,0:0:0:0:
468,99,245794,5,2,3:2:0:0:
468,99,245962,2,0,P|456:136|442:193,1,72.2500013780594,2|8,0:0|0:0,0:0:0:0:
342,289,246299,1,2,0:0:0:0:
342,289,246468,2,0,P|375:274|420:257,1,72.2500013780594,2|0,3:2|0:0,0:0:0:0:
269,163,246805,1,10,0:0:0:0:
221,346,246974,6,0,P|187:332|154:318,1,72.2500013780594,14|0,0:0|3:2,0:0:0:0:
43,202,247311,1,2,0:0:0:0:
43,202,247479,2,0,L|63:280,1,72.2500013780594,10|0,0:0|0:0,0:0:0:0:
174,167,247816,2,0,L|191:97,1,72.2500013780594,2|8,3:2|0:0,0:0:0:0:
165,69,248069,1,8,0:0:0:0:
165,69,248153,2,0,L|115:83,3,36.1250006890297,8|4|4|4,0:3|0:3|0:3|0:3,0:0:0:0:
286,136,248490,5,10,3:2:0:0:
43,202,248659,2,0,L|129:178,1,89.2499972763062,14|0,0:0|0:0,0:0:0:0:
315,218,248996,5,10,3:2:0:0:
58,287,249165,2,0,L|144:263,1,89.2499972763062,14|0,0:0|0:0,0:0:0:0:
263,56,249502,5,10,3:2:0:0:
342,302,249670,2,0,L|311:207,1,89.2499972763062,14|0,0:0|0:0,0:0:0:0:
172,67,250007,5,10,3:2:0:0:
256,326,250176,2,0,L|225:231,1,89.2499972763062,14|0,0:0|0:0,0:0:0:0:
348,43,250513,2,0,L|375:127,1,89.2499972763062,14|0,3:2|0:0,0:0:0:0:
512,259,250850,1,8,0:1:0:0:
177,347,251187,5,6,3:2:0:0:
394,320,261974,6,0,P|352:302|306:285,1,85,6|0,3:2|0:0,0:0:0:0:
217,139,262311,1,10,0:0:0:0:
217,139,262395,1,2,0:0:0:0:
217,139,262479,1,2,0:0:0:0:
142,313,262648,1,2,3:2:0:0:
308,182,262816,2,0,P|347:165|386:150,1,85,2|8,0:0|0:0,0:0:0:0:
253,316,263153,6,0,P|240:275|226:223,1,85,2|0,0:0|3:2,0:0:0:0:
417,362,263490,2,0,P|429:321|444:269,1,85,2|8,0:0|0:0,0:0:0:0:
286,169,263827,2,0,P|248:147|198:150,1,85,2|2,0:0|3:2,0:0:0:0:
403,71,264165,1,2,0:0:0:0:
307,256,264333,2,0,P|264:255|228:233,1,85,10|2,0:0|0:0,0:0:0:0:
106,43,264670,6,0,L|148:233,1,170,6|10,3:2|0:0,0:0:0:0:
29,337,265176,1,2,1:2:0:0:
29,337,265260,1,0,1:2:0:0:
29,337,265344,2,0,P|59:306|112:310,1,85,0|0,3:2|0:0,0:0:0:0:
251,380,265681,2,0,P|260:338|275:281,1,85,8|2,0:0|0:0,0:0:0:0:
371,169,266018,5,0,3:2:0:0:
456,322,266187,2,0,P|417:304|380:284,1,85,2|8,0:0|0:0,0:0:0:0:
290,119,266524,2,0,P|327:99|365:81,1,85,2|0,0:0|3:2,0:0:0:0:
456,235,266861,1,2,0:0:0:0:
503,52,267030,2,0,L|480:141,1,85,8|0,0:0|0:0,0:0:0:0:
311,201,267367,6,0,L|289:118,1,85,6|0,3:2|0:0,0:0:0:0:
169,12,267704,1,10,0:0:0:0:
169,12,267788,1,2,0:0:0:0:
169,12,267872,1,2,0:0:0:0:
103,178,268041,1,2,3:2:0:0:
268,44,268209,2,0,P|311:41|353:73,1,85,2|8,0:0|0:0,0:0:0:0:
366,260,268547,6,0,P|330:281|288:278,1,85,2|0,0:0|3:2,0:0:0:0:
188,110,268884,2,0,P|201:153|216:209,1,85,2|8,0:0|0:0,0:0:0:0:
100,357,269221,2,0,P|111:316|123:275,1,85,2|2,0:0|3:2,0:0:0:0:
43,151,269558,1,2,0:0:0:0:
211,276,269726,1,10,0:0:0:0:
14,337,269895,1,2,0:0:0:0:
201,196,270063,6,0,B|285:188|265:268|358:258,1,170,6|8,3:2|0:0,0:0:0:0:
459,132,270569,1,2,1:2:0:0:
459,132,270653,1,0,1:2:0:0:
459,132,270738,2,0,P|445:172|430:226,1,85,0|0,3:2|0:0,0:0:0:0:
321,350,271075,1,8,0:0:0:0:
270,158,271243,6,0,P|243:127|189:121,1,85,14|0,0:0|3:2,0:0:0:0:
49,268,271580,1,2,0:0:0:0:
201,196,271749,1,10,0:0:0:0:
24,112,271917,2,0,P|92:122|111:212,1,170,10|2,0:0|0:0,0:0:0:0:
5,346,272423,2,0,P|44:329|97:310,1,85,14|0,0:0|0:0,0:0:0:0:
201,196,272760,6,0,P|240:212|293:232,1,85,6|0,3:2|0:0,0:0:0:0:
380,359,273097,1,10,0:0:0:0:
380,359,273181,1,2,0:0:0:0:
380,359,273266,1,2,0:0:0:0:
447,174,273434,1,2,3:2:0:0:
294,310,273603,2,0,P|254:326|202:346,1,85,2|8,0:0|0:0,0:0:0:0:
372,150,273940,6,0,P|417:149|454:196,1,85,2|0,0:0|3:2,0:0:0:0:
294,310,274277,2,0,P|282:267|270:222,1,85,2|8,0:0|0:0,0:0:0:0:
136,108,274614,2,0,P|124:148|113:190,1,85,2|2,0:0|3:2,0:0:0:0:
56,367,274951,1,2,0:0:0:0:
195,248,275120,2,0,P|231:224|282:234,1,85,10|2,0:0|0:0,0:0:0:0:
384,384,275457,6,0,L|417:209,1,170,6|10,3:2|0:0,0:0:0:0:
276,128,275962,1,2,1:2:0:0:
276,128,276047,1,0,1:2:0:0:
276,128,276131,2,0,P|287:169|300:221,1,85,0|0,3:2|0:0,0:0:0:0:
448,70,276468,2,0,P|414:43|364:50,1,85,8|2,0:0|0:0,0:0:0:0:
297,210,276805,5,0,3:2:0:0:
198,46,276974,2,0,P|186:87|174:139,1,85,2|8,0:0|0:0,0:0:0:0:
45,235,277311,2,0,P|77:208|118:209,1,85,2|0,0:0|3:2,0:0:0:0:
273,339,277648,1,2,0:0:0:0:
70,312,277816,2,0,P|111:313|143:286,1,85,8|0,0:0|0:0,0:0:0:0:
254,145,278153,6,0,L|353:173,1,85,6|0,3:2|0:0,0:0:0:0:
428,330,278490,1,10,0:0:0:0:
428,330,278575,1,2,0:0:0:0:
428,330,278659,1,2,0:0:0:0:
512,143,278827,1,2,3:2:0:0:
329,256,278996,2,0,L|247:232,1,85,2|8,0:0|0:0,0:0:0:0:
166,66,279333,6,0,P|178:109|192:166,1,85,2|0,0:0|3:2,0:0:0:0:
329,256,279670,2,0,P|339:214|350:173,1,85,2|8,0:0|0:0,0:0:0:0:
489,52,280007,2,0,P|446:42|395:70,1,85,2|2,0:0|3:2,0:0:0:0:
267,168,280344,1,2,0:0:0:0:
458,225,280513,1,10,0:0:0:0:
315,64,280681,1,2,0:0:0:0:
212,292,280850,6,0,P|291:300|334:218,1,170,6|8,3:2|0:0,0:0:0:0:
227,86,281356,1,2,1:2:0:0:
227,86,281440,1,0,1:2:0:0:
227,86,281524,2,0,P|183:71|135:57,1,85,0|0,3:2|0:0,0:0:0:0:
392,0,281861,1,8,0:0:0:0:
283,147,282030,6,0,P|268:190|254:239,1,85,14|0,0:0|3:2,0:0:0:0:
415,85,282367,1,2,0:0:0:0:
476,258,282535,1,10,0:0:0:0:
329,79,282704,2,0,P|253:69|199:147,1,170,10|2,0:0|0:0,0:0:0:0:
98,291,283209,2,0,P|85:250|72:210,1,85,14|0,0:0|0:0,0:0:0:0:
283,147,283547,5,14,0:0:0:0:
168,340,283715,1,0,3:2:0:0:
98,123,283884,5,10,0:0:0:0:
299,234,284052,1,0,3:2:0:0:
91,374,284221,5,10,0:0:0:0:
187,136,284389,1,2,3:0:0:0:
321,319,284558,1,8,3:2:0:0:
95,197,284726,6,0,P|81:157|62:103,1,89.2499972763062,14|0,0:0|3:2,0:0:0:0:
285,32,285063,1,2,0:0:0:0:
191,243,285232,1,14,0:0:0:0:
356,94,285400,6,0,P|430:88|460:196,1,178.499994552612,10|2,0:0|0:0,0:0:0:0:
321,319,285906,2,0,P|335:279|354:225,1,89.2499972763062,10|0,0:0|0:0,0:0:0:0:
231,100,286243,6,0,L|182:116,3,44.6249986381531,14|8|8|8,0:0|1:2|1:2|1:2,0:0:0:0:
125,228,286580,2,0,L|82:214,3,44.6249986381531,10|8|8|8,0:0|1:2|1:2|1:2,0:0:0:0:
0,105,286917,5,10,0:0:0:0:
63,309,287086,1,10,0:0:0:0:
188,113,287254,1,0,3:2:0:0:
250,363,287423,6,0,P|287:341|342:313,1,89.2499972763062,14|0,3:2|0:0,0:0:0:0:
188,113,287760,1,10,0:0:0:0:
387,217,287929,1,10,0:0:0:0:
172,321,288097,1,10,3:2:0:0:
331,111,288266,1,10,0:0:0:0:
442,319,288434,1,10,0:0:0:0:
266,176,288603,2,0,P|224:192|168:216,1,89.2499972763062,10|0,3:2|0:0,0:0:0:0:
54,384,288940,5,8,0:1:0:0:
54,384,289614,6,0,B|117:303|55:241|55:241|-13:168|8:46|146:4|238:94|209:204|209:204|183:298|278:352|278:352|370:284|320:194|320:194|382:277|516:234|524:70|383:26|319:110,1,1325.99993930054,6|0,3:2|0:0,0:0:0:0:
