osu file format v14

[General]
AudioFilename: audio.mp3
AudioLeadIn: 0
PreviewTime: 58346
Countdown: 0
SampleSet: Soft
StackLeniency: 0.7
Mode: 0
LetterboxInBreaks: 0
WidescreenStoryboard: 0

[Editor]
Bookmarks: 17255,30776,44297,59508,86551,93311,106832,122044,149086,165987,186269,201480,215001,231903,250494,253663
DistanceSpacing: 2.4
BeatDivisor: 4
GridSize: 32
TimelineZoom: 1.3

[Metadata]
Title:Harumachi Clover -blooming mix-
TitleUnicode:春待ちクローバー -blooming mix-
Artist:Hanasaka Yui(CV:M.A.O)
ArtistUnicode:花坂結衣(CV:M・A・O)
Creator:Naotoshi
Version:Spring Breeze
Source:OneRoom
Tags:小森成雄 Shigeo Komori Ichimichi Mao akitoshi misure mentai kantoku カントク one room ワンルーム lolis
BeatmapID:1321495
BeatmapSetID:627085

[Difficulty]
HPDrainRate:6
CircleSize:4.2
OverallDifficulty:8
ApproachRate:9
SliderMultiplier:1.7
SliderTickRate:1

[Events]
//Background and Video events
0,0,"3.jpg",0,0
//Break Periods
//Storyboard Layer 0 (Background)
//Storyboard Layer 1 (Fail)
//Storyboard Layer 2 (Pass)
//Storyboard Layer 3 (Foreground)
//Storyboard Sound Samples

[TimingPoints]
368,422.535211267606,4,2,1,67,1,0
368,-133.333333333333,4,2,1,67,0,0
16424,-100,4,2,2,67,0,0
17691,-133.333333333333,4,2,1,67,0,0
30368,-100,4,2,2,67,0,0
31213,-133.333333333333,4,2,1,67,0,0
43889,-133.333333333333,4,2,2,67,0,0
44734,-133.333333333333,4,2,1,67,0,0
51072,-116.279069767442,4,2,1,67,0,0
59522,-100,4,2,1,85,0,1
86565,-133.333333333333,4,2,1,67,0,0
92269,-133.333333333333,4,2,2,67,0,0
93748,-133.333333333333,4,2,1,67,0,0
113607,-116.279069767442,4,2,1,67,0,0
122058,-100,4,2,1,85,0,1
149100,-111.111111111111,4,2,1,67,0,0
166001,-117.647058823529,4,2,1,67,0,0
168959,-117.647058823529,4,2,2,67,0,0
169382,-117.647058823529,4,2,1,67,0,0
172339,-117.647058823529,4,2,2,67,0,0
172762,-117.647058823529,4,2,1,67,0,0
176459,-117.647058823529,4,2,1,67,0,0
176565,-117.647058823529,4,2,1,67,0,0
186283,-133.333333333333,4,2,1,67,0,0
193044,-116.279069767442,4,2,1,67,0,0
201494,-200,4,2,1,50,0,0
212903,-200,4,2,1,67,0,0
215015,-100,4,2,3,85,0,1
217551,-100,4,2,4,85,0,1
217656,-100,4,2,1,85,0,1
218396,-100,4,2,5,85,0,1
218607,-100,4,2,1,85,0,1
220931,-100,4,2,4,85,0,1
221037,-100,4,2,1,85,0,1
221776,-100,4,2,3,85,0,1
221987,-100,4,2,1,85,0,1
224311,-100,4,2,4,85,0,1
224522,-100,4,2,1,85,0,1
225156,-100,4,2,5,85,0,1
225368,-100,4,2,1,85,0,1
226001,-100,4,2,3,85,0,1
226213,-100,4,2,1,85,0,1
226846,-100,4,2,5,85,0,1
227058,-100,4,2,1,85,0,1
227691,-100,4,2,4,85,0,1
227903,-100,4,2,1,85,0,1
228537,-111.111111111111,4,2,3,85,0,1
228748,-111.111111111111,4,2,1,85,0,1
230015,-100,4,2,1,67,0,0
231283,-100,4,2,2,67,0,0
231917,-100,4,2,1,67,0,0
232128,-100,4,2,2,67,0,0
232339,-100,4,2,1,67,0,0
232551,-100,4,2,2,67,0,0
232973,-100,4,2,1,67,0,0
233079,-100,4,2,2,67,0,0
233184,-100,4,2,1,67,0,0
233290,-100,4,2,2,67,0,0
233607,-133.333333333333,4,2,1,67,0,0
249663,-133.333333333333,4,2,2,67,0,0
250508,-142.857142857143,4,2,2,67,0,0

[Colours]
Combo1 : 235,124,207
Combo2 : 254,222,148

[HitObjects]
164,96,369,6,0,P|243:76|300:87,1,127.500004863739,8|2,0:3|0:1,0:0:0:0:
362,141,1002,1,8,3:3:0:0:
362,141,1212,1,8,0:3:0:0:
447,203,1423,5,2,3:1:0:0:
363,255,1634,1,0,0:0:0:0:
280,201,1846,2,0,P|230:196|198:205,1,63.7500024318696,2|0,3:1|0:0,0:0:0:0:
117,335,2270,2,0,P|146:294|154:261,1,63.7500024318696,0|0,3:0|0:1,0:0:0:0:
97,123,2692,2,0,P|117:168|141:192,1,63.7500024318696,8|8,3:3|3:3,0:0:0:0:
217,198,3115,5,2,0:1:0:0:
150,281,3326,1,0,3:0:0:0:
126,178,3537,1,0,0:0:0:0:
145,152,3642,1,0,3:0:0:0:
172,134,3748,6,0,P|284:144|321:127,1,127.500004863739,8|2,3:3|0:1,0:0:0:0:
398,182,4383,2,0,P|398:128|404:91,1,63.7500024318696,8|8,3:3|0:3,0:0:0:0:
351,31,4804,2,0,P|239:41|202:24,1,127.500004863739,2|2,3:1|3:1,0:0:0:0:
138,11,5438,1,8,0:3:0:0:
155,114,5649,5,0,3:0:0:0:
60,149,5861,2,0,P|57:117|61:85,1,63.7500024318696,2|8,0:1|0:3,0:0:0:0:
137,205,6284,2,0,P|140:236|135:268,1,63.7500024318696,8|2,3:3|0:1,0:0:0:0:
68,332,6707,1,0,3:0:0:0:
183,352,6918,1,0,0:0:0:0:
221,353,7022,1,0,3:0:0:0:
259,358,7128,2,0,P|305:341|392:355,1,127.500004863739,8|2,3:0|0:1,0:1:0:0:
444,276,7762,5,8,3:3:0:0:
473,367,7973,1,8,0:3:0:0:
356,262,8184,2,0,P|377:214|397:199,1,63.7500024318696,2|0,3:1|0:0,0:0:0:0:
260,182,8607,5,2,3:1:0:0:
260,182,8713,1,0,0:0:0:0:
260,182,8818,1,8,0:3:0:0:
165,203,9030,1,0,3:0:0:0:
187,115,9242,1,2,0:1:0:0:
279,90,9453,2,0,P|322:107|353:110,1,63.7500024318696,8|8,0:3|3:3,0:0:0:0:
482,80,9876,2,0,P|439:63|408:60,1,63.7500024318696,2|0,0:1|3:0,0:0:0:0:
494,173,10298,5,0,0:0:0:0:
498,194,10404,1,0,3:0:0:0:
496,215,10508,2,0,P|485:261|490:295,2,63.7500024318696,8|0|2,3:3|0:0|0:1,0:0:0:0:
393,287,11143,2,0,P|404:333|399:367,2,63.7500024318696,8|0|2,3:3|0:0|3:1,0:0:0:0:
304,333,11776,2,0,P|273:332|242:326,2,63.7500024318696,8|2|0,0:3|3:1|0:0,0:0:0:0:
271,240,12411,2,0,P|239:233|207:233,2,63.7500024318696,8|2|0,3:3|3:1|0:0,0:0:0:0:
141,310,13045,6,0,L|120:230,1,63.7500024318696,8|2,3:3|0:1,0:0:0:0:
32,363,13467,2,0,L|48:295,1,63.7500024318696,8|2,3:3|0:1,0:0:0:0:
36,262,13784,1,0,3:0:0:0:
18,230,13890,6,0,L|22:198,3,31.8750012159348,0|0|0|0,3:0|0:0|0:0|0:0,0:0:0:0:
94,131,14312,2,0,L|98:163,3,31.8750012159348,2|0|0|0,0:1|0:0|3:0|0:0,0:0:0:0:
181,219,14735,1,0,0:0:0:0:
261,106,14946,1,2,3:1:0:0:
262,195,15157,1,0,0:0:0:0:
181,64,15368,2,0,P|171:94|174:126,1,63.7500024318696,8|8,3:3|3:3,0:0:0:0:
96,44,15791,6,0,P|83:110|100:182,1,127.500004863739,4|0,0:0|0:0,0:0:0:0:
221,212,16425,1,4,0:3:0:0:
221,212,16530,1,4,0:3:0:0:
221,212,16636,1,8,0:3:0:0:
143,321,16846,1,8,0:3:0:0:
125,245,17058,1,8,0:3:0:0:
261,322,17270,5,2,0:3:0:0:
261,322,17692,2,0,L|347:318,1,63.7500024318696,2|8,0:1|3:3,0:0:0:0:
397,251,18115,1,8,0:3:0:0:
418,346,18326,1,2,3:1:0:0:
247,208,18749,1,2,3:1:0:0:
316,154,18960,6,0,P|361:147|395:153,1,63.7500024318696,8|0,0:3|3:0,0:0:0:0:
221,117,19383,1,2,3:1:0:0:
354,230,19594,2,0,L|342:314,1,63.7500024318696,8|8,0:3|3:3,0:0:0:0:
206,260,20016,2,0,P|259:254|284:263,1,63.7500024318696,2|0,0:1|3:0,0:0:0:0:
142,333,20439,1,2,0:1:0:0:
133,303,20545,1,0,3:0:0:0:
124,278,20650,5,8,3:3:0:0:
28,146,21073,2,0,P|20:182|27:221,1,63.7500024318696,2|8,0:1|3:3,0:0:0:0:
89,265,21495,1,8,0:3:0:0:
105,184,21707,1,2,3:1:0:0:
238,93,22129,1,2,3:1:0:0:
296,163,22340,6,0,P|245:179|209:177,1,63.7500024318696,8|0,0:3|3:0,0:0:0:0:
347,233,22763,1,2,3:1:0:0:
391,149,22974,2,0,L|370:72,1,63.7500024318696,8|8,0:3|3:3,0:0:0:0:
462,226,23397,2,0,L|478:153,1,63.7500024318696,2|0,0:1|3:0,0:0:0:0:
352,293,23819,1,2,0:1:0:0:
349,263,23925,1,0,3:0:0:0:
347,233,24030,5,8,3:3:0:0:
195,344,24453,2,0,P|143:353|110:346,1,63.7500024318696,2|8,0:1|3:3,0:0:0:0:
68,295,24876,1,8,0:3:0:0:
9,352,25087,1,2,3:1:0:0:
9,352,25509,1,2,3:1:0:0:
55,232,25721,6,0,L|68:295,1,63.7500024318696,8|0,0:3|3:0,0:0:0:0:
119,172,26143,1,2,3:1:0:0:
180,283,26354,2,0,L|193:211,1,63.7500024318696,8|8,0:3|3:3,0:0:0:0:
281,235,26777,2,0,L|268:163,1,63.7500024318696,2|0,0:1|3:0,0:0:0:0:
367,117,27199,1,2,0:1:0:0:
361,148,27305,1,0,3:0:0:0:
356,180,27410,5,8,3:3:0:0:
447,317,27833,2,8,L|383:309,1,63.7500024318696,2|8,0:1|3:3,0:0:0:0:
311,355,28256,1,8,0:3:0:0:
261,286,28467,1,2,3:1:0:0:
261,286,28890,1,2,3:1:0:0:
140,344,29101,5,8,0:3:0:0:
170,256,29312,1,2,0:2:0:0:
82,276,29523,1,8,3:3:0:0:
246,216,29735,2,0,P|186:173|113:190,1,127.500004863739,2|2,0:2|0:1,0:0:0:0:
54,230,30369,1,4,0:3:0:0:
61,142,30580,1,8,0:3:0:0:
53,126,30685,1,8,0:3:0:0:
46,111,30791,5,2,0:3:0:0:
245,161,31214,2,0,L|257:90,1,63.7500024318696,2|8,0:1|3:3,0:0:0:0:
205,31,31636,1,8,0:3:0:0:
135,74,31847,1,2,3:1:0:0:
135,74,32270,1,2,3:1:0:0:
112,231,32481,6,0,L|84:148,1,63.7500024318696,8|0,0:3|3:0,0:0:0:0:
34,277,32904,1,2,3:1:0:0:
168,305,33115,2,0,P|140:317|92:323,1,63.7500024318696,8|8,0:3|3:3,0:0:0:0:
240,261,33538,2,0,L|261:341,1,63.7500024318696,2|0,0:1|3:0,0:0:0:0:
198,190,33960,1,2,0:1:0:0:
233,181,34066,1,0,3:0:0:0:
269,185,34171,5,8,3:3:0:0:
395,45,34594,2,0,L|393:139,1,63.7500024318696,2|8,0:1|3:3,0:0:0:0:
306,52,35016,1,8,0:3:0:0:
482,75,35227,1,2,3:1:0:0:
482,75,35650,1,2,3:1:0:0:
446,174,35861,6,0,P|402:190|371:188,1,63.7500024318696,8|0,0:3|3:0,0:0:0:0:
300,153,36284,1,2,3:1:0:0:
317,251,36495,1,8,0:3:0:0:
177,159,36707,5,8,3:3:0:0:
227,59,36918,1,2,0:1:0:0:
116,20,37129,1,0,3:0:0:0:
73,127,37340,1,0,0:0:0:0:
60,160,37446,1,0,3:0:0:0:
50,189,37552,5,8,3:3:0:0:
141,245,37763,2,0,P|144:277|143:309,2,63.7500024318696,0|2|8,0:0|0:1|3:3,0:0:0:0:
157,159,38397,1,8,0:3:0:0:
224,208,38608,2,0,P|268:202|316:212,1,63.7500024318696,2|0,3:1|0:0,0:0:0:0:
174,279,39029,1,2,3:1:0:0:
322,293,39242,6,0,P|290:293|260:286,1,63.7500024318696,8|0,0:3|3:0,0:0:0:0:
400,246,39664,1,2,3:1:0:0:
467,358,39876,2,0,P|478:302|471:269,1,63.7500024318696,8|8,0:3|3:3,0:0:0:0:
474,144,40298,2,0,P|474:175|484:206,1,63.7500024318696,2|0,0:1|3:0,0:0:0:0:
359,167,40720,1,2,0:1:0:0:
328,162,40826,1,0,3:0:0:0:
297,171,40932,5,8,3:3:0:0:
394,27,41354,2,0,L|413:88,1,63.7500024318696,2|8,0:1|3:3,0:0:0:0:
308,69,41777,1,8,0:3:0:0:
207,168,41988,2,0,L|225:107,1,63.7500024318696,2|0,3:1|0:0,0:0:0:0:
164,38,42411,1,0,3:0:0:0:
113,200,42622,5,8,0:3:0:0:
75,108,42833,1,2,0:0:0:0:
10,184,43045,1,0,3:0:0:0:
156,127,43256,2,0,L|151:272,1,127.500004863739,2|2,0:0|0:1,0:0:0:0:
83,324,43890,1,4,0:3:0:0:
218,307,44101,1,8,0:3:0:0:
235,290,44207,1,8,0:3:0:0:
256,279,44311,6,0,P|308:268|384:283,1,127.500004863739,2|2,0:3|0:1,0:0:0:0:
462,220,44946,2,0,L|478:145,1,63.7500024318696,8|8,3:3|0:3,0:0:0:0:
358,103,45369,2,0,L|371:165,1,63.7500024318696,2|0,3:1|0:0,0:0:0:0:
266,81,45791,1,2,3:1:0:0:
204,159,46002,2,0,P|247:179|279:177,1,63.7500024318696,8|0,0:3|3:0,0:0:0:0:
127,210,46425,6,0,L|111:142,1,63.7500024318696,2|8,3:1|0:3,0:0:0:0:
24,295,46847,2,0,L|38:228,1,63.7500024318696,8|0,3:3|0:0,0:0:0:0:
109,345,47270,1,0,3:0:0:0:
237,302,47481,1,2,0:1:0:0:
210,290,47587,1,0,3:0:0:0:
184,287,47692,1,8,3:3:0:0:
317,358,47903,1,0,0:0:0:0:
384,281,48115,5,2,0:1:0:0:
388,249,48220,1,0,0:0:0:0:
383,218,48326,1,8,3:3:0:0:
367,190,48431,1,0,0:0:0:0:
350,165,48537,1,8,0:3:0:0:
347,133,48643,1,0,0:0:0:0:
353,102,48748,1,0,3:0:0:0:
370,75,48854,1,0,0:0:0:0:
397,59,48960,5,0,0:0:0:0:
427,64,49066,1,0,0:0:0:0:
447,88,49171,1,2,3:1:0:0:
447,119,49277,1,0,0:0:0:0:
414,153,49383,5,8,0:3:0:0:
369,170,49488,1,0,0:0:0:0:
322,164,49593,1,0,3:0:0:0:
282,139,49699,1,0,0:0:0:0:
260,98,49805,5,2,3:1:0:0:
211,222,50016,1,8,0:3:0:0:
126,125,50228,1,8,3:3:0:0:
116,163,50333,1,0,0:0:0:0:
107,202,50439,1,2,0:1:0:0:
97,241,50544,1,0,0:0:0:0:
88,279,50650,6,0,L|92:333,1,31.8750012159348,0|0,3:0|0:0,0:0:0:0:
11,177,50861,2,0,L|16:218,1,31.8750012159348,2|0,0:1|3:0,0:0:0:0:
91,84,51073,6,0,P|159:70|244:97,1,146.200002230835,8|2,3:3|0:1,0:0:0:0:
332,166,51707,2,0,P|372:173|424:162,1,73.1000011154175,8|8,3:3|0:3,0:0:0:0:
483,89,52129,1,2,3:1:0:0:
510,207,52340,1,0,0:0:0:0:
372,94,52552,6,0,P|381:36|397:10,1,73.1000011154175,2|8,3:1|0:3,0:0:0:0:
276,140,52974,1,0,3:0:0:0:
270,31,53185,1,2,3:1:0:0:
178,104,53397,2,0,P|130:119|103:118,2,73.1000011154175,8|8|2,0:3|3:3|0:1,0:0:0:0:
22,72,54030,2,0,P|10:122|18:157,1,73.1000011154175,0|2,3:0|0:1,0:0:0:0:
28,174,54347,1,0,3:0:0:0:
54,199,54453,6,0,P|124:186|219:204,1,146.200002230835,8|2,3:3|0:1,0:0:0:0:
232,213,54980,1,0,0:0:0:0:
255,245,55086,1,8,3:3:0:0:
174,356,55298,2,0,L|180:274,1,73.1000011154175,8|2,0:3|3:1,0:0:0:0:
348,207,55721,2,0,L|355:283,1,73.1000011154175,0|2,0:0|3:1,0:0:0:0:
265,136,56143,6,0,P|338:99|416:123,1,146.200002230835,8|2,0:3|0:1,0:0:0:0:
348,207,56777,1,8,3:3:0:0:
462,199,56988,1,8,0:3:0:0:
341,317,57199,1,2,3:1:0:0:
441,294,57411,1,0,0:0:0:0:
330,214,57622,1,2,3:1:0:0:
257,373,57832,6,0,P|246:300|250:216,1,146.200002230835,8|2,0:3|0:1,0:0:0:0:
132,288,58467,1,8,3:3:0:0:
225,137,58678,1,8,0:3:0:0:
227,110,58784,1,0,3:0:0:0:
228,83,58890,1,8,3:3:0:0:
350,217,59101,1,0,0:0:0:0:
140,194,59312,1,8,3:3:0:0:
336,101,59523,5,8,0:3:0:0:
302,295,59735,1,0,0:0:0:0:
223,61,59946,5,0,1:0:0:0:
174,272,60157,1,8,0:3:0:0:
67,93,60369,5,8,0:3:0:0:
248,231,60580,1,0,0:0:0:0:
8,230,60791,5,0,1:0:0:0:
244,101,61002,1,0,0:0:0:0:
99,276,61214,5,8,0:3:0:0:
45,79,61425,1,0,0:0:0:0:
10,321,61636,1,0,1:0:0:0:
108,144,61846,1,8,0:3:0:0:
211,258,62059,5,10,0:2:0:0:
243,270,62164,1,2,0:2:0:0:
278,272,62270,2,0,L|283:329,1,42.5,2|2,1:2|0:2,0:0:0:0:
340,177,62481,2,0,L|341:124,1,42.5,2|2,1:2|0:2,0:0:0:0:
411,238,62692,1,2,0:2:0:0:
443,252,62797,1,2,0:2:0:0:
480,253,62904,5,10,0:2:0:0:
252,127,63115,1,0,0:0:0:0:
510,164,63326,5,0,1:0:0:0:
252,263,63538,1,8,0:3:0:0:
422,60,63749,5,8,0:3:0:0:
432,283,63960,1,0,0:0:0:0:
282,130,64171,5,0,1:0:0:0:
286,384,64383,1,0,0:0:0:0:
441,122,64594,5,8,0:3:0:0:
193,218,64805,1,0,0:0:0:0:
389,313,65016,1,0,1:0:0:0:
333,81,65228,1,8,0:3:0:0:
193,218,65439,5,10,0:2:0:0:
172,125,65650,1,2,1:2:0:0:
261,157,65861,1,10,1:2:0:0:
81,124,66073,1,2,0:0:0:0:
81,124,66178,1,0,0:0:0:0:
81,124,66284,5,10,0:2:0:0:
45,273,66495,1,0,0:0:0:0:
157,53,66707,5,0,1:0:0:0:
156,300,66918,1,8,0:3:0:0:
257,65,67129,5,8,0:3:0:0:
61,151,67340,1,0,0:0:0:0:
259,248,67551,1,0,1:0:0:0:
146,45,67762,6,0,L|144:223,1,170
44,360,68397,1,0,1:0:0:0:
237,261,68608,1,8,0:3:0:0:
9,191,68819,5,10,0:2:0:0:
278,338,69030,1,0,1:0:0:0:
6,337,69242,1,0,1:0:0:0:
269,190,69453,1,0,0:0:0:0:
269,190,69559,1,0,0:0:0:0:
269,190,69664,6,0,P|356:181|432:246,1,170,10|0,0:2|1:0,0:0:0:0:
324,296,70298,1,8,0:3:0:0:
502,280,70509,2,0,P|518:216|505:174,1,85,10|0,0:2|0:0,0:0:0:0:
397,77,70932,1,0,1:0:0:0:
201,277,71143,6,0,P|177:155|212:93,1,170,2|0,0:2|0:0,0:0:0:0:
326,44,71777,1,0,1:0:0:0:
107,56,71988,1,8,0:3:0:0:
333,189,72199,1,10,1:2:0:0:
333,189,72305,1,0,1:0:0:0:
333,189,72411,1,0,1:0:0:0:
48,167,72621,5,0,1:0:0:0:
37,197,72726,1,0,1:0:0:0:
33,228,72832,1,0,1:0:0:0:
35,260,72937,1,0,0:0:0:0:
43,290,73044,5,10,0:2:0:0:
177,57,73256,1,0,0:0:0:0:
157,281,73467,5,0,1:0:0:0:
85,73,73678,1,8,0:3:0:0:
117,363,73890,5,8,0:3:0:0:
195,138,74101,1,0,0:0:0:0:
8,276,74312,1,0,1:0:0:0:
260,233,74523,1,0,0:0:0:0:
29,175,74735,6,0,P|19:102|31:67,1,85,8|0,0:3|0:0,0:0:0:0:
115,238,75157,1,0,1:0:0:0:
179,62,75369,1,8,0:3:0:0:
216,218,75580,5,10,0:2:0:0:
246,230,75685,1,2,0:2:0:0:
281,227,75791,2,0,L|298:167,1,42.5,2|2,1:2|0:2,0:0:0:0:
351,324,76002,2,0,L|361:373,1,42.5,2|2,1:2|0:2,0:0:0:0:
432,238,76214,1,2,0:2:0:0:
456,199,76319,1,2,0:2:0:0:
463,156,76425,5,10,0:2:0:0:
250,208,76636,1,0,0:0:0:0:
415,61,76847,5,2,1:0:0:0:
326,271,77059,1,8,0:3:0:0:
325,33,77270,5,8,0:3:0:0:
134,164,77481,1,0,0:0:0:0:
351,181,77692,1,0,1:0:0:0:
158,13,77904,1,0,0:0:0:0:
209,315,78115,6,0,P|234:270|238:219,1,85,8|0,0:3|0:0,0:0:0:0:
118,90,78538,1,0,1:0:0:0:
153,248,78749,1,8,0:3:0:0:
50,152,78960,5,10,0:2:0:0:
18,178,79066,1,2,0:2:0:0:
3,219,79171,2,0,L|-2:269,1,42.5,2|2,1:2|0:2,0:0:0:0:
84,352,79383,2,0,L|75:302,1,42.5,2|2,1:2|0:2,0:0:0:0:
153,248,79594,1,2,0:2:0:0:
194,240,79699,1,2,0:2:0:0:
236,247,79805,5,10,0:2:0:0:
182,9,80016,1,0,0:0:0:0:
153,248,80227,5,0,1:0:0:0:
333,73,80439,1,8,0:3:0:0:
97,173,80650,5,8,0:3:0:0:
272,12,80861,1,0,0:0:0:0:
291,234,81073,1,0,1:0:0:0:
173,62,81284,6,0,P|106:41|17:87,1,170
8,283,81918,1,0,1:0:0:0:
106,144,82129,1,8,0:3:0:0:
163,369,82340,5,10,0:2:0:0:
9,166,82552,1,0,0:0:0:0:
225,202,82763,1,0,1:0:0:0:
57,346,82974,1,0,0:0:0:0:
57,346,83080,1,0,0:0:0:0:
57,346,83185,6,0,P|64:292|85:248,1,85,10|0,0:2|0:0,0:0:0:0:
225,202,83607,1,0,1:0:0:0:
174,316,83819,1,8,0:3:0:0:
87,153,84030,1,10,0:2:0:0:
57,346,84242,1,0,0:0:0:0:
225,202,84452,1,0,1:0:0:0:
143,67,84664,6,0,P|84:55|32:66,2,85,0|10|0,0:0|0:2|0:0,0:0:0:0:
225,202,85298,1,0,1:0:0:0:
87,153,85509,1,8,0:3:0:0:
265,47,85721,5,10,1:2:0:0:
304,47,85826,1,0,1:0:0:0:
343,45,85932,1,0,1:0:0:0:
431,221,86143,1,8,1:3:0:0:
456,189,86249,1,0,0:0:0:0:
465,152,86354,1,0,0:0:0:0:
463,110,86460,1,0,0:0:0:0:
452,75,86565,5,8,0:3:0:0:
327,90,86776,1,0,0:0:0:0:
377,14,86987,1,2,0:1:0:0:
237,125,87198,5,8,3:3:0:0:
286,9,87409,1,8,3:3:0:0:
327,90,87620,1,2,0:1:0:0:
162,25,87832,5,0,0:0:0:0:
237,125,88043,1,2,3:1:0:0:
147,120,88254,1,8,0:3:0:0:
313,186,88465,5,0,3:0:0:0:
188,201,88676,1,2,3:1:0:0:
237,125,88889,1,8,0:3:0:0:
120,250,89100,6,0,P|123:282|134:312,1,63.7500024318696,8|2,3:3|0:1,0:0:0:0:
222,201,89522,2,0,P|208:230|204:262,1,63.7500024318696,8|2,3:3|0:1,0:0:0:0:
213,299,89840,1,0,3:0:0:0:
234,336,89946,6,0,L|233:384,3,31.8750012159348,8|0|0|0,3:3|0:0|0:0|0:0,0:0:0:0:
313,301,90369,2,0,L|313:270,3,31.8750012159348,2|0|0|0,0:1|0:0|3:0|0:0,0:0:0:0:
387,349,90791,1,0,0:0:0:0:
372,210,91002,1,2,3:1:0:0:
488,271,91214,1,0,0:0:0:0:
466,140,91425,2,0,P|478:84|494:61,1,63.7500024318696,2|0,3:1|0:0,0:0:0:0:
403,21,91847,1,0,0:0:0:0:
403,21,92270,1,12,0:3:0:0:
316,114,92481,5,12,0:3:0:0:
297,90,92587,1,12,0:3:0:0:
283,56,92692,1,8,0:3:0:0:
184,26,92904,1,8,0:3:0:0:
92,76,93115,1,8,0:3:0:0:
64,193,93326,5,2,0:3:0:0:
117,252,93749,2,0,P|161:242|201:236,1,63.7500024318696,2|8,0:1|3:3,0:0:0:0:
254,273,94171,1,8,0:3:0:0:
238,183,94383,1,2,3:1:0:0:
319,217,94805,5,2,3:1:0:0:
376,152,95016,2,0,P|383:98|395:62,1,63.7500024318696,8|0,0:3|3:0,0:0:0:0:
452,42,95439,1,2,3:1:0:0:
504,116,95650,2,0,P|506:172|503:194,1,63.7500024318696,8|8,0:3|3:3,0:0:0:0:
428,300,96073,2,0,P|427:268|430:237,1,63.7500024318696,2|0,0:1|3:0,0:0:0:0:
356,354,96495,1,2,0:1:0:0:
334,363,96601,1,0,3:0:0:0:
312,371,96707,5,8,3:3:0:0:
252,310,97129,2,0,P|203:306|176:306,1,63.7500024318696,2|8,0:1|3:3,0:0:0:0:
123,364,97552,1,8,0:3:0:0:
124,246,97763,1,2,3:1:0:0:
58,299,98185,5,2,3:1:0:0:
23,226,98397,2,0,P|37:176|42:146,1,63.7500024318696,8|0,0:3|3:0,0:0:0:0:
29,81,98819,1,2,3:1:0:0:
112,116,99030,1,8,0:3:0:0:
244,49,99242,5,8,3:3:0:0:
353,116,99453,1,2,0:1:0:0:
317,240,99664,1,0,3:0:0:0:
177,219,99876,1,2,0:1:0:0:
144,220,99981,1,0,3:0:0:0:
113,233,100087,1,8,3:3:0:0:
0,321,100298,6,0,P|3:352|15:382,2,63.7500024318696,0|2|8,0:0|0:1|3:3,0:0:0:0:
84,326,100932,1,8,0:3:0:0:
164,360,101143,1,2,3:1:0:0:
246,325,101566,5,2,3:1:0:0:
219,244,101777,2,0,P|248:177|249:166,1,63.7500024318696,8|0,0:3|3:0,0:0:0:0:
203,107,102199,1,2,3:1:0:0:
146,171,102410,2,0,P|73:179|63:184,1,63.7500024318696,8|8,0:3|3:3,0:0:0:0:
12,120,102833,2,0,P|19:80|17:38,1,63.7500024318696,2|0,0:1|3:0,0:0:0:0:
107,86,103256,1,2,0:1:0:0:
138,69,103361,1,0,3:0:0:0:
166,56,103467,1,8,3:3:0:0:
251,82,103890,6,0,P|280:76|325:72,1,63.7500024318696,2|8,0:1|3:3,0:0:0:0:
381,136,104312,1,8,0:3:0:0:
461,93,104523,1,2,3:1:0:0:
461,185,104946,5,2,3:1:0:0:
376,323,105157,1,8,0:3:0:0:
373,223,105369,1,0,3:0:0:0:
466,284,105580,1,2,3:1:0:0:
287,266,105791,2,0,P|223:260|142:274,1,127.500004863739,8|2,0:3|0:1,0:0:0:0:
89,344,106425,1,0,3:0:0:0:
50,250,106636,1,0,0:0:0:0:
56,223,106742,1,0,3:0:0:0:
67,198,106847,6,0,P|130:183|219:199,1,127.500004863739,8|0,3:3|0:1,0:0:0:0:
288,259,107481,2,0,P|297:230|304:175,1,63.7500024318696,8|8,3:3|0:3,0:0:0:0:
415,225,107904,2,0,P|407:183|407:141,1,63.7500024318696,2|0,3:1|0:0,0:0:0:0:
337,85,108326,1,2,3:1:0:0:
456,77,108537,6,0,P|483:100|502:135,1,63.7500024318696,8|0,0:3|3:0,0:0:0:0:
455,248,108959,2,0,P|421:259|381:258,1,63.7500024318696,2|8,3:1|0:3,0:0:0:0:
308,162,109382,2,0,P|314:127|335:93,1,63.7500024318696,8|2,3:3|0:1,0:0:0:0:
406,162,109804,1,0,3:0:0:0:
221,111,110016,1,2,0:1:0:0:
207,123,110121,1,0,3:0:0:0:
195,133,110228,5,8,3:3:0:0:
325,110,110439,1,0,0:0:0:0:
166,45,110650,1,2,0:1:0:0:
128,70,110755,1,0,0:0:0:0:
107,110,110861,1,8,3:3:0:0:
107,156,110966,1,0,0:0:0:0:
128,196,111072,5,8,0:3:0:0:
144,229,111178,1,0,0:0:0:0:
147,265,111284,1,0,3:0:0:0:
140,301,111390,1,0,0:0:0:0:
113,325,111495,1,0,0:0:0:0:
68,321,111600,1,0,0:0:0:0:
36,290,111706,1,2,3:1:0:0:
33,245,111811,1,0,0:0:0:0:
62,202,111917,5,8,0:3:0:0:
107,178,112023,1,0,0:0:0:0:
157,171,112129,1,0,3:0:0:0:
208,182,112234,1,0,0:0:0:0:
251,209,112339,5,2,3:1:0:0:
297,120,112551,1,8,0:3:0:0:
308,287,112763,1,8,3:3:0:0:
349,305,112868,1,0,0:0:0:0:
395,307,112974,1,2,0:1:0:0:
438,293,113079,1,0,0:0:0:0:
473,264,113185,6,0,L|518:255,1,31.8750012159348,0|0,3:0|0:0,0:0:0:0:
375,170,113397,2,0,L|371:121,1,31.8750012159348,2|0,0:1|3:0,0:0:0:0:
308,287,113608,6,0,P|235:291|163:278,1,146.200002230835,8|2,3:0|0:1,0:0:0:0:
68,218,114242,2,0,P|53:276|60:317,1,73.1000011154175,8|8,3:3|0:3,0:0:0:0:
117,373,114664,1,2,3:1:0:0:
143,264,114876,1,0,0:0:0:0:
296,335,115087,6,0,P|260:334|227:320,1,73.1000011154175,2|8,3:1|0:3,0:0:0:0:
373,277,115509,1,0,3:0:0:0:
385,368,115721,1,2,3:1:0:0:
276,236,115932,2,0,P|273:176|277:143,2,73.1000011154175,8|8|2,0:3|3:3|0:1,0:0:0:0:
389,156,116566,2,0,P|367:99|350:73,1,73.1000011154175,0|2,3:0|0:1,0:0:0:0:
330,64,116883,1,0,3:0:0:0:
297,76,116988,6,0,P|238:86|144:67,1,146.200002230835,8|2,3:3|0:1,0:0:0:0:
117,85,117515,1,0,0:0:0:0:
93,117,117621,1,8,3:3:0:0:
147,272,117833,2,0,L|137:190,1,73.1000011154175,8|2,0:3|3:1,0:0:0:0:
24,327,118256,2,0,L|42:249,1,73.1000011154175,0|2,0:0|3:1,0:0:0:0:
116,369,118678,6,0,P|201:351|282:365,1,146.200002230835,8|2,0:3|0:1,0:0:0:0:
324,279,119312,1,8,3:3:0:0:
365,369,119523,1,8,0:3:0:0:
429,218,119735,1,2,3:1:0:0:
324,279,119946,1,0,0:0:0:0:
472,313,120157,1,2,3:1:0:0:
333,196,120369,6,0,P|312:108|334:39,1,146.200002230835,8|2,0:3|3:1,0:0:0:0:
439,119,121002,1,8,0:3:0:0:
359,294,121214,1,8,0:3:0:0:
331,291,121319,1,0,3:0:0:0:
305,286,121425,1,2,3:1:0:0:
165,156,121636,1,0,0:0:0:0:
164,349,121847,1,2,3:1:0:0:
271,191,122059,5,8,0:3:0:0:
56,289,122270,1,0,0:0:0:0:
297,275,122481,5,0,1:0:0:0:
42,188,122692,1,8,0:3:0:0:
213,362,122904,5,8,0:3:0:0:
118,126,123115,1,0,0:0:0:0:
374,266,123326,1,0,1:0:0:0:
102,326,123538,1,0,0:0:0:0:
297,130,123749,5,8,0:3:0:0:
241,362,123960,1,0,0:0:0:0:
192,127,124171,1,0,1:0:0:0:
301,298,124383,1,8,0:3:0:0:
326,140,124594,5,10,0:2:0:0:
345,112,124699,1,2,0:2:0:0:
363,80,124805,2,0,L|360:23,1,42.5,2|2,1:2|0:2,0:0:0:0:
442,190,125016,2,0,L|438:148,1,42.5,2|2,1:2|0:2,0:0:0:0:
372,287,125228,1,2,0:2:0:0:
343,296,125332,1,2,0:2:0:0:
310,308,125439,5,10,0:2:0:0:
233,118,125649,1,0,0:0:0:0:
215,356,125861,5,0,1:0:0:0:
329,171,126073,1,8,0:3:0:0:
112,258,126284,5,8,0:3:0:0:
362,301,126495,1,0,0:0:0:0:
115,374,126707,1,0,1:0:0:0:
213,100,126918,1,0,0:0:0:0:
292,381,127129,5,8,0:3:0:0:
135,139,127340,1,0,0:0:0:0:
195,369,127552,1,0,1:0:0:0:
260,175,127763,1,8,0:3:0:0:
134,306,127974,5,10,0:2:0:0:
101,315,128080,1,2,0:2:0:0:
69,326,128185,2,0,L|44:375,1,42.5,2|2,1:2|0:2,0:0:0:0:
17,186,128397,2,0,L|12:229,1,42.5,2|2,1:2|0:2,0:0:0:0:
91,102,128608,1,2,0:2:0:0:
121,115,128714,1,2,0:2:0:0:
149,125,128819,5,10,0:2:0:0:
84,343,129030,1,0,0:0:0:0:
11,134,129242,5,0,1:0:0:0:
193,313,129453,1,8,0:3:0:0:
2,228,129664,5,8,0:3:0:0:
261,148,129876,1,0,0:0:0:0:
80,128,130087,1,0,1:0:0:0:
69,162,130192,1,0,0:0:0:0:
79,194,130297,6,0,P|120:200|163:195,1,85,0|8,0:0|0:3,0:0:0:0:
257,226,130721,1,0,0:0:0:0:
243,52,130932,5,0,1:0:0:0:
217,302,131143,1,8,0:3:0:0:
151,57,131354,5,10,0:2:0:0:
313,284,131566,1,0,1:0:0:0:
348,11,131777,1,0,1:0:0:0:
182,211,131988,1,0,0:0:0:0:
182,211,132094,1,0,0:0:0:0:
182,211,132198,6,0,P|130:228|24:189,1,170,10|0,0:2|1:0,0:0:0:0:
116,105,132833,1,8,0:3:0:0:
226,128,133044,1,10,0:2:0:0:
226,128,133149,1,0,0:0:0:0:
226,128,133255,1,0,0:0:0:0:
369,34,133466,1,0,1:0:0:0:
511,295,133677,6,0,P|516:212|468:127,1,170,2|8,0:0|0:0,0:0:0:0:
356,349,134312,1,0,1:0:0:0:
411,236,134523,1,8,0:3:0:0:
257,306,134735,1,10,1:2:0:0:
227,290,134839,1,0,1:0:0:0:
197,274,134946,1,0,1:0:0:0:
95,101,135157,5,0,1:0:0:0:
77,151,135262,1,0,1:0:0:0:
60,201,135368,1,0,1:0:0:0:
43,251,135473,1,0,0:0:0:0:
26,302,135579,5,10,0:2:0:0:
1,93,135791,1,0,0:0:0:0:
147,303,136002,5,0,1:0:0:0:
156,44,136214,1,8,0:3:0:0:
266,302,136425,5,8,0:3:0:0:
101,132,136636,1,0,0:0:0:0:
358,241,136847,1,0,1:0:0:0:
91,234,137059,1,0,0:0:0:0:
348,148,137270,5,8,0:3:0:0:
120,37,137481,1,0,0:0:0:0:
229,247,137692,1,0,1:0:0:0:
276,0,137904,1,8,0:3:0:0:
370,164,138115,5,10,0:2:0:0:
401,184,138221,1,2,0:2:0:0:
438,202,138326,2,0,L|485:195,1,42.5,2|2,1:2|0:2,0:0:0:0:
334,298,138538,2,0,L|399:288,1,42.5,2|2,1:2|0:2,0:0:0:0:
229,247,138749,1,2,0:2:0:0:
215,287,138854,1,2,0:2:0:0:
205,328,138960,5,10,0:2:0:0:
355,147,139171,1,0,0:0:0:0:
143,239,139383,5,0,1:0:0:0:
414,290,139594,1,8,0:3:0:0:
200,131,139805,5,8,0:3:0:0:
417,27,140016,1,0,0:0:0:0:
154,7,140228,1,0,1:0:0:0:
409,161,140439,1,0,0:0:0:0:
47,154,140649,5,8,0:3:0:0:
251,66,140861,1,0,0:0:0:0:
157,289,141073,1,0,1:0:0:0:
141,106,141284,1,8,0:3:0:0:
275,235,141495,5,10,0:2:0:0:
312,245,141601,1,2,0:2:0:0:
355,251,141707,2,0,L|370:193,1,42.5,2|2,1:2|0:2,0:0:0:0:
457,125,141918,2,0,L|476:182,1,42.5,2|2,1:2|0:2,0:0:0:0:
356,40,142129,1,2,0:2:0:0:
329,34,142235,1,2,0:2:0:0:
298,30,142340,5,10,0:2:0:0:
307,279,142552,1,0,0:0:0:0:
203,77,142763,5,0,1:0:0:0:
399,238,142974,1,8,0:3:0:0:
125,190,143185,5,8,0:3:0:0:
321,371,143397,1,0,0:0:0:0:
288,97,143608,1,0,1:0:0:0:
194,373,143819,2,0,P|138:379|90:371,1,85,0|8,0:0|0:3,0:0:0:0:
291,226,144242,5,0,0:0:0:0:
23,177,144453,1,0,1:0:0:0:
240,130,144664,1,8,0:3:0:0:
39,274,144876,5,10,0:2:0:0:
93,6,145087,1,0,1:0:0:0:
169,298,145298,1,0,1:0:0:0:
5,86,145509,1,0,0:0:0:0:
222,204,145721,5,10,0:2:0:0:
249,209,145826,1,0,0:0:0:0:
277,213,145932,1,0,0:0:0:0:
304,217,146038,1,0,0:0:0:0:
330,222,146143,1,0,1:0:0:0:
187,289,146354,1,8,0:3:0:0:
313,320,146566,5,10,0:3:0:0:
339,315,146671,1,0,0:0:0:0:
366,311,146777,1,0,0:0:0:0:
394,307,146883,1,0,0:0:0:0:
421,302,146988,1,0,1:0:0:0:
264,120,147199,6,0,P|294:32|308:18,2,85,0|10|0,0:0|0:2|0:0,0:0:0:0:
301,283,147833,1,0,1:0:0:0:
373,118,148045,1,8,0:3:0:0:
210,225,148256,1,10,1:2:0:0:
174,234,148361,1,0,1:0:0:0:
137,242,148467,1,0,1:0:0:0:
0,107,148678,5,0,1:0:0:0:
27,63,148783,1,0,0:0:0:0:
78,55,148889,1,0,0:0:0:0:
117,88,148994,1,0,0:0:0:0:
118,139,149100,5,8,3:0:0:0:
25,238,149311,2,0,L|30:324,1,76.4999976654053,0|0,3:0|1:0,0:0:0:0:
162,286,149734,2,0,L|167:372,1,76.4999976654053,0|8,3:0|0:3,0:0:0:0:
274,183,150156,2,0,B|283:276,1,76.4999976654053,0|0,3:0|1:0,0:0:0:0:
146,133,150579,2,0,L|164:313,1,152.999995330811,0|0,3:0|3:0,0:0:0:0:
247,126,151213,5,0,1:0:0:0:
353,153,151424,1,0,3:0:0:0:
307,35,151635,1,8,0:3:0:0:
196,26,151846,1,0,3:0:0:0:
146,133,152058,1,0,1:0:0:0:
111,140,152163,1,0,1:0:0:0:
77,136,152269,1,0,0:0:0:0:
112,29,152480,5,0,3:3:0:0:
253,185,152691,2,0,L|233:90,1,76.4999976654053,0|0,3:0|1:0,0:0:0:0:
172,284,153114,2,0,L|152:189,1,76.4999976654053,0|8,3:0|0:3,0:0:0:0:
371,269,153537,2,0,L|351:174,1,76.4999976654053,0|0,3:0|1:0,0:0:0:0:
279,335,153959,2,0,L|252:182,1,152.999995330811,0|0,3:0|3:0,0:0:0:0:
155,230,154593,5,0,1:0:0:0:
161,114,154804,1,0,3:0:0:0:
63,151,155015,1,8,0:3:0:0:
74,39,155227,1,0,3:0:0:0:
230,81,155438,1,0,1:0:0:0:
195,97,155544,1,0,1:0:0:0:
161,114,155649,1,0,0:0:0:0:
284,179,155860,5,8,0:3:0:0:
425,132,156072,2,0,L|339:102,1,76.4999976654053,0|0,3:0|1:0,0:0:0:0:
500,255,156494,2,0,L|414:225,1,76.4999976654053,0|8,3:0|0:3,0:0:0:0:
369,310,156917,2,0,L|283:280,1,76.4999976654053,0|0,3:0|1:0,0:0:0:0:
428,230,157339,2,0,L|270:174,1,152.999995330811,0|0,3:0|3:0,0:0:0:0:
353,94,157973,5,0,1:0:0:0:
245,76,158184,1,0,3:0:0:0:
438,24,158396,1,8,0:3:0:0:
465,125,158607,1,0,3:0:0:0:
353,94,158818,1,0,1:0:0:0:
353,131,158924,1,0,1:0:0:0:
353,169,159029,1,0,0:0:0:0:
267,26,159241,5,8,0:3:0:0:
136,19,159452,1,0,1:0:0:0:
136,19,159663,1,0,1:0:0:0:
231,97,159875,5,8,0:3:0:0:
88,89,160086,1,0,1:0:0:0:
88,89,160297,1,0,1:0:0:0:
212,178,160508,5,8,0:3:0:0:
51,169,160719,1,0,1:0:0:0:
51,169,160930,1,0,1:0:0:0:
222,258,161142,5,8,0:3:0:0:
43,254,161353,1,0,1:0:0:0:
43,254,161564,1,0,1:0:0:0:
229,338,161776,5,8,0:3:0:0:
56,337,161987,1,0,1:0:0:0:
229,338,162198,5,8,0:3:0:0:
56,337,162409,1,0,1:0:0:0:
168,286,162621,5,8,0:3:0:0:
168,286,162832,1,8,0:3:0:0:
223,216,163044,2,0,L|246:120,1,76.4999976654053,0|0,1:0|0:0,0:0:0:0:
137,200,163466,1,8,0:3:0:0:
323,165,163677,2,0,L|422:164,1,76.4999976654053,0|0,0:0|1:0,0:0:0:0:
305,75,164100,1,0,0:0:0:0:
389,247,164311,6,0,L|369:333,1,76.4999976654053,8|8,0:3|0:3,0:0:0:0:
472,254,164734,1,0,1:0:0:0:
281,304,164945,2,0,L|197:304,1,76.4999976654053,0|8,0:0|1:3,0:0:0:0:
173,306,165262,1,0,1:0:0:0:
142,312,165368,1,0,1:0:0:0:
33,353,165579,2,0,L|15:269,2,50.9999984436036,0|0|0,1:0|0:0|0:0,0:0:0:0:
82,234,166001,5,8,0:3:0:0:
249,122,166424,1,2,0:1:0:0:
152,129,166635,1,8,0:3:0:0:
212,214,166846,1,8,0:3:0:0:
387,127,167058,2,0,P|313:107|230:132,1,144.500002756119,2|2,0:1|0:1,0:0:0:0:
28,116,167691,5,8,0:3:0:0:
28,116,168114,1,0,0:0:0:0:
112,120,168325,2,0,L|119:85,1,36.1250006890297,0|0,0:0|0:0,0:0:0:0:
74,190,168537,1,2,0:1:0:0:
129,247,168748,1,2,0:1:0:0:
201,212,168959,1,8,0:3:0:0:
190,133,169170,1,2,0:3:0:0:
243,70,169382,6,0,B|265:51|293:55|293:55|306:73|293:111|337:150,1,144.500002756119,8|2,0:3|0:1,0:0:0:0:
396,186,170015,1,8,0:0:0:0:
324,226,170227,2,0,L|326:280,1,36.1250006890297,8|0,0:3|0:0,0:0:0:0:
246,205,170438,2,0,L|247:161,1,36.1250006890297,2|0,0:1|0:0,0:0:0:0:
325,262,170649,2,0,L|327:316,1,36.1250006890297
246,168,170860,2,0,L|247:124,1,36.1250006890297,2|0,0:1|0:0,0:0:0:0:
152,267,171072,5,8,0:3:0:0:
62,125,171494,1,0,0:0:0:0:
117,58,171706,2,0,P|152:41|253:86,1,144.500002756119,8|2,0:3|0:1,0:0:0:0:
268,156,172339,1,4,0:3:0:0:
174,130,172551,1,8,0:3:0:0:
174,130,172656,1,8,0:3:0:0:
174,130,172762,5,12,0:2:0:0:
90,248,173184,2,0,L|90:211,1,36.1250006890297,2|0,0:1|0:0,0:0:0:0:
140,317,173396,2,0,L|140:362,1,36.1250006890297,8|0,0:3|0:0,0:0:0:0:
167,239,173607,2,0,L|167:203,1,36.1250006890297,8|0,0:3|0:0,0:0:0:0:
63,325,173818,2,0,L|63:369,1,36.1250006890297,2|0,0:1|0:0,0:0:0:0:
260,227,174029,1,2,0:1:0:0:
260,227,174135,1,0,0:0:0:0:
260,227,174241,1,2,1:1:0:0:
260,227,174346,1,0,0:0:0:0:
260,227,174452,5,8,0:3:0:0:
348,281,174663,2,0,L|391:281,1,36.1250006890297
489,245,174875,2,0,L|452:245,1,36.1250006890297,2|0,0:1|0:0,0:0:0:0:
349,206,175086,2,0,L|386:206,1,36.1250006890297,8|0,0:3|0:0,0:0:0:0:
471,136,175297,1,8,0:3:0:0:
367,94,175508,2,0,P|323:85|280:93,1,72.2500013780594,2|0,0:1|1:0,0:0:0:0:
219,136,175931,1,2,0:1:0:0:
188,50,176142,6,0,P|144:82|137:155,1,108.375002067089,8|0,0:3|0:0,0:0:0:0:
132,167,176565,2,0,P|85:190|54:190,1,72.2500013780594,2|8,0:1|0:0,0:0:0:0:
206,251,176987,2,0,P|253:274|284:274,1,72.2500013780594,8|2,0:3|0:1,0:0:0:0:
123,269,177410,2,0,L|115:352,2,72.2500013780594
273,193,178044,1,0,0:0:0:0:
287,180,178149,1,0,0:0:0:0:
304,172,178255,6,0,P|357:168|393:183,1,72.2500013780594,2|8,0:1|0:3,0:0:0:0:
438,297,178677,2,0,L|467:210,1,72.2500013780594,8|2,0:3|0:1,0:0:0:0:
498,142,179100,2,0,L|469:55,1,72.2500013780594,0|2,1:0|0:1,0:0:0:0:
444,56,179417,1,0,0:0:0:0:
409,50,179522,6,0,B|375:36|341:56|341:56|301:78|251:49,1,144.500002756119,8|2,0:3|0:1,0:0:0:0:
200,11,180156,1,8,0:3:0:0:
152,97,180368,2,0,P|148:155|155:197,1,72.2500013780594,8|2,0:3|0:1,0:0:0:0:
234,259,180790,2,0,P|237:208|227:158,1,72.2500013780594,0|2,1:0|0:1,0:0:0:0:
134,261,181213,6,0,P|79:278|40:280,1,72.2500013780594,8|0,0:3|0:0,0:0:0:0:
185,340,181635,2,0,P|218:352|254:358,1,72.2500013780594,2|8,0:1|0:3,0:0:0:0:
338,311,182058,1,8,0:3:0:0:
338,311,182163,1,0,0:0:0:0:
338,311,182269,1,2,0:1:0:0:
338,311,182375,1,0,0:0:0:0:
338,311,182480,2,0,L|386:314,1,36.1250006890297,0|0,1:1|0:0,0:0:0:0:
435,251,182691,2,0,L|481:251,1,36.1250006890297,2|0,0:1|0:0,0:0:0:0:
359,190,182903,6,0,P|320:144|391:137,1,144.500002756119,8|2,0:3|0:1,0:0:0:0:
441,174,183537,1,8,0:3:0:0:
469,75,183748,2,0,L|480:24,1,36.1250006890297,8|0,0:3|0:0,0:0:0:0:
398,46,183959,2,0,L|386:5,1,36.1250006890297,2|0,0:1|0:0,0:0:0:0:
322,80,184170,1,0,1:0:0:0:
300,86,184276,1,0,0:0:0:0:
279,84,184382,1,2,0:1:0:0:
262,79,184487,1,0,0:0:0:0:
243,69,184593,6,0,P|193:64|109:135,1,144.500002756119,8|0,0:3|0:0,0:0:0:0:
33,63,185227,2,0,P|18:129|73:203,1,144.500002756119,8|2,0:3|0:1,0:0:0:0:
142,248,185860,1,0,1:0:0:0:
139,151,186072,1,2,0:1:0:0:
151,163,186177,1,0,0:0:0:0:
165,176,186283,6,0,P|235:187|313:170,1,127.500004863739,8|2,0:3|0:1,0:0:0:0:
368,55,186917,2,0,L|359:136,1,63.7500024318696,8|8,3:3|0:3,0:0:0:0:
435,246,187339,2,0,P|434:203|421:161,1,63.7500024318696,2|0,3:1|0:0,0:0:0:0:
290,178,187762,1,2,3:1:0:0:
360,117,187973,6,0,L|354:54,1,63.7500024318696,8|0,0:3|3:0,0:0:0:0:
293,177,188396,2,0,P|287:209|295:240,1,63.7500024318696,2|8,3:1|0:3,0:0:0:0:
435,246,188818,2,0,P|440:279|428:323,1,63.7500024318696,8|0,3:3|0:0,0:0:0:0:
410,331,189135,1,0,0:0:0:0:
376,342,189241,1,0,3:0:0:0:
267,315,189452,2,0,P|261:269|271:241,1,63.7500024318696,2|8,0:1|3:3,0:0:0:0:
162,287,189875,1,0,0:0:0:0:
323,159,190086,5,2,0:1:0:0:
305,125,190191,1,0,0:0:0:0:
285,95,190297,1,8,3:3:0:0:
265,64,190402,1,0,0:0:0:0:
241,36,190508,1,8,0:3:0:0:
213,60,190613,1,0,0:0:0:0:
181,76,190719,1,2,3:1:0:0:
145,84,190824,1,0,0:0:0:0:
109,83,190930,5,0,0:0:0:0:
113,120,191036,1,0,0:0:0:0:
117,156,191142,1,2,3:1:0:0:
121,193,191247,1,0,0:0:0:0:
124,229,191353,5,8,0:0:0:0:
174,205,191458,1,0,0:0:0:0:
227,196,191564,1,0,3:0:0:0:
282,201,191669,1,0,0:0:0:0:
333,222,191775,5,2,3:1:0:0:
233,344,191987,1,8,0:3:0:0:
401,135,192198,1,8,3:3:0:0:
423,185,192303,1,0,0:0:0:0:
430,239,192409,1,2,0:1:0:0:
421,293,192514,1,0,0:0:0:0:
397,342,192621,6,0,L|378:299,1,31.8750012159348,0|0,3:0|0:0,0:0:0:0:
300,184,192832,2,0,L|287:216,1,31.8750012159348,2|0,0:1|3:0,0:0:0:0:
174,356,193044,6,0,P|176:283|170:211,1,146.200002230835,8|2,0:3|0:1,0:0:0:0:
356,330,193677,2,0,P|406:338|455:325,1,73.1000011154175,8|8,3:3|0:3,0:0:0:0:
480,190,194100,1,2,3:1:0:0:
400,249,194311,1,0,0:0:0:0:
440,100,194522,6,0,P|493:95|528:103,1,73.1000011154175,2|8,3:1|0:3,0:0:0:0:
368,164,194945,1,0,3:0:0:0:
368,34,195156,1,2,0:1:0:0:
279,113,195368,2,0,P|226:118|191:110,2,73.1000011154175,8|8|0,3:3|3:3|0:0,0:0:0:0:
142,42,196001,1,0,3:0:0:0:
131,161,196213,1,2,0:1:0:0:
131,161,196318,1,0,3:0:0:0:
131,161,196424,6,0,P|137:215|133:314,1,146.200002230835,8|2,0:3|0:1,0:0:0:0:
44,350,197058,1,8,3:3:0:0:
220,366,197269,2,0,P|238:282|235:265,1,73.1000011154175,8|2,0:3|3:1,0:0:0:0:
311,187,197691,2,0,P|315:223|330:257,1,73.1000011154175,0|2,0:0|3:1,0:0:0:0:
223,117,198114,6,0,P|316:76|376:91,1,146.200002230835,8|2,0:3|0:1,0:0:0:0:
436,163,198748,1,8,3:3:0:0:
432,4,198959,1,8,0:3:0:0:
356,82,199170,1,2,3:1:0:0:
508,81,199382,1,0,0:0:0:0:
322,0,199593,1,2,3:1:0:0:
380,172,199804,6,0,B|343:189|307:176|307:176|270:160|220:182,1,146.200002230835,8|0,0:3|0:0,0:0:0:0:
212,197,200332,1,0,1:0:0:0:
190,222,200438,1,8,1:3:0:0:
187,340,200649,5,12,0:2:0:0:
104,208,200860,1,0,0:0:0:0:
235,251,201072,1,0,0:0:0:0:
155,266,201283,1,0,0:0:0:0:
196,182,201494,6,0,P|202:142|198:122,1,42.5,2|0,0:0|0:0,0:0:0:0:
173,66,201917,2,0,P|172:33|177:14,1,42.5,0|0,0:0|0:0,0:0:0:0:
259,31,202339,2,0,P|261:52|259:73,1,42.5,2|0,0:0|0:0,0:0:0:0:
201,140,202762,2,0,P|198:161|200:182,1,42.5,0|0,0:0|0:0,0:0:0:0:
291,196,203184,6,0,P|319:196|344:189,2,42.5,2|0|0,0:0|0:0|0:0,0:0:0:0:
224,261,203818,2,0,L|203:352,1,85,2|0,0:0|0:0,0:0:0:0:
96,217,204663,1,0,0:0:0:0:
22,265,204875,6,0,P|18:305|22:326,1,42.5,2|0,0:0|0:0,0:0:0:0:
105,351,205297,2,0,P|105:329|101:308,1,42.5,0|0,0:0|0:0,0:0:0:0:
192,254,205720,2,0,P|234:249|249:252,1,42.5,2|0,0:0|0:0,0:0:0:0:
335,348,206142,2,0,P|299:356|285:353,1,42.5,0|0,0:0|0:0,0:0:0:0:
386,214,206565,5,2,0:0:0:0:
447,328,206776,2,0,P|456:288|457:268,1,42.5,0|0,0:0|0:0,0:0:0:0:
312,166,207198,2,0,P|304:218|307:264,1,85,2|0,0:0|0:0,0:0:0:0:
234,115,208044,1,0,0:0:0:0:
153,149,208255,6,0,P|114:158|93:156,1,42.5,2|0,0:0|0:0,0:0:0:0:
0,103,208677,2,0,P|39:94|60:96,1,42.5,0|0,0:0|0:0,0:0:0:0:
37,175,209100,1,2,0:0:0:0:
116,77,209311,1,0,0:0:0:0:
25,16,209522,1,0,0:0:0:0:
184,14,209734,6,0,P|207:51|212:94,1,85,2|0,0:0|0:0,0:0:0:0:
167,169,210368,2,0,P|163:203|166:221,1,42.5,0|0,0:0|0:0,0:0:0:0:
231,278,210790,2,0,P|237:309|235:335,2,42.5,2|0|0,0:0|0:0|0:0,0:0:0:0:
268,196,211424,2,0,B|355:161|409:230|485:193,1,212.5,2|2,0:0|0:0,0:0:0:0:
319,280,212903,5,0,0:0:0:0:
396,360,213114,1,0,0:0:0:0:
303,364,213325,5,8,0:3:0:0:
427,268,213537,1,0,1:0:0:0:
427,268,213748,1,0,1:0:0:0:
223,331,213959,5,8,0:3:0:0:
427,268,214170,1,0,1:0:0:0:
275,192,214382,1,8,0:3:0:0:
157,245,214593,5,0,1:0:0:0:
144,207,214698,1,0,1:0:0:0:
144,167,214804,1,0,1:0:0:0:
156,128,214910,1,0,0:0:0:0:
186,102,215015,5,10,0:2:0:0:
228,321,215227,1,0,0:0:0:0:
311,84,215438,5,0,1:0:0:0:
157,245,215649,1,8,0:0:0:0:
382,180,215860,5,8,0:0:0:0:
128,146,216072,1,0,0:0:0:0:
314,317,216283,1,0,1:0:0:0:
242,73,216494,1,0,0:0:0:0:
129,337,216706,5,8,0:0:0:0:
281,154,216917,1,0,0:0:0:0:
240,355,217128,1,0,1:0:0:0:
172,218,217339,1,8,0:0:0:0:
252,143,217551,5,10,0:2:0:0:
218,143,217656,1,2,0:2:0:0:
181,144,217762,2,0,L|158:89,1,42.5,2|2,1:2|0:2,0:0:0:0:
92,273,217973,2,0,L|92:201,1,42.5,2|2,1:2|0:2,0:0:0:0:
222,357,218184,1,2,0:2:0:0:
252,344,218290,1,2,0:2:0:0:
290,332,218396,5,10,0:2:0:0:
94,367,218607,1,0,0:0:0:0:
318,245,218818,5,0,1:0:0:0:
92,230,219029,1,8,0:0:0:0:
302,154,219241,5,8,0:0:0:0:
195,353,219452,1,0,0:0:0:0:
175,148,219663,1,0,1:0:0:0:
382,305,219875,2,0,P|448:316|497:312,1,85,0|8,0:0|0:0,0:0:0:0:
264,204,220297,5,0,0:0:0:0:
264,204,220403,1,0,0:0:0:0:
264,204,220508,1,0,1:0:0:0:
124,313,220720,1,8,0:0:0:0:
105,104,220931,5,2,0:2:0:0:
129,121,221037,1,2,0:2:0:0:
148,151,221142,2,0,L|180:100,1,42.5,2|2,1:2|0:2,0:0:0:0:
42,256,221353,2,0,L|26:199,1,42.5,2|2,1:2|0:2,0:0:0:0:
166,254,221565,1,2,0:2:0:0:
197,259,221670,1,2,0:2:0:0:
228,255,221776,5,10,0:2:0:0:
158,41,221987,1,0,0:0:0:0:
332,213,222198,5,0,1:0:0:0:
96,138,222410,1,8,0:0:0:0:
389,117,222621,5,8,0:0:0:0:
134,37,222832,1,0,0:0:0:0:
228,255,223044,1,0,1:0:0:0:
300,4,223255,6,0,P|401:-2|499:9,1,170
281,106,223889,1,0,1:0:0:0:
495,113,224100,1,8,0:0:0:0:
269,279,224311,5,10,0:2:0:0:
381,52,224522,1,0,0:0:0:0:
494,277,224734,1,0,1:0:0:0:
290,135,224945,1,0,0:0:0:0:
268,120,225051,1,0,0:0:0:0:
244,109,225156,6,0,P|201:104|151:102,1,85,10|0,0:2|0:0,0:0:0:0:
263,248,225579,1,0,1:0:0:0:
82,219,225790,1,8,0:0:0:0:
181,360,226001,5,10,0:2:0:0:
263,248,226213,1,0,0:0:0:0:
263,248,226424,1,0,1:0:0:0:
102,313,226635,6,0,P|49:327|15:330,2,85,0|12|0,0:0|0:2|0:0,0:0:0:0:
263,248,227269,1,0,1:0:0:0:
47,235,227480,2,0,P|50:170|59:134,1,85,8|10,0:0|0:2,0:0:0:0:
263,248,227903,1,0,0:0:0:0:
263,248,228114,1,0,1:0:0:0:
307,128,228325,1,0,0:0:0:0:
338,119,228431,1,0,0:0:0:0:
374,118,228537,6,0,P|428:124|467:134,1,76.4999976654053,10|0,0:2|0:0,0:0:0:0:
263,248,228959,1,0,1:0:0:0:
416,230,229170,1,0,0:0:0:0:
357,350,229382,1,0,1:0:0:0:
357,350,229487,1,0,1:0:0:0:
357,350,229593,1,0,1:0:0:0:
263,248,229804,1,0,1:0:0:0:
169,350,230015,5,12,0:2:0:0:
169,350,231283,5,4,0:3:0:0:
165,195,231494,1,8,0:3:0:0:
130,209,231600,1,8,0:3:0:0:
100,220,231706,1,2,0:3:0:0:
226,82,231917,5,8,0:3:0:0:
359,221,232128,1,4,0:3:0:0:
345,186,232234,1,4,0:3:0:0:
334,156,232340,1,0,1:0:0:0:
401,59,232551,1,2,0:3:0:0:
456,179,232762,6,8,L|475:190,1,21.25,8|8,0:3|0:3,0:3:0:0:
457,216,232868,2,8,L|475:231,1,21.25,8|8,0:3|0:3,0:3:0:0:
449,257,232973,1,0,1:0:0:0:
431,291,233079,1,4,0:3:0:0:
389,314,233184,1,0,1:0:0:0:
347,320,233290,1,4,0:3:0:0:
307,308,233396,1,4,0:3:0:0:
271,280,233501,1,4,0:3:0:0:
235,254,233607,6,0,P|178:244|97:255,1,127.500004863739,8|2,0:0|0:1,0:0:0:0:
21,208,234241,1,8,3:0:0:0:
21,208,234452,1,8,0:0:0:0:
74,119,234663,5,2,3:1:0:0:
42,32,234875,1,0,0:0:0:0:
145,50,235086,2,0,L|229:66,1,63.7500024318696,2|8,3:1|0:0,0:0:0:0:
333,78,235508,2,0,L|277:142,1,63.7500024318696,0|2,3:0|3:1,0:0:0:0:
219,234,235931,2,0,L|190:153,1,63.7500024318696,8|8,0:0|3:0,0:0:0:0:
291,126,236353,5,2,0:1:0:0:
207,61,236565,1,0,3:0:0:0:
197,175,236776,1,0,0:0:0:0:
164,188,236882,1,0,3:0:0:0:
128,188,236987,6,0,P|122:255|142:336,1,127.500004863739,8|2,3:0|0:1,0:0:0:0:
220,365,237621,2,0,P|269:357|305:362,1,63.7500024318696,8|8,3:0|0:0,0:0:0:0:
378,313,238044,2,0,P|390:251|384:188,1,127.500004863739,2|2,3:1|3:1,0:0:0:0:
313,120,238677,1,8,0:0:0:0:
381,61,238889,1,0,3:0:0:0:
381,61,238994,1,0,0:0:0:0:
381,61,239100,6,0,P|438:58|466:67,1,63.7500024318696,2|8,0:1|3:0,0:0:0:0:
279,35,239522,1,8,3:0:0:0:
247,39,239627,1,0,0:0:0:0:
216,36,239733,1,2,0:1:0:0:
136,84,239945,1,0,3:0:0:0:
205,164,240156,1,2,0:1:0:0:
211,185,240262,1,0,3:0:0:0:
211,206,240368,6,0,P|201:256|215:334,1,127.500004863739,8|2,3:0|0:1,0:0:0:0:
117,292,241001,1,8,3:0:0:0:
135,384,241213,1,8,0:0:0:0:
39,352,241424,2,0,P|29:292|-4:227,1,127.500004863739,2|2,3:1|3:1,0:0:0:0:
7,197,241952,1,0,0:0:0:0:
30,157,242058,6,0,P|40:118|37:85,1,63.7500024318696,8|0,0:0|3:0,0:0:0:0:
131,50,242480,1,2,0:1:0:0:
223,94,242691,2,0,P|222:126|232:157,1,63.7500024318696,8|8,3:0|3:0,0:0:0:0:
128,245,243114,2,0,L|128:181,1,63.7500024318696,2|0,0:1|3:0,0:0:0:0:
210,296,243537,1,0,0:0:0:0:
240,308,243642,1,0,3:0:0:0:
278,308,243748,6,0,P|320:302|347:303,2,63.7500024318696,8|0|2,3:0|0:0|0:1,0:0:0:0:
415,261,244382,2,8,P|421:303|420:330,2,63.7500024318696,8|0|2,3:0|0:0|3:1,0:0:0:0:
335,220,245015,2,8,P|307:203|283:183,2,63.7500024318696,8|2|0,0:0|3:1|0:0,0:0:0:0:
407,177,245649,2,8,P|429:145|451:123,2,63.7500024318696,8|2|8,3:0|0:1|3:0,0:0:0:0:
391,53,246283,6,0,P|443:40|469:40,1,63.7500024318696,8|2,3:0|0:1,0:0:0:0:
311,8,246706,2,0,P|309:44|305:71,1,63.7500024318696,8|2,3:0|0:1,0:0:0:0:
274,98,247022,1,0,3:0:0:0:
234,95,247128,6,0,L|180:101,3,31.8750012159348,8|0|0|0,3:0|0:0|0:0|0:0,0:0:0:0:
133,172,247551,2,0,L|165:176,3,31.8750012159348,2|0|8|0,0:1|0:0|3:0|0:0,0:0:0:0:
232,242,247973,1,8,0:0:0:0:
160,312,248184,1,2,3:1:0:0:
234,381,248396,1,0,0:0:0:0:
309,305,248607,2,0,P|357:297|395:304,1,63.7500024318696,2|8,3:1|0:0,0:0:0:0:
458,328,249029,6,0,P|455:266|412:218,1,127.500004863739,4|0,0:0|0:0,0:0:0:0:
453,138,249663,1,4,0:3:0:0:
453,138,249769,1,4,0:3:0:0:
453,138,249875,1,8,0:3:0:0:
375,64,250086,1,8,0:3:0:0:
275,95,250297,1,8,0:3:0:0:
256,192,250508,5,6,0:3:0:0:
256,192,250614,12,0,253625,0:0:0:0:
