osu file format v14

[General]
AudioFilename: audio.mp3
AudioLeadIn: 0
PreviewTime: 58346
Countdown: 0
SampleSet: Soft
StackLeniency: 0.7
Mode: 0
LetterboxInBreaks: 0
WidescreenStoryboard: 0

[Editor]
DistanceSpacing: 1.5
BeatDivisor: 4
GridSize: 4
TimelineZoom: 1

[Metadata]
Title:Harumachi Clover -blooming mix-
TitleUnicode:春待ちクローバー -blooming mix-
Artist:Hanasaka Yui(CV:M.A.O)
ArtistUnicode:花坂結衣(CV:M・A・O)
Creator:Naotoshi
Version:Misure's Insane
Source:OneRoom
Tags:小森成雄 Shigeo Komori Ichimichi Mao akitoshi misure mentai kantoku カントク one room ワンルーム lolis
BeatmapID:1364125
BeatmapSetID:627085

[Difficulty]
HPDrainRate:6
CircleSize:4
OverallDifficulty:7
ApproachRate:8
SliderMultiplier:1.6
SliderTickRate:1

[Events]
//Background and Video events
0,0,"11.jpg",0,0
//Break Periods
2,86765,91731
2,166202,172012
2,201695,212576
//Storyboard Layer 0 (Background)
//Storyboard Layer 1 (Fail)
//Storyboard Layer 2 (Pass)
//Storyboard Layer 3 (Foreground)
//Storyboard Sound Samples

[TimingPoints]
368,422.535211267606,4,2,1,70,1,0
368,-111.111111111111,4,2,1,70,0,0
16424,-111.111111111111,4,2,2,70,0,0
17269,-111.111111111111,4,2,2,60,0,0
17691,-125,4,2,1,60,0,0
30368,-125,4,2,2,60,0,0
31213,-125,4,2,1,60,0,0
43889,-125,4,2,2,60,0,0
44311,-111.111111111111,4,2,2,65,0,0
44734,-111.111111111111,4,2,1,65,0,0
59522,-100,4,2,1,75,0,1
72832,-100,4,2,1,65,0,0
73044,-100,4,2,1,75,0,1
86565,-111.111111111111,4,2,1,70,0,0
92480,-111.111111111111,4,2,2,70,0,0
93325,-125,4,2,2,60,0,0
93748,-125,4,2,1,60,0,0
106846,-111.111111111111,4,2,1,65,0,0
122058,-100,4,2,1,75,0,1
135368,-100,4,2,1,65,0,0
135579,-100,4,2,1,75,0,1
149100,-100,4,2,1,70,0,0
166001,-111.111111111111,4,2,1,65,0,0
200649,-125,4,2,1,55,0,0
201494,-125,4,2,1,45,0,0
213325,-111.111111111111,4,2,1,55,0,0
213537,-111.111111111111,4,2,1,60,0,0
213748,-111.111111111111,4,2,1,65,0,0
213959,-111.111111111111,4,2,1,70,0,0
214170,-100,4,2,1,75,0,0
215015,-100,4,2,3,75,0,1
217551,-100,4,2,4,75,0,1
217656,-100,4,2,1,75,0,1
218396,-100,4,2,5,75,0,1
218607,-100,4,2,1,75,0,1
220931,-100,4,2,4,75,0,1
221037,-100,4,2,1,75,0,1
221776,-100,4,2,3,75,0,1
221987,-100,4,2,1,75,0,1
224311,-100,4,2,4,75,0,1
224522,-100,4,2,1,75,0,1
225156,-100,4,2,5,75,0,1
225368,-100,4,2,1,75,0,1
226001,-100,4,2,3,75,0,1
226213,-100,4,2,1,75,0,1
226846,-100,4,2,5,75,0,1
227058,-100,4,2,1,75,0,1
227691,-100,4,2,4,75,0,1
227903,-100,4,2,1,75,0,1
228537,-100,4,2,3,75,0,1
228748,-100,4,2,1,75,0,1
230015,-125,4,2,1,55,0,0
231283,-111.111111111111,4,2,1,65,0,0
231917,-100,4,2,1,75,0,1
233607,-111.111111111111,4,2,1,70,0,0
249663,-111.111111111111,4,2,2,70,0,0
250508,-111.111111111111,4,2,2,60,0,0
250931,-111.111111111111,4,2,2,55,0,0
251353,-111.111111111111,4,2,2,50,0,0
251776,-111.111111111111,4,2,2,45,0,0
252198,-111.111111111111,4,2,2,40,0,0
252621,-111.111111111111,4,2,2,35,0,0
253044,-111.111111111111,4,2,2,30,0,0
253466,-111.111111111111,4,2,2,25,0,0
253625,-111.111111111111,4,2,2,20,0,0

[Colours]
Combo1 : 235,124,207
Combo2 : 254,222,148

[HitObjects]
205,173,368,6,0,L|348:185,1,143.999995605469,8|2,0:3|0:1,0:0:0:0:
167,67,1002,1,8,3:3:0:0:
167,67,1213,1,8,0:3:0:0:
86,139,1424,2,0,P|86:174|77:209,2,71.9999978027344,2|0|2,3:1|0:0|3:1,0:0:0:0:
205,173,2058,6,0,L|276:166,1,71.9999978027344,0|0,0:0|3:0,0:0:0:0:
205,173,2481,1,0,0:1:0:0:
167,67,2692,2,0,L|310:79,1,143.999995605469,8|2,3:3|0:1,0:0:0:0:
433,22,3326,2,0,L|442:93,1,71.9999978027344,0|0,3:0|0:0,0:0:0:0:
499,154,3643,1,0,3:0:0:0:
499,154,3748,6,0,P|433:128|369:157,1,143.999995605469,8|2,3:3|0:1,0:0:0:0:
310,79,4382,1,8,3:3:0:0:
310,79,4593,1,8,0:3:0:0:
203,132,4805,2,0,L|226:274,1,143.999995605469,2|2,3:1|3:1,0:0:0:0:
381,251,5438,5,8,0:3:0:0:
381,251,5650,2,0,L|309:241,2,71.9999978027344,0|2|8,3:0|0:1|0:3,0:0:0:0:
286,356,6283,2,0,P|235:308|168:324,1,143.999995605469,8|0,3:3|3:0,0:0:0:0:
76,220,6917,1,0,0:0:0:0:
76,220,7023,1,0,3:0:0:0:
76,220,7128,6,0,L|47:361,1,143.999995605469,8|2,3:0|0:1,0:0:0:0:
191,214,7762,1,8,3:3:0:0:
191,214,7974,1,8,0:3:0:0:
152,108,8185,2,0,L|9:125,1,143.999995605469,2|2,3:1|3:1,0:0:0:0:
272,118,8819,6,0,P|266:82|271:47,2,71.9999978027344,8|0|2,0:3|3:0|0:1,0:0:0:0:
334,231,9452,2,0,L|191:214,1,143.999995605469,8|2,0:3|0:1,0:0:0:0:
272,118,10086,1,0,3:0:0:0:
334,231,10297,1,0,0:0:0:0:
334,231,10403,1,0,3:0:0:0:
334,231,10509,5,8,3:3:0:0:
376,67,10720,1,0,0:0:0:0:
334,231,10931,1,2,0:1:0:0:
479,204,11143,2,0,L|469:133,2,71.9999978027344,8|0|2,3:3|0:0|3:1,0:0:0:0:
361,378,11776,5,8,0:3:0:0:
197,336,11987,1,2,3:1:0:0:
361,378,12198,1,2,0:1:0:0:
334,231,12410,2,0,L|262:241,2,71.9999978027344,8|2|0,3:3|3:1|0:0,0:0:0:0:
294,49,13044,6,0,L|284:121,1,71.9999978027344,8|2,3:3|0:1,0:0:0:0:
171,73,13467,2,0,L|161:2,1,71.9999978027344,8|2,3:3|0:1,0:0:0:0:
43,139,13889,6,0,L|78:148,1,35.9999989013672,2|0,3:2|0:0,0:0:0:0:
197,174,14100,2,0,L|162:183,1,35.9999989013672,2|0,0:0|0:0,0:0:0:0:
57,247,14312,2,0,L|92:256,1,35.9999989013672,2|0,3:2|0:0,0:0:0:0:
211,282,14523,2,0,L|176:291,1,35.9999989013672,2|0,0:0|0:0,0:0:0:0:
31,344,14734,2,0,L|101:361,2,71.9999978027344,2|2|2,0:0|3:1|0:0,0:0:0:0:
211,282,15368,6,0,L|228:352,1,71.9999978027344,8|8,3:3|3:3,0:0:0:0:
334,369,15790,2,0,P|369:309|351:241,1,143.999995605469,4|0,0:0|0:0,0:0:0:0:
211,282,16424,1,4,0:3:0:0:
175,282,16530,1,4,0:3:0:0:
144,264,16636,1,8,0:3:0:0:
127,233,16741,1,0,0:0:0:0:
126,197,16847,1,8,0:3:0:0:
144,165,16952,1,0,0:0:0:0:
175,148,17058,1,8,0:3:0:0:
211,147,17164,1,0,0:0:0:0:
243,166,17269,5,10,0:3:0:0:
496,109,17692,1,2,0:1:0:0:
399,73,17903,2,0,P|393:104|397:136,1,64,8|8,3:3|0:3,0:0:0:0:
446,9,18326,2,0,P|386:30|323:23,1,128,2|2,3:1|3:1,0:0:0:0:
131,110,18959,6,0,L|115:47,1,64,8|0,0:3|3:0,0:0:0:0:
218,20,19382,1,2,3:1:0:0:
126,174,19593,2,0,L|132:110,1,64,8|8,0:3|3:3,0:0:0:0:
250,126,20016,2,0,P|253:157|247:188,1,64,2|0,0:1|3:0,0:0:0:0:
87,271,20438,1,2,0:1:0:0:
87,271,20544,1,0,3:0:0:0:
87,271,20650,6,0,L|214:285,1,128,8|2,3:3|0:1,0:0:0:0:
199,166,21283,1,8,3:3:0:0:
199,166,21495,1,8,0:3:0:0:
275,237,21706,2,0,L|246:361,1,128,2|2,3:1|3:1,0:0:0:0:
449,277,22340,5,8,0:3:0:0:
378,211,22551,1,0,3:0:0:0:
356,305,22762,1,2,3:1:0:0:
212,245,22974,2,0,L|276:237,1,64,8|8,0:3|3:3,0:0:0:0:
313,134,23396,2,0,L|249:125,1,64,2|0,0:1|3:0,0:0:0:0:
102,204,23819,1,2,0:1:0:0:
107,226,23924,1,0,3:0:0:0:
112,248,24030,5,8,3:3:0:0:
376,202,24452,1,2,0:1:0:0:
431,285,24664,2,0,P|401:298|370:303,1,64,8|8,3:3|0:3,0:0:0:0:
468,355,25086,2,0,L|490:228,1,128,2|2,3:1|3:1,0:0:0:0:
252,323,25720,6,0,L|306:356,1,64,8|0,0:3|3:0,0:0:0:0:
264,220,26143,1,2,3:1:0:0:
189,310,26354,2,0,L|251:322,1,64,8|8,0:3|3:3,0:0:0:0:
363,222,26776,2,0,P|360:190|347:160,1,64,2|0,0:1|3:0,0:0:0:0:
165,203,27199,1,2,0:1:0:0:
165,203,27305,1,0,3:0:0:0:
165,203,27410,6,8,L|180:75,1,128,8|2,3:3|0:1,0:0:0:0:
60,168,28044,1,8,3:3:0:0:
60,168,28255,1,8,0:3:0:0:
107,264,28467,2,0,L|234:248,1,128,2|2,3:1|3:1,0:0:0:0:
342,76,29100,5,8,0:3:0:0:
342,76,29312,2,0,P|334:107|317:133,1,64,2|8,0:2|3:3,0:0:0:0:
160,96,29734,2,0,L|128:89,2,32,2|0|2,0:2|0:0|0:0,0:0:0:0:
228,18,30157,1,2,0:1:0:0:
273,235,30368,1,4,0:3:0:0:
361,144,30579,1,8,0:3:0:0:
339,139,30685,1,8,0:3:0:0:
317,134,30790,5,2,0:3:0:0:
72,236,31213,1,2,0:1:0:0:
72,332,31424,2,0,P|103:327|131:312,1,64,8|8,3:3|0:3,0:0:0:0:
213,203,31847,2,0,L|224:330,1,128,2|2,3:1|3:1,0:0:0:0:
75,236,32481,6,0,L|21:203,1,64,8|0,0:3|3:0,0:0:0:0:
130,143,32903,1,2,3:1:0:0:
103,293,33114,2,0,L|75:236,1,64,8|8,0:3|3:3,0:0:0:0:
228,196,33537,2,0,P|224:227|212:257,1,64,2|0,0:1|3:0,0:0:0:0:
296,331,33959,1,2,0:1:0:0:
296,331,34065,1,0,3:0:0:0:
296,331,34170,6,0,L|423:309,1,128,8|2,3:3|0:1,0:0:0:0:
440,148,34805,1,8,3:3:0:0:
440,148,35016,1,8,0:3:0:0:
362,211,35227,2,0,L|235:189,1,128,2|2,3:1|3:1,0:0:0:0:
81,117,35861,6,0,P|79:148|66:177,2,64,8|0|2,0:3|3:0|3:1,0:0:0:0:
166,53,36495,1,8,0:3:0:0:
236,189,36706,2,0,L|173:202,1,64,8|2,3:3|0:1,0:0:0:0:
332,58,37128,2,0,L|323:121,1,64,0|0,3:0|0:0,0:0:0:0:
340,160,37445,1,0,3:0:0:0:
340,160,37551,6,0,L|331:223,1,64,8|0,3:3|0:0,0:0:0:0:
493,325,37974,1,2,0:1:0:0:
398,360,38185,2,0,P|391:329|395:298,1,64,8|8,3:3|0:3,0:0:0:0:
450,216,38607,2,0,P|389:200|331:224,1,128,2|2,3:1|3:1,0:0:0:0:
165,240,39241,6,0,L|155:303,1,64,8|0,0:3|3:0,0:0:0:0:
243,347,39664,1,2,3:1:0:0:
165,240,39875,2,0,L|155:176,1,64,8|8,0:3|3:3,0:0:0:0:
292,91,40297,2,0,P|265:75|234:69,1,64,2|0,0:1|3:0,0:0:0:0:
251,196,40720,1,2,0:1:0:0:
251,196,40826,1,0,3:0:0:0:
251,196,40931,6,0,L|376:172,1,128,8|2,3:3|0:1,0:0:0:0:
310,65,41565,1,8,3:3:0:0:
310,65,41776,1,8,0:3:0:0:
216,128,41988,2,0,L|200:268,1,128,2|0,3:1|3:0,0:0:0:0:
411,271,42621,5,8,0:3:0:0:
411,271,42833,2,0,L|447:218,1,64,2|0,0:0|3:0,0:0:0:0:
325,331,43255,2,0,L|334:361,2,32,2|0|2,0:0|0:0|0:0,0:0:0:0:
325,219,43678,1,2,0:1:0:0:
219,340,43889,1,4,0:3:0:0:
113,193,44100,1,8,0:3:0:0:
113,193,44206,1,8,0:3:0:0:
113,193,44312,6,0,P|174:224|232:187,1,143.999995605469,10|2,0:3|0:1,0:0:0:0:
87,72,44945,2,0,L|68:214,1,143.999995605469,8|2,3:3|3:1,0:0:0:0:
177,266,45579,1,0,0:0:0:0:
254,85,45790,1,2,3:1:0:0:
254,85,46002,6,0,P|218:82|184:93,1,71.9999978027344,8|0,0:3|3:0,0:0:0:0:
326,155,46424,2,0,P|343:124|349:82,1,71.9999978027344,2|8,3:1|0:3,0:0:0:0:
232,186,46847,2,0,P|248:217|274:242,1,71.9999978027344,8|2,3:3|0:1,0:0:0:0:
354,90,47269,1,0,3:0:0:0:
455,235,47481,1,2,0:1:0:0:
455,235,47586,1,0,3:0:0:0:
455,235,47692,6,0,L|384:223,1,71.9999978027344,8|0,3:3|0:0,0:0:0:0:
232,186,48114,2,0,L|221:220,2,35.9999989013672,2|0|8,0:1|0:0|3:3,0:0:0:0:
349,19,48537,1,8,0:3:0:0:
349,19,48748,2,0,P|357:53|354:89,1,71.9999978027344,0|0,3:0|0:0,0:0:0:0:
232,186,49171,1,2,3:1:0:0:
291,273,49382,6,0,L|362:262,1,71.9999978027344,8|0,0:3|3:0,0:0:0:0:
178,324,49805,2,0,L|217:384,1,71.9999978027344,2|8,3:1|0:3,0:0:0:0:
111,226,50227,2,0,L|80:245,2,35.9999989013672,8|0|2,3:3|0:0|0:1,0:0:0:0:
221,129,50650,1,0,3:0:0:0:
224,142,50755,1,0,0:0:0:0:
227,155,50861,1,2,0:1:0:0:
414,192,51072,6,0,P|393:125|439:74,1,143.999995605469,8|2,3:3|0:1,0:0:0:0:
498,216,51706,2,0,L|356:240,1,143.999995605469,8|2,3:3|3:1,0:0:0:0:
341,137,52340,1,0,0:0:0:0:
298,322,52551,1,2,3:1:0:0:
298,322,52761,6,0,P|329:338|365:341,2,71.9999978027344,8|0|2,0:3|3:0|3:1,0:0:0:0:
185,158,53396,1,8,0:3:0:0:
104,224,53607,2,0,L|114:295,1,71.9999978027344,8|2,3:3|0:1,0:0:0:0:
199,353,54030,1,0,3:0:0:0:
304,228,54241,1,2,0:1:0:0:
304,228,54347,1,0,3:0:0:0:
304,228,54452,6,0,P|268:229|237:247,2,71.9999978027344,8|0|2,3:3|0:0|0:1,0:0:0:0:
416,270,55086,2,0,L|426:198,1,71.9999978027344,8|8,3:3|0:3,0:0:0:0:
218,119,55508,1,2,3:1:0:0:
304,228,55720,1,0,0:0:0:0:
348,52,55931,1,2,3:1:0:0:
426,198,56143,6,0,P|461:203|493:190,2,71.9999978027344,8|0|2,0:3|0:0|0:1,0:0:0:0:
348,52,56776,1,8,3:3:0:0:
256,233,56988,1,8,0:3:0:0:
433,269,57199,2,0,L|426:198,1,71.9999978027344,2|0,3:1|0:0,0:0:0:0:
426,198,57621,1,2,3:1:0:0:
244,120,57833,6,0,P|287:172|257:233,1,143.999995605469,8|2,3:3|0:1,0:0:0:0:
181,321,58467,1,8,3:3:0:0:
96,242,58677,2,0,L|60:235,2,35.9999989013672,8|0|8,0:3|3:0|3:3,0:0:0:0:
244,120,59100,1,0,0:0:0:0:
244,120,59312,1,8,3:3:0:0:
99,26,59523,6,0,L|106:105,1,80,8|0,0:3|0:0,0:0:0:0:
195,297,59945,2,0,L|202:217,1,80,0|8,1:0|0:3,0:0:0:0:
61,236,60368,1,8,0:3:0:0:
244,120,60579,1,0,0:0:0:0:
28,159,60790,1,0,1:0:0:0:
195,297,61002,1,0,0:0:0:0:
383,163,61213,6,0,P|343:166|308:186,2,80,8|0|0,0:3|0:0|1:0,0:0:0:0:
373,273,61847,1,8,0:3:0:0:
489,112,62058,2,0,L|482:73,1,40,10|2,0:2|0:2,0:0:0:0:
390,123,62269,2,0,L|383:162,1,40,2|2,1:2|0:2,0:0:0:0:
469,227,62481,1,2,1:2:0:0:
407,365,62692,1,2,0:2:0:0:
407,365,62797,1,2,0:2:0:0:
407,365,62903,6,0,P|367:368|329:356,1,80,10|0,0:2|0:0,0:0:0:0:
171,218,63326,2,0,P|208:206|248:209,1,80,0|8,1:0|0:3,0:0:0:0:
329,356,63748,1,8,0:3:0:0:
382,162,63959,1,0,0:0:0:0:
223,314,64171,1,0,1:0:0:0:
150,96,64382,1,0,0:0:0:0:
47,318,64593,6,0,P|86:319|123:306,2,80,8|0|0,0:3|0:0|1:0,0:0:0:0:
70,210,65227,1,8,0:3:0:0:
251,209,65438,2,0,L|258:248,1,40,10|0,0:2|0:0,0:0:0:0:
340,330,65650,2,0,L|347:291,1,40,2|0,1:2|0:0,0:0:0:0:
437,247,65861,1,10,1:2:0:0:
377,95,66072,1,2,0:0:0:0:
377,95,66177,1,0,0:0:0:0:
376,95,66283,6,0,P|337:97|302:116,1,80,10|0,0:2|0:0,0:0:0:0:
340,330,66706,2,0,L|354:251,1,80,0|8,1:0|0:3,0:0:0:0:
180,192,67128,1,8,0:3:0:0:
112,271,67340,1,0,0:0:0:0:
215,291,67551,1,0,1:0:0:0:
269,149,67762,6,0,P|194:157|158:91,1,160,8|8,0:3|0:3,0:0:0:0:
369,14,68396,2,0,L|360:93,1,80,0|8,1:0|0:3,0:0:0:0:
428,188,68819,1,10,0:2:0:0:
277,228,69030,2,0,L|269:149,1,80,0|0,1:0|1:0,0:0:0:0:
361,296,69452,1,2,0:0:0:0:
361,296,69558,1,0,0:0:0:0:
361,296,69664,6,0,P|284:279|213:312,1,160,10|0,0:2|1:0,0:0:0:0:
57,285,70297,1,8,0:3:0:0:
145,158,70509,2,0,L|149:198,1,40,10|0,0:2|0:0,0:0:0:0:
213,312,70720,2,0,L|217:272,1,40,2|0,0:0|0:0,0:0:0:0:
286,195,70931,1,0,1:0:0:0:
286,195,71143,1,2,0:2:0:0:
413,237,71354,6,0,P|422:198|419:158,1,80,8|0,0:3|0:0,0:0:0:0:
316,344,71776,2,0,L|395:354,1,80,0|8,1:0|0:3,0:0:0:0:
295,156,72199,1,10,1:2:0:0:
290,175,72305,1,0,1:0:0:0:
286,195,72410,1,0,1:0:0:0:
160,255,72621,1,10,1:2:0:0:
164,275,72727,1,0,1:0:0:0:
168,294,72833,1,0,1:0:0:0:
172,314,72938,1,0,1:0:0:0:
176,333,73044,6,0,L|255:343,1,80,10|0,0:2|0:0,0:0:0:0:
448,217,73467,2,0,L|368:227,1,80,0|8,1:0|0:3,0:0:0:0:
90,144,73889,1,8,0:3:0:0:
176,333,74100,1,0,0:0:0:0:
131,154,74312,1,0,1:0:0:0:
13,344,74523,1,0,0:0:0:0:
238,177,74734,6,0,P|242:137|230:99,2,80,8|0|0,0:3|0:0|1:0,0:0:0:0:
131,154,75368,1,8,0:3:0:0:
176,333,75579,2,0,L|215:327,1,40,10|2,0:2|0:2,0:0:0:0:
291,268,75790,2,0,L|330:275,1,40,2|2,1:2|0:2,0:0:0:0:
412,330,76002,1,2,1:2:0:0:
314,159,76213,1,2,0:2:0:0:
314,159,76319,1,2,0:2:0:0:
314,159,76424,6,0,P|274:160|238:176,1,80,10|0,0:2|0:0,0:0:0:0:
99,317,76847,2,0,P|135:332|175:333,1,80,2|8,1:0|0:3,0:0:0:0:
330,275,77269,1,8,0:3:0:0:
219,88,77481,1,0,0:0:0:0:
291,268,77692,1,0,1:0:0:0:
384,57,77903,1,0,0:0:0:0:
437,300,78114,6,0,P|421:336|392:363,2,80,8|0|0,0:3|0:0|1:0,0:0:0:0:
330,275,78748,1,8,0:3:0:0:
147,346,78959,1,10,0:2:0:0:
113,315,79065,1,2,0:2:0:0:
98,273,79171,1,2,1:2:0:0:
104,229,79276,1,2,0:2:0:0:
137,200,79382,1,2,1:2:0:0:
250,285,79593,1,2,0:2:0:0:
250,285,79699,1,2,0:2:0:0:
250,285,79805,6,0,L|330:275,1,80,10|0,0:2|0:0,0:0:0:0:
492,179,80227,2,0,L|412:168,1,80,0|8,1:0|0:3,0:0:0:0:
238,94,80650,1,8,0:3:0:0:
283,187,80860,1,0,0:0:0:0:
250,285,81072,1,0,1:0:0:0:
80,119,81283,6,0,L|238:94,1,160,8|8,0:3|0:3,0:0:0:0:
360,194,81917,2,0,P|321:198|283:187,1,80,0|8,1:0|0:3,0:0:0:0:
80,119,82340,1,10,0:2:0:0:
143,205,82551,2,0,L|135:285,1,80,0|0,0:0|1:0,0:0:0:0:
47,358,82974,1,2,0:0:0:0:
47,358,83079,1,0,0:0:0:0:
47,358,83184,6,0,P|4:292|20:215,1,160,10|0,0:2|1:0,0:0:0:0:
216,124,83819,1,8,0:3:0:0:
328,224,84030,2,0,L|332:264,1,40,10|0,0:2|0:0,0:0:0:0:
427,220,84241,2,0,L|431:180,1,40,2|0,0:0|0:0,0:0:0:0:
382,98,84452,1,0,1:0:0:0:
382,98,84664,1,0,0:0:0:0:
216,124,84875,6,0,P|208:162|216:201,1,80,10|0,0:2|0:0,0:0:0:0:
331,341,85297,2,0,P|339:302|332:264,1,80,0|8,1:0|0:3,0:0:0:0:
134,294,85720,2,0,L|94:285,2,40,10|0|0,1:2|1:0|1:0,0:0:0:0:
294,161,86143,1,8,1:3:0:0:
311,157,86248,1,0,1:0:0:0:
329,154,86354,1,0,1:0:0:0:
347,151,86459,1,0,1:0:0:0:
365,147,86565,5,8,0:3:0:0:
196,108,92481,6,0,L|160:116,3,35.9999989013672,12|12|8|0,0:3|0:3|0:3|0:0,0:0:0:0:
140,160,92903,2,0,L|104:168,3,35.9999989013672,8|0|8|0,0:3|0:0|0:3|0:0,0:0:0:0:
58,144,93326,5,10,0:3:0:0:
120,332,93748,1,2,0:1:0:0:
120,332,93959,2,0,L|127:268,1,64,8|8,3:3|0:3,0:0:0:0:
218,220,94382,2,0,L|231:347,1,128,2|2,3:1|3:1,0:0:0:0:
415,244,95016,5,8,0:3:0:0:
415,244,95227,1,0,3:0:0:0:
373,333,95438,2,0,P|346:315|326:290,1,64,2|8,3:1|0:3,0:0:0:0:
344,132,95861,1,8,3:3:0:0:
280,205,96072,2,0,L|217:220,1,64,2|0,0:1|3:0,0:0:0:0:
126,71,96495,1,2,0:1:0:0:
126,71,96600,1,0,3:0:0:0:
126,70,96706,6,0,P|187:64|232:108,1,128,8|2,3:3|0:1,0:0:0:0:
172,209,97340,1,8,3:3:0:0:
172,209,97551,1,8,0:3:0:0:
268,182,97762,2,0,L|289:55,1,128,2|2,3:1|3:1,0:0:0:0:
473,21,98396,5,8,0:3:0:0:
473,21,98607,1,0,3:0:0:0:
423,153,98819,2,0,P|406:125|401:94,1,64,2|8,3:1|0:3,0:0:0:0:
484,250,99241,2,0,L|420:259,2,64,8|2|0,3:3|0:1|3:0,0:0:0:0:
314,219,99875,1,2,0:1:0:0:
309,241,99981,1,0,3:0:0:0:
304,263,100086,6,0,L|241:270,1,64,8|0,3:3|0:0,0:0:0:0:
122,179,100509,1,2,0:1:0:0:
122,179,100720,2,0,L|185:186,1,64,8|8,3:3|0:3,0:0:0:0:
208,70,101143,2,0,L|80:83,1,128,2|2,3:1|3:1,0:0:0:0:
7,261,101776,5,8,0:3:0:0:
7,261,101988,1,0,3:0:0:0:
103,262,102199,2,0,P|99:230|84:202,2,64,2|8|8,3:1|0:3|3:3,0:0:0:0:
199,323,102833,2,0,L|213:261,1,64,2|0,0:1|3:0,0:0:0:0:
248,120,103255,1,2,0:1:0:0:
248,120,103361,1,0,3:0:0:0:
248,120,103467,6,0,P|299:154|360:141,1,128,8|2,3:3|0:1,0:0:0:0:
346,6,104100,1,8,3:3:0:0:
346,6,104312,1,8,0:3:0:0:
425,77,104523,2,0,L|399:202,1,128,2|2,3:1|3:1,0:0:0:0:
311,320,105157,5,8,0:3:0:0:
311,320,105368,2,0,P|340:330|363:352,1,64,0|2,3:0|3:1,0:0:0:0:
186,359,105790,2,0,L|177:328,2,32,8|0|8,0:3|0:0|0:3,0:0:0:0:
311,320,106213,1,2,0:1:0:0:
245,170,106424,1,0,3:0:0:0:
87,259,106636,1,0,0:0:0:0:
87,259,106741,1,0,3:0:0:0:
87,259,106847,6,0,P|106:193|58:144,1,143.999995605469,8|0,3:3|0:1,0:0:0:0:
165,46,107481,2,0,L|148:189,1,143.999995605469,8|2,3:3|3:1,0:0:0:0:
289,278,108114,1,0,0:0:0:0:
357,105,108326,1,2,3:1:0:0:
357,105,108537,6,0,L|286:121,1,71.9999978027344,8|0,0:3|3:0,0:0:0:0:
148,189,108959,2,0,L|218:205,1,71.9999978027344,2|8,3:1|0:3,0:0:0:0:
236,30,109382,2,0,L|165:46,1,71.9999978027344,8|2,3:3|0:1,0:0:0:0:
218,205,109805,1,0,3:0:0:0:
353,174,110016,1,2,0:1:0:0:
353,174,110121,1,0,3:0:0:0:
353,174,110227,6,0,P|361:139|356:104,1,71.9999978027344,8|0,3:3|0:0,0:0:0:0:
135,180,110650,2,0,L|126:214,2,35.9999989013672,2|0|8,0:1|0:0|3:3,0:0:0:0:
265,300,111072,1,8,0:3:0:0:
265,300,111283,2,0,L|193:312,1,71.9999978027344,0|0,3:0|0:0,0:0:0:0:
135,180,111706,1,2,3:1:0:0:
255,48,111917,6,0,P|248:82|230:114,1,71.9999978027344,8|0,0:3|3:0,0:0:0:0:
356,243,112340,2,0,P|337:211|331:175,1,71.9999978027344,2|8,3:1|0:3,0:0:0:0:
424,69,112762,2,0,L|389:79,2,35.9999989013672,8|0|2,3:3|0:0|0:1,0:0:0:0:
504,185,113185,1,0,3:0:0:0:
501,198,113290,1,0,0:0:0:0:
498,211,113396,1,2,0:1:0:0:
385,357,113607,6,0,P|337:308|356:243,1,143.999995605469,8|2,3:0|0:1,0:0:0:0:
272,175,114241,2,0,L|285:318,1,143.999995605469,8|2,3:3|3:1,0:0:0:0:
202,376,114875,1,0,0:0:0:0:
52,322,115086,1,2,3:1:0:0:
52,322,115297,6,0,L|121:304,2,71.9999978027344,8|0|2,0:3|3:0|3:1,0:0:0:0:
55,156,115931,1,8,0:3:0:0:
164,118,116143,2,0,P|169:153|164:189,1,71.9999978027344,8|2,3:3|0:1,0:0:0:0:
251,293,116565,1,0,3:0:0:0:
344,187,116776,1,2,0:1:0:0:
344,187,116882,1,0,3:0:0:0:
344,187,116988,6,0,L|272:176,2,71.9999978027344,8|0|2,3:3|0:0|0:1,0:0:0:0:
412,88,117621,2,0,L|340:77,1,71.9999978027344,8|8,3:3|0:3,0:0:0:0:
368,283,118044,1,2,3:1:0:0:
412,88,118255,1,0,0:0:0:0:
468,227,118467,1,2,3:1:0:0:
277,326,118678,6,0,P|267:291|269:255,2,71.9999978027344,8|0|2,0:3|0:0|0:1,0:0:0:0:
155,379,119312,1,8,3:3:0:0:
113,192,119523,1,8,0:3:0:0:
198,270,119734,2,0,L|268:256,1,71.9999978027344,2|0,3:1|0:0,0:0:0:0:
268,255,120157,1,2,3:1:0:0:
189,113,120368,6,0,P|131:152|64:132,1,143.999995605469,8|2,3:3|3:1,0:0:0:0:
177,14,121002,1,8,0:3:0:0:
298,116,121213,2,0,L|290:151,2,35.9999989013672,8|0|2,0:3|3:0|3:1,0:0:0:0:
392,32,121636,1,0,0:0:0:0:
392,32,121847,1,2,3:1:0:0:
512,146,122058,6,0,L|434:165,1,80,8|0,0:3|0:0,0:0:0:0:
350,307,122481,2,0,L|427:326,1,80,0|8,1:0|0:3,0:0:0:0:
434,165,122903,1,8,0:3:0:0:
231,65,123114,1,0,0:0:0:0:
201,216,123326,1,0,1:0:0:0:
414,126,123537,1,0,0:0:0:0:
427,326,123748,6,0,P|387:323|352:303,2,80,8|0|0,0:3|0:0|1:0,0:0:0:0:
420,216,124382,1,8,0:3:0:0:
255,249,124593,2,0,L|249:288,1,40,10|2,0:2|0:2,0:0:0:0:
159,342,124805,2,0,L|153:302,1,40,2|2,1:2|0:2,0:0:0:0:
74,243,125016,1,2,1:2:0:0:
144,95,125227,1,2,0:2:0:0:
144,95,125333,1,2,0:2:0:0:
144,95,125438,6,0,P|183:90|221:101,1,80,10|0,0:2|0:0,0:0:0:0:
326,282,125861,2,0,P|287:293|248:288,1,80,0|8,1:0|0:3,0:0:0:0:
381,39,126283,1,8,0:3:0:0:
477,252,126494,1,0,0:0:0:0:
326,282,126706,1,0,1:0:0:0:
420,59,126917,1,0,0:0:0:0:
221,101,127128,6,0,P|223:140|241:176,2,80,8|0|0,0:3|0:0|1:0,0:0:0:0:
330,111,127762,1,8,0:3:0:0:
285,289,127974,1,10,0:2:0:0:
243,303,128079,1,2,0:2:0:0:
199,296,128185,1,2,1:2:0:0:
159,277,128290,1,2,0:2:0:0:
132,241,128396,2,0,L|126:201,1,40,2|2,1:2|0:2,0:0:0:0:
35,101,128607,1,2,0:2:0:0:
35,101,128713,1,2,0:2:0:0:
35,101,128819,6,0,L|20:179,1,80,10|0,0:2|0:0,0:0:0:0:
118,319,129241,2,0,L|132:240,1,80,0|8,1:0|0:3,0:0:0:0:
345,68,129664,1,8,0:3:0:0:
345,172,129875,1,0,0:0:0:0:
254,121,130086,1,0,1:0:0:0:
267,251,130297,6,0,P|337:221|398:268,1,160,8|8,0:3|0:3,0:0:0:0:
176,360,130931,2,0,L|167:280,1,80,0|8,1:0|0:3,0:0:0:0:
201,141,131354,1,10,0:2:0:0:
110,195,131565,2,0,L|31:181,1,80,0|0,1:0|1:0,0:0:0:0:
61,12,131988,1,2,0:0:0:0:
61,12,132093,1,0,0:0:0:0:
61,12,132199,6,0,P|98:77|172:66,1,160,10|0,0:2|1:0,0:0:0:0:
366,28,132833,1,8,0:3:0:0:
461,112,133044,2,0,L|423:124,1,40,10|0,0:2|0:0,0:0:0:0:
333,193,133255,2,0,L|370:205,1,40,2|0,0:0|0:0,0:0:0:0:
438,274,133467,1,0,1:0:0:0:
438,274,133678,1,0,0:0:0:0:
297,383,133889,6,0,L|288:303,1,80,8|0,0:3|0:0,0:0:0:0:
205,118,134312,2,0,L|196:197,1,80,0|8,1:0|0:3,0:0:0:0:
126,327,134734,1,10,1:2:0:0:
145,332,134840,1,0,1:0:0:0:
164,337,134945,1,0,1:0:0:0:
76,189,135157,1,10,1:2:0:0:
57,194,135262,1,0,1:0:0:0:
38,199,135368,1,0,1:0:0:0:
19,204,135474,1,0,1:0:0:0:
0,209,135579,6,0,L|8:129,1,80,10|0,0:2|0:0,0:0:0:0:
197,39,136002,2,0,L|205:118,1,80,0|8,1:0|0:3,0:0:0:0:
164,337,136424,1,8,0:3:0:0:
353,250,136636,1,0,0:0:0:0:
164,337,136847,1,0,1:0:0:0:
309,124,137058,1,0,0:0:0:0:
94,108,137269,6,0,P|97:147|116:182,2,80,8|0|0,0:3|0:0|1:0,0:0:0:0:
205,118,137903,1,8,0:3:0:0:
204,331,138114,2,0,L|164:337,1,40,10|2,0:2|0:2,0:0:0:0:
269,264,138326,2,0,L|308:270,1,40,2|2,1:2|0:2,0:0:0:0:
381,339,138537,1,2,1:2:0:0:
464,168,138748,1,2,0:2:0:0:
464,168,138854,1,2,0:2:0:0:
464,168,138959,6,0,P|457:207|469:244,1,80,10|0,0:2|0:0,0:0:0:0:
355,89,139382,2,0,P|361:49|349:12,1,80,0|8,1:0|0:3,0:0:0:0:
166,74,139805,1,8,0:3:0:0:
255,267,140016,1,0,0:0:0:0:
166,74,140227,1,0,1:0:0:0:
73,314,140438,1,0,0:0:0:0:
343,332,140650,6,0,P|361:297|364:257,2,80,8|0|0,0:3|0:0|1:0,0:0:0:0:
255,267,141283,1,8,0:3:0:0:
299,89,141495,1,10,0:2:0:0:
333,62,141600,1,2,0:2:0:0:
377,64,141706,1,2,1:2:0:0:
417,81,141812,1,2,0:2:0:0:
443,116,141917,2,0,L|432:154,1,40,2|2,1:2|0:2,0:0:0:0:
364,257,142128,1,2,0:2:0:0:
364,257,142234,1,2,0:2:0:0:
364,257,142340,6,0,L|443:267,1,80,10|0,0:2|0:0,0:0:0:0:
238,323,142762,2,0,L|227:243,1,80,0|8,1:0|0:3,0:0:0:0:
131,54,143185,1,8,0:3:0:0:
230,22,143396,1,0,0:0:0:0:
275,115,143607,1,0,1:0:0:0:
145,166,143819,6,0,P|91:116|132:54,1,160,8|8,0:3|0:3,0:0:0:0:
45,217,144452,2,0,L|33:296,1,80,0|8,1:0|0:3,0:0:0:0:
0,118,144875,1,10,0:2:0:0:
145,166,145086,2,0,L|156:245,1,80,0|0,1:0|1:0,0:0:0:0:
95,359,145509,1,2,0:0:0:0:
95,359,145614,1,0,0:0:0:0:
95,359,145720,6,0,L|254:341,1,160,10|0,0:2|1:0,0:0:0:0:
330,179,146354,1,8,0:3:0:0:
437,276,146565,2,0,L|398:286,1,40,10|0,0:2|0:0,0:0:0:0:
470,188,146776,2,0,L|508:198,1,40,2|0,0:0|0:0,0:0:0:0:
425,104,146988,1,0,1:0:0:0:
425,104,147199,1,0,0:0:0:0:
330,179,147410,6,0,P|290:172|255:154,1,80,10|0,0:2|0:0,0:0:0:0:
82,97,147833,2,0,P|121:90|156:72,1,80,0|8,1:0|0:3,0:0:0:0:
286,17,148255,1,10,1:2:0:0:
286,17,148361,1,0,1:0:0:0:
286,17,148467,2,0,L|280:56,1,40,0|0,1:0|0:0,0:0:0:0:
255,154,148678,1,0,1:0:0:0:
255,154,148783,1,0,1:0:0:0:
255,154,148889,2,0,L|260:193,1,40,0|0,1:0|0:0,0:0:0:0:
346,245,149100,5,8,3:0:0:0:
377,57,149312,1,0,3:0:0:0:
424,52,149734,1,0,3:0:0:0:
455,87,150157,1,0,3:0:0:0:
452,135,150579,6,0,P|385:172|319:134,1,160,0|0,3:0|3:0,0:0:0:0:
183,0,151213,1,2,1:2:0:0:
212,99,151424,1,0,3:0:0:0:
148,181,151635,2,0,L|110:171,2,40,10|0|0,0:0|0:0|3:0,0:0:0:0:
223,253,152058,2,0,L|261:243,2,40,2|0|0,1:2|1:0|0:0,0:0:0:0:
163,337,152480,5,0,3:3:0:0:
351,306,152692,1,0,3:0:0:0:
356,259,153114,1,0,3:0:0:0:
321,228,153537,1,0,3:0:0:0:
273,231,153959,6,0,P|235:297|273:363,1,160,0|0,3:0|3:0,0:0:0:0:
476,255,154593,1,2,1:2:0:0:
449,355,154805,1,0,3:0:0:0:
360,303,155016,2,0,L|350:264,2,40,10|0|0,0:0|0:0|3:0,0:0:0:0:
273,363,155438,1,2,1:2:0:0:
243,354,155544,1,0,1:0:0:0:
213,346,155650,1,0,0:0:0:0:
110,356,155860,5,8,3:0:0:0:
79,170,156072,1,0,3:0:0:0:
32,165,156494,1,0,3:0:0:0:
0,200,156917,1,0,3:0:0:0:
3,248,157340,6,0,P|69:285|135:247,1,160,0|0,3:0|3:0,0:0:0:0:
242,96,157974,1,2,1:2:0:0:
70,208,158185,1,0,3:0:0:0:
252,138,158396,1,2,1:2:0:0:
92,37,158607,1,0,3:0:0:0:
140,165,158818,1,2,1:2:0:0:
140,165,158924,1,2,1:2:0:0:
140,165,159030,1,0,1:0:0:0:
289,22,159241,5,8,0:3:0:0:
369,88,159452,2,0,P|362:127|341:161,1,80,0|0,1:0|1:0,0:0:0:0:
202,214,159875,1,8,0:3:0:0:
268,134,160086,2,0,P|307:140|341:161,1,80,0|0,1:0|1:0,0:0:0:0:
393,301,160509,1,8,0:3:0:0:
314,234,160720,2,0,P|320:194|341:160,1,80,0|0,1:0|1:0,0:0:0:0:
480,108,161143,1,8,0:3:0:0:
414,188,161354,2,0,P|374:181|340:160,1,80,0|0,1:0|1:0,0:0:0:0:
169,71,161776,5,8,0:3:0:0:
169,71,161882,1,0,1:0:0:0:
169,71,161988,2,0,L|183:108,1,40,0|0,1:0|0:0,0:0:0:0:
107,204,162199,1,8,0:3:0:0:
107,204,162305,1,0,1:0:0:0:
107,204,162410,2,0,L|146:209,1,40,0|0,1:0|0:0,0:0:0:0:
340,160,162621,6,0,P|337:199|322:236,1,80,8|8,0:3|0:3,0:0:0:0:
245,353,163044,2,0,P|230:316|227:276,2,80,0|0|8,1:0|0:0|0:3,0:0:0:0:
349,323,163678,1,0,0:0:0:0:
244,178,163889,1,0,1:0:0:0:
244,178,163995,1,0,1:0:0:0:
244,178,164100,1,0,1:0:0:0:
147,289,164312,6,0,L|226:276,1,80,8|8,0:3|0:3,0:0:0:0:
152,77,164734,2,0,P|141:115|145:154,1,80,0|0,1:0|0:0,0:0:0:0:
352,99,165157,2,0,L|391:91,2,40,8|0|0,1:3|1:0|1:0,0:0:0:0:
296,189,165579,2,0,L|244:178,2,53.3333333333333,2|0|0,1:2|0:0|0:0,0:0:0:0:
355,247,166002,5,8,0:3:0:0:
128,246,172762,6,0,P|87:190|114:127,1,143.999995605469,12|2,0:2|0:1,0:0:0:0:
149,109,173290,1,0,0:0:0:0:
188,109,173396,1,8,0:3:0:0:
223,127,173502,1,0,0:0:0:0:
245,159,173607,2,0,L|232:192,1,35.9999989013672,8|0,0:3|0:0,0:0:0:0:
209,304,173819,2,0,L|244:297,1,35.9999989013672,2|0,0:1|0:0,0:0:0:0:
329,235,174030,2,0,L|352:262,1,35.9999989013672,2|0,0:1|0:0,0:0:0:0:
436,337,174241,2,0,L|448:303,1,35.9999989013672,2|0,1:1|0:0,0:0:0:0:
435,199,174452,5,8,0:3:0:0:
435,199,174664,2,0,L|470:192,1,35.9999989013672,8|0,0:3|0:0,0:0:0:0:
510,85,174875,1,2,0:1:0:0:
484,54,174981,1,0,0:0:0:0:
445,47,175086,1,8,0:3:0:0:
406,58,175192,1,0,0:0:0:0:
390,94,175297,2,0,L|318:86,1,71.9999978027344,8|2,0:3|0:1,0:0:0:0:
198,8,175720,2,0,L|211:78,1,71.9999978027344,0|2,1:0|0:1,0:0:0:0:
231,170,176037,1,0,0:0:0:0:
231,170,176143,5,8,0:3:0:0:
231,170,176565,2,0,L|197:184,3,35.9999989013672,2|0|8|0,0:1|0:0|0:0|0:0,0:0:0:0:
110,138,176988,2,0,L|76:125,3,35.9999989013672,8|0|2|0,0:3|0:0|0:1|0:0,0:0:0:0:
0,191,177410,2,0,L|5:226,1,35.9999989013672,0|0,1:0|0:0,0:0:0:0:
75,315,177621,2,0,L|80:279,1,35.9999989013672,2|0,0:1|0:0,0:0:0:0:
197,183,177833,5,8,0:3:0:0:
224,211,177938,1,0,0:0:0:0:
224,250,178044,1,0,0:0:0:0:
210,287,178150,1,0,0:0:0:0:
173,303,178255,2,0,L|182:374,1,71.9999978027344,2|8,0:1|0:3,0:0:0:0:
398,328,178678,1,8,0:3:0:0:
302,271,178889,2,0,L|292:342,1,71.9999978027344,2|0,0:1|1:0,0:0:0:0:
161,190,179312,2,0,L|196:183,1,35.9999989013672,2|0,0:1|0:0,0:0:0:0:
287,162,179523,5,8,0:3:0:0:
287,162,179945,1,2,0:1:0:0:
247,22,180157,1,8,0:3:0:0:
422,56,180368,2,0,P|391:73|355:76,1,71.9999978027344,8|2,0:3|0:1,0:0:0:0:
445,167,180790,2,0,P|475:184|511:187,1,71.9999978027344,0|2,1:0|0:1,0:0:0:0:
357,232,181213,5,8,0:3:0:0:
422,310,181424,2,0,L|429:381,2,71.9999978027344,0|2|8,0:0|0:1|0:3,0:0:0:0:
291,336,182058,2,0,L|256:327,3,35.9999989013672,8|0|2|0,0:3|0:0|0:1|0:0,0:0:0:0:
197,262,182481,2,0,L|162:271,3,35.9999989013672,0|0|2|0,1:1|0:0|0:1|0:0,0:0:0:0:
77,313,182903,5,8,0:3:0:0:
77,313,183326,2,0,L|66:241,1,71.9999978027344,2|8,0:1|0:3,0:0:0:0:
169,126,183748,2,0,L|174:90,3,35.9999989013672,8|0|2|0,0:3|0:0|0:1|0:0,0:0:0:0:
110,32,184171,1,0,1:0:0:0:
71,40,184276,1,0,0:0:0:0:
49,73,184382,1,2,0:1:0:0:
56,112,184488,1,0,0:0:0:0:
83,139,184593,6,0,L|12:155,2,71.9999978027344,8|8|0,0:3|0:3|0:0,0:0:0:0:
273,107,185227,2,0,P|296:171|243:212,1,143.999995605469,8|2,0:3|0:1,0:0:0:0:
108,267,185861,2,0,L|143:273,1,35.9999989013672,2|0,1:2|0:0,0:0:0:0:
258,335,186072,2,0,L|222:341,1,35.9999989013672,2|0,0:0|0:0,0:0:0:0:
137,183,186283,6,0,P|179:235|243:212,1,143.999995605469,8|2,0:3|0:1,0:0:0:0:
341,117,186917,2,0,L|353:261,1,143.999995605469,8|2,3:3|3:1,0:0:0:0:
243,212,187551,1,0,0:0:0:0:
213,91,187762,1,2,3:1:0:0:
352,47,187974,6,0,P|353:83|341:117,1,71.9999978027344,8|0,0:3|3:0,0:0:0:0:
504,60,188396,2,0,P|472:43|450:15,1,71.9999978027344,2|8,3:1|0:3,0:0:0:0:
417,186,188819,2,0,P|447:168|482:162,1,71.9999978027344,8|0,3:3|0:0,0:0:0:0:
482,263,189241,1,0,3:0:0:0:
310,299,189452,1,2,0:1:0:0:
310,299,189558,1,0,0:0:0:0:
310,299,189664,6,0,L|316:227,1,71.9999978027344,8|0,3:3|0:0,0:0:0:0:
190,239,190086,2,0,L|159:219,2,35.9999989013672,2|0|8,0:1|0:0|3:3,0:0:0:0:
390,168,190509,1,8,0:3:0:0:
390,168,190720,2,0,P|403:201|406:236,1,71.9999978027344,2|0,3:1|0:0,0:0:0:0:
190,239,191143,1,2,3:1:0:0:
231,133,191354,6,0,L|300:116,1,71.9999978027344,8|0,0:0|3:0,0:0:0:0:
153,55,191776,2,0,L|83:38,1,71.9999978027344,2|8,3:1|0:3,0:0:0:0:
76,202,192199,2,0,L|98:173,2,35.9999989013672,8|0|2,3:3|0:0|0:1,0:0:0:0:
136,327,192621,1,0,3:0:0:0:
149,329,192727,1,0,0:0:0:0:
162,331,192833,1,2,0:1:0:0:
338,207,193044,6,0,P|274:183|231:235,1,143.999995605469,8|2,0:3|0:1,0:0:0:0:
418,310,193678,2,0,L|430:166,1,143.999995605469,8|2,3:3|3:1,0:0:0:0:
308,106,194312,1,0,0:0:0:0:
338,207,194523,1,2,3:1:0:0:
236,307,194734,6,0,L|231:236,2,71.9999978027344,8|0|2,0:3|3:0|0:1,0:0:0:0:
128,195,195368,1,8,3:3:0:0:
0,253,195579,2,0,P|29:272|64:281,1,71.9999978027344,8|0,3:3|0:0,0:0:0:0:
164,74,196002,1,0,3:0:0:0:
239,163,196213,1,2,0:1:0:0:
239,163,196319,1,0,3:0:0:0:
239,163,196424,6,0,L|230:234,2,71.9999978027344,8|0|2,0:3|0:0|0:1,0:0:0:0:
348,116,197058,2,0,L|339:187,1,71.9999978027344,8|8,3:3|0:3,0:0:0:0:
269,356,197480,1,2,3:1:0:0:
239,163,197692,1,0,0:0:0:0:
362,287,197903,1,2,3:1:0:0:
127,319,198114,6,0,P|112:286|111:250,2,71.9999978027344,8|0|2,0:3|0:0|0:1,0:0:0:0:
280,256,198748,1,8,3:3:0:0:
197,129,198959,1,8,0:3:0:0:
209,269,199171,2,0,L|280:256,1,71.9999978027344,2|0,3:1|0:0,0:0:0:0:
280,256,199593,1,2,3:1:0:0:
288,69,199805,6,0,P|221:66|197:129,1,143.999995605469,8|0,3:3|1:0,0:0:0:0:
197,129,200333,1,0,1:0:0:0:
197,129,200438,1,8,1:3:0:0:
280,256,200650,2,0,P|251:269|220:274,1,64,12|0,0:2|0:0,0:0:0:0:
97,341,201072,2,0,P|126:353|157:358,1,64,0|0,0:0|0:0,0:0:0:0:
59,245,201495,5,2,0:0:0:0:
330,122,213326,5,8,0:3:0:0:
252,174,213537,1,0,1:0:0:0:
337,215,213748,1,0,1:0:0:0:
245,81,213959,1,8,0:3:0:0:
135,235,214171,5,10,1:2:0:0:
154,239,214276,1,0,1:0:0:0:
173,243,214382,1,0,1:0:0:0:
413,199,214593,1,10,1:2:0:0:
394,203,214699,1,0,1:0:0:0:
375,207,214805,1,0,1:0:0:0:
356,211,214910,1,0,1:0:0:0:
337,215,215016,6,0,L|328:294,1,80,10|0,0:2|0:0,0:0:0:0:
234,130,215438,2,0,L|225:50,1,80,0|8,1:0|0:0,0:0:0:0:
197,343,215861,1,8,0:0:0:0:
119,118,216072,1,0,0:0:0:0:
337,215,216283,1,0,1:0:0:0:
197,343,216495,1,0,0:0:0:0:
25,140,216706,6,0,P|24:100|37:62,1,80,8|0,0:0|0:0,0:0:0:0:
307,64,217128,2,0,P|320:101|319:141,1,80,0|8,1:0|0:0,0:0:0:0:
197,343,217551,2,0,L|236:334,1,40,10|2,0:2|0:2,0:0:0:0:
153,254,217762,2,0,L|113:245,1,40,2|2,1:2|0:2,0:0:0:0:
38,307,217974,1,2,1:2:0:0:
37,62,218185,1,2,0:2:0:0:
37,62,218290,1,2,0:2:0:0:
37,62,218396,6,0,L|115:47,1,80,10|0,0:2|0:0,0:0:0:0:
290,155,218819,2,0,L|212:141,1,80,0|8,1:0|0:0,0:0:0:0:
449,161,219241,1,8,0:0:0:0:
224,239,219452,1,0,0:0:0:0:
321,21,219663,1,0,1:0:0:0:
449,161,219875,1,0,0:0:0:0:
243,314,220086,6,0,P|226:278|224:239,1,80,8|0,0:0|0:0,0:0:0:0:
430,243,220509,2,0,P|427:283|410:319,1,80,0|8,1:0|0:0,0:0:0:0:
120,297,220931,1,2,0:2:0:0:
119,252,221037,1,2,0:2:0:0:
144,216,221143,1,2,1:2:0:0:
189,213,221248,1,2,0:2:0:0:
224,239,221353,2,0,L|263:232,1,40,2|2,1:2|0:2,0:0:0:0:
256,91,221565,1,2,0:2:0:0:
256,91,221671,1,2,0:2:0:0:
256,91,221776,6,0,L|178:105,1,80,10|0,0:2|0:0,0:0:0:0:
264,232,222199,2,0,L|342:218,1,80,0|8,1:0|0:0,0:0:0:0:
177,105,222621,1,8,0:0:0:0:
65,230,222833,2,0,L|143:216,1,80,0|0,0:0|1:0,0:0:0:0:
290,51,223255,6,0,P|251:116|177:105,1,160,8|8,0:3|0:3,0:0:0:0:
264,232,223889,2,0,L|253:152,1,80,0|8,1:0|0:0,0:0:0:0:
401,84,224312,1,10,0:2:0:0:
377,184,224523,1,0,0:0:0:0:
477,155,224734,1,0,1:0:0:0:
486,301,224945,1,0,0:0:0:0:
486,301,225051,1,0,0:0:0:0:
486,301,225157,6,0,P|416:336|345:306,1,160,10|0,0:2|1:0,0:0:0:0:
254,153,225790,1,8,0:0:0:0:
170,298,226002,2,0,L|209:304,1,40,10|0,0:2|0:0,0:0:0:0:
115,217,226213,2,0,L|75:223,1,40,2|0,0:0|0:0,0:0:0:0:
0,295,226424,1,0,1:0:0:0:
0,295,226636,1,0,0:0:0:0:
116,138,226847,6,0,P|122:177|114:216,1,80,12|0,0:2|0:0,0:0:0:0:
209,381,227269,2,0,P|201:342|208:303,1,80,0|8,1:0|0:0,0:0:0:0:
383,301,227692,2,0,L|422:293,2,40,10|0|0,0:2|0:0|0:0,0:0:0:0:
256,192,228114,1,0,1:0:0:0:
255,147,228220,1,0,0:0:0:0:
280,111,228326,1,0,0:0:0:0:
325,108,228431,1,0,0:0:0:0:
360,134,228537,6,0,L|347:213,2,80,10|0|0,0:2|0:0|1:0,0:0:0:0:
458,98,229171,1,0,0:0:0:0:
422,293,229382,1,0,1:0:0:0:
422,293,229487,1,0,1:0:0:0:
422,293,229593,2,0,L|383:301,1,40,0|0,1:0|0:0,0:0:0:0:
256,192,229804,1,0,1:0:0:0:
256,192,229910,1,0,1:0:0:0:
256,192,230016,5,12,0:2:0:0:
256,192,231283,1,0,1:0:0:0:
158,32,231495,1,0,1:0:0:0:
158,32,231600,1,0,1:0:0:0:
158,32,231706,1,0,1:0:0:0:
78,187,231917,5,0,1:0:0:0:
170,112,232128,1,0,1:0:0:0:
170,112,232234,1,0,1:0:0:0:
170,112,232340,2,0,L|158:32,1,80,0|0,1:0|0:0,0:0:0:0:
340,68,232762,1,0,1:0:0:0:
308,99,232868,1,0,1:0:0:0:
296,141,232974,1,0,1:0:0:0:
308,184,233079,1,0,1:0:0:0:
339,214,233185,1,0,1:0:0:0:
381,226,233290,1,0,1:0:0:0:
424,215,233396,1,0,1:0:0:0:
455,183,233502,1,0,1:0:0:0:
466,141,233607,6,0,L|449:284,1,143.999995605469,8|2,0:0|0:1,0:0:0:0:
285,303,234241,1,8,3:0:0:0:
285,303,234452,1,8,0:0:0:0:
339,214,234664,2,0,L|330:142,2,71.9999978027344,2|0|2,3:1|0:0|3:1,0:0:0:0:
233,204,235297,6,0,L|161:215,1,71.9999978027344,8|0,0:0|3:0,0:0:0:0:
103,79,235720,1,2,3:1:0:0:
103,79,235931,2,0,P|165:112|234:101,1,143.999995605469,8|2,0:0|0:1,0:0:0:0:
447,149,236565,2,0,P|414:134|378:134,1,71.9999978027344,0|0,3:0|0:0,0:0:0:0:
341,210,236882,1,0,3:0:0:0:
341,210,236988,6,0,L|329:66,1,143.999995605469,8|2,3:0|0:1,0:0:0:0:
239,215,237621,1,8,3:0:0:0:
239,215,237833,1,8,0:0:0:0:
308,300,238044,2,0,P|362:256|431:268,1,143.999995605469,2|2,3:1|3:1,0:0:0:0:
232,380,238678,5,8,0:0:0:0:
232,380,238889,2,0,L|187:322,2,71.9999978027344,0|2|8,3:0|0:1|3:0,0:0:0:0:
76,372,239523,2,0,P|57:305|105:255,1,143.999995605469,8|0,3:0|3:0,0:0:0:0:
228,185,240157,1,2,0:1:0:0:
228,185,240262,1,0,3:0:0:0:
228,185,240368,6,0,L|87:155,1,143.999995605469,8|2,3:0|0:1,0:0:0:0:
181,53,241002,1,8,3:0:0:0:
181,53,241213,1,8,0:0:0:0:
270,114,241424,2,0,L|284:257,1,143.999995605469,2|2,3:1|3:1,0:0:0:0:
399,355,242058,6,0,L|327:347,2,71.9999978027344,8|0|2,0:0|3:0|0:1,0:0:0:0:
427,241,242692,2,0,L|284:257,1,143.999995605469,8|2,3:0|0:1,0:0:0:0:
147,154,243326,1,0,3:0:0:0:
279,89,243537,1,0,0:0:0:0:
279,89,243643,1,0,3:0:0:0:
279,89,243748,5,8,3:3:0:0:
283,257,243959,1,0,0:0:0:0:
279,89,244170,1,2,0:1:0:0:
147,154,244382,2,0,L|165:223,2,71.9999978027344,8|0|2,3:3|0:0|3:1,0:0:0:0:
212,22,245015,5,8,3:3:0:0:
44,18,245226,1,0,0:0:0:0:
212,22,245437,1,2,0:1:0:0:
147,154,245649,2,0,L|78:135,2,71.9999978027344,8|0|2,3:3|0:0|3:1,0:0:0:0:
276,124,246283,6,0,L|286:196,1,71.9999978027344,8|2,3:3|0:1,0:0:0:0:
380,304,246706,2,0,L|390:233,1,71.9999978027344,8|2,3:3|0:1,0:0:0:0:
448,10,247128,6,0,L|413:19,1,35.9999989013672,2|0,3:2|0:0,0:0:0:0:
294,45,247339,2,0,L|329:54,1,35.9999989013672,2|0,0:0|0:0,0:0:0:0:
434,118,247551,2,0,L|399:127,1,35.9999989013672,2|0,3:2|0:0,0:0:0:0:
280,153,247762,2,0,L|315:162,1,35.9999989013672,2|0,0:0|0:0,0:0:0:0:
460,215,247973,2,0,L|390:232,2,71.9999978027344,2|2|2,0:0|3:1|0:0,0:0:0:0:
280,153,248607,6,0,L|263:223,1,71.9999978027344,8|8,3:3|3:3,0:0:0:0:
144,284,249029,2,0,P|109:224|127:156,1,143.999995605469,4|0,0:0|0:0,0:0:0:0:
280,153,249664,1,4,0:3:0:0:
305,178,249769,1,4,0:3:0:0:
314,213,249875,1,8,0:3:0:0:
304,247,249981,1,0,0:0:0:0:
280,273,250086,1,8,0:3:0:0:
179,269,250297,1,8,0:3:0:0:
170,169,250509,5,2,0:3:0:0:
256,192,250614,12,2,253625,0:0:0:0:
