osu file format v14

[General]
AudioFilename: audio.mp3
AudioLeadIn: 0
PreviewTime: 58346
Countdown: 0
SampleSet: Soft
StackLeniency: 0.7
Mode: 0
LetterboxInBreaks: 0
WidescreenStoryboard: 1

[Editor]
Bookmarks: 17255,30776,44297,59508,86551,93311,106832,122044,149086,165987,172762,186269,201480,215001,231903,250494,253663
DistanceSpacing: 2.4
BeatDivisor: 4
GridSize: 16
TimelineZoom: 1

[Metadata]
Title:Harumachi Clover -blooming mix-
TitleUnicode:春待ちクローバー -blooming mix-
Artist:Hanasaka Yui(CV:M.A.O)
ArtistUnicode:花坂結衣(CV:M・A・O)
Creator:Naotoshi
Version:Mentai's Normal
Source:OneRoom
Tags:小森成雄 Shigeo Komori Ichimichi Mao akitoshi misure mentai kantoku カントク one room ワンルーム lolis
BeatmapID:1352413
BeatmapSetID:627085

[Difficulty]
HPDrainRate:3
CircleSize:3
OverallDifficulty:4
ApproachRate:5
SliderMultiplier:1.3
SliderTickRate:1

[Events]
//Background and Video events
0,0,"7.jpg",0,0
//Break Periods
2,149300,154660
2,201694,210435
//Storyboard Layer 0 (Background)
//Storyboard Layer 1 (Fail)
//Storyboard Layer 2 (Pass)
//Storyboard Layer 3 (Foreground)
//Storyboard Sound Samples

[TimingPoints]
368,422.535211267606,4,2,1,67,1,0
16424,-100,4,2,2,67,0,0
17691,-100,4,2,1,67,0,0
30368,-100,4,2,2,67,0,0
31213,-100,4,2,1,67,0,0
43889,-100,4,2,2,67,0,0
44734,-100,4,2,1,67,0,0
59522,-100,4,2,1,85,0,1
86565,-100,4,2,1,67,0,0
92269,-100,4,2,2,67,0,0
93748,-100,4,2,1,67,0,0
122058,-100,4,2,1,85,0,1
149100,-100,4,2,1,67,0,0
168959,-100,4,2,2,67,0,0
169382,-100,4,2,1,67,0,0
172339,-100,4,2,2,67,0,0
172762,-100,4,2,1,67,0,0
186283,-100,4,2,1,67,0,0
193044,-100,4,2,1,67,0,0
201494,-100,4,2,1,50,0,0
212903,-100,4,2,1,67,0,0
215015,-100,4,2,3,85,0,1
217551,-100,4,2,4,85,0,1
217656,-100,4,2,1,85,0,1
218396,-100,4,2,5,85,0,1
218607,-100,4,2,1,85,0,1
220931,-100,4,2,4,85,0,1
221037,-100,4,2,1,85,0,1
221776,-100,4,2,3,85,0,1
221987,-100,4,2,1,85,0,1
224311,-100,4,2,4,85,0,1
224522,-100,4,2,1,85,0,1
225156,-100,4,2,5,85,0,1
225368,-100,4,2,1,85,0,1
226001,-100,4,2,3,85,0,1
226213,-100,4,2,1,85,0,1
226846,-100,4,2,5,85,0,1
227058,-100,4,2,1,85,0,1
227691,-100,4,2,4,85,0,1
227903,-100,4,2,1,85,0,1
228537,-100,4,2,3,85,0,1
228748,-100,4,2,1,85,0,1
230015,-100,4,2,1,67,0,0
233607,-100,4,2,1,67,0,0
249663,-100,4,2,2,67,0,0
250508,-142.857142857143,4,2,2,67,0,0

[Colours]
Combo1 : 235,124,207
Combo2 : 254,222,148

[HitObjects]
215,31,368,5,8,0:3:0:0:
81,111,790,2,0,P|73:215|89:251,1,130,0|8,0:0|0:3,0:0:0:0:
121,303,1424,2,0,P|225:295|261:311,1,130,2|2,3:1|3:1,0:0:0:0:
314,264,2058,2,0,B|294:172|294:172|314:68,2,195,0|8|0,0:0|3:3|3:0,0:0:0:0:
415,382,3748,5,8,3:3:0:0:
411,232,4170,2,0,B|396:165|396:165|411:89,1,130,2|0,0:1|0:0,0:0:0:0:
364,39,4804,2,0,B|297:53|297:53|221:39,1,130,2|2,3:1|3:1,0:0:0:0:
190,104,5438,2,0,B|142:84|142:84|74:80|74:80|-2:48,2,195,8|8|0,0:3|0:3|3:0,0:0:0:0:
300,214,7128,5,8,3:0:0:0:
208,340,7551,2,0,P|104:348|68:332,1,130,2|8,0:1|0:3,0:0:0:0:
48,268,8185,2,0,P|56:164|40:128,1,130,2|2,3:1|3:1,0:0:0:0:
92,76,8818,2,0,B|147:40|191:65|241:93|300:42,2,195,8|8|0,0:3|0:3|0:0,0:0:0:0:
64,232,10508,6,0,L|56:324,2,65,8|0|2,3:3|0:0|0:1,0:0:0:0:
140,212,11142,2,0,L|145:147,2,65,8|0|2,3:3|0:0|3:1,0:0:0:0:
204,260,11776,2,0,L|196:352,2,65,8|2|0,0:3|3:1|0:0,0:0:0:0:
280,240,12410,2,0,L|285:175,2,65,8|2|0,3:3|3:1|0:0,0:0:0:0:
324,304,13044,1,8,3:3:0:0:
463,233,13466,1,8,3:3:0:0:
256,192,13889,12,4,16424,0:3:0:0:
376,328,17269,6,0,P|392:264|368:200,1,130,2|2,0:3|0:1,0:0:0:0:
260,96,18114,2,0,P|244:160|268:224,1,130,8|0,0:3|0:0,0:0:0:0:
180,348,18959,2,0,B|112:360|112:360|40:348,1,130,8|2,0:3|3:1,0:0:0:0:
40,272,19593,2,0,B|52:204|52:204|40:132,2,130,8|2|2,0:3|0:1|0:1,0:0:0:0:
51,349,20649,6,0,B|112:360|112:360|180:348,1,130,8|2,3:3|0:1,0:0:0:0:
312,268,21494,1,8,0:3:0:0:
312,268,21706,2,0,L|444:288,1,130,2|2,3:1|3:1,0:0:0:0:
496,232,22339,2,0,B|512:184|480:140|448:96|484:24,2,195,8|8|0,0:3|0:3|0:0,0:0:0:0:
404,360,24029,6,0,P|340:372|277:357,1,130,8|2,3:3|0:1,0:0:0:0:
168,244,24875,2,0,P|232:232|304:252,1,130,8|0,0:3|0:0,0:0:0:0:
424,160,25720,2,0,B|436:92|436:92|424:20,1,130,8|2,0:3|3:1,0:0:0:0:
348,20,26354,2,0,B|280:32|280:32|208:20,2,130,8|2|2,0:3|0:1|0:1,0:0:0:0:
425,31,27410,6,0,B|435:91|435:91|423:159,1,130,8|2,3:3|0:1,0:0:0:0:
368,216,28044,1,8,3:3:0:0:
368,216,28255,2,0,B|357:276|357:276|369:344,1,130,8|0,0:3|0:0,0:0:0:0:
219,358,29100,2,0,P|156:373|92:361,1,130,8|8,0:3|3:3,0:0:0:0:
21,324,29734,1,2,0:2:0:0:
21,324,29945,2,0,L|25:188,1,130,0|4,0:0|0:3,0:0:0:0:
56,40,30790,6,0,P|119:25|183:37,1,130,2|2,0:3|0:1,0:0:0:0:
300,140,31635,2,0,P|236:151|173:136,1,130,8|0,0:3|0:0,0:0:0:0:
44,172,32480,2,0,B|32:240|32:240|44:312,1,130,8|2,0:3|3:1,0:0:0:0:
112,336,33114,2,0,B|180:324|180:324|252:336,2,130,8|2|2,0:3|0:1|0:1,0:0:0:0:
42,300,34170,6,0,B|32:240|32:240|44:172,1,130,8|2,3:3|0:1,0:0:0:0:
144,56,35015,1,8,0:3:0:0:
144,56,35227,2,0,P|212:68|276:52,1,130,2|2,3:1|3:1,0:0:0:0:
330,0,35860,2,0,B|371:51|344:97|312:142|358:208,2,195,8|8|0,0:3|0:3|3:0,0:0:0:0:
270,54,37339,1,0,0:0:0:0:
200,16,37551,6,0,P|132:4|68:20,1,130,8|2,3:3|0:1,0:0:0:0:
12,160,38396,2,0,P|75:173|138:161,1,130,8|0,0:3|0:0,0:0:0:0:
288,204,39241,2,0,B|300:272|300:272|288:344,1,130,8|2,0:3|3:1,0:0:0:0:
220,368,39875,2,0,B|152:356|152:356|80:368,2,130,8|2|2,0:3|0:1|0:1,0:0:0:0:
289,332,40931,6,0,B|300:272|300:272|288:204,1,130,8|2,3:3|0:1,0:0:0:0:
236,148,41565,1,8,3:3:0:0:
236,148,41776,2,0,B|225:87|225:87|237:19,1,130,8|0,0:3|0:0,0:0:0:0:
392,4,42621,2,0,B|384:52|384:52|400:88|400:88|388:144,1,130,8|0,0:3|3:0,0:0:0:0:
348,196,43255,1,2,0:0:0:0:
348,196,43466,2,0,L|372:324,1,130,0|4,0:0|0:3,0:0:0:0:
221,366,44311,6,0,P|158:379|95:367,1,130,2|2,0:3|0:1,0:0:0:0:
48,303,44945,2,0,L|24:151,2,130,8|2|2,3:3|3:1|3:1,0:0:0:0:
94,366,46001,2,0,P|157:379|221:366,1,130,8|2,0:3|3:1,0:0:0:0:
352,280,46846,2,0,P|365:216|352:153,1,130,8|0,3:3|3:0,0:0:0:0:
271,151,47480,6,0,P|325:77|417:104,1,195,2|2,0:1|0:1,0:0:0:0:
468,244,48537,2,0,B|480:316|480:316|448:376,1,130,8|0,0:3|0:0,0:0:0:0:
376,356,49170,2,0,B|320:384|280:352|244:318|166:351,2,195,2|2|2,3:1|3:1|0:1,0:0:0:0:
418,290,50649,1,0,3:0:0:0:
376,136,51072,6,0,P|304:120|244:144,1,130,8|2,3:3|0:1,0:0:0:0:
216,208,51706,2,0,P|144:224|84:200,1,130,8|2,3:3|3:1,0:0:0:0:
60,136,52339,2,0,L|68:72,1,65,0|2,0:0|3:1,0:0:0:0:
124,16,52762,2,0,P|196:0|256:24,1,130,0|2,0:0|3:1,0:0:0:0:
284,88,53396,2,0,P|356:104|416:80,1,130,8|2,0:3|0:1,0:0:0:0:
473,42,54029,1,0,3:0:0:0:
504,192,54452,6,0,B|492:236|492:236|496:268|496:268|476:328,1,130,8|2,3:3|0:1,0:0:0:0:
328,356,55297,2,0,P|266:374|204:357,1,130,8|0,0:3|0:0,0:0:0:0:
96,244,56142,2,0,P|158:227|219:245,1,130,8|2,0:3|0:1,0:0:0:0:
300,268,56776,1,8,3:3:0:0:
300,268,56987,2,0,L|432:260,1,130,8|0,0:3|0:0,0:0:0:0:
500,120,57832,2,0,B|456:124|456:124|420:140|420:140|363:144,1,130,8|2,0:3|0:1,0:0:0:0:
224,104,58677,2,0,L|147:98,2,65,8|8|0,0:3|3:3|0:0,0:0:0:0:
264,256,59522,6,0,P|281:318|263:379,1,130,8|0,0:3|1:0,0:0:0:0:
120,316,60368,2,0,P|103:254|121:193,1,130,8|0,0:3|1:0,0:0:0:0:
188,52,61213,2,0,P|126:35|65:53,1,130,8|0,0:3|1:0,0:0:0:0:
20,120,61846,2,0,B|16:168|16:168|28:208|28:208|20:256,1,130,8|2,0:3|1:2,0:0:0:0:
36,325,62480,1,2,1:2:0:0:
188,352,62903,6,0,B|256:344|256:344|320:356,1,130,10|0,0:2|1:0,0:0:0:0:
414,234,63748,2,0,B|346:242|346:242|282:230,1,130,8|0,0:3|1:0,0:0:0:0:
209,251,64382,1,0,0:0:0:0:
149,200,64593,2,0,B|117:140|145:104|173:68|141:12,2,195,8|8|10,0:3|0:3|1:2,0:0:0:0:
209,250,66072,1,2,0:0:0:0:
284,228,66283,6,0,P|340:212|412:232,1,130,10|0,0:2|1:0,0:0:0:0:
504,352,67128,2,0,P|448:368|376:348,1,130,8|0,0:3|1:0,0:0:0:0:
306,323,67762,2,0,B|258:327|258:327|218:315|218:315|170:323,1,130,0|0,0:0|0:0,0:0:0:0:
108,360,68396,1,0,1:0:0:0:
156,212,68818,2,0,P|172:156|152:84,1,130,10|0,0:2|1:0,0:0:0:0:
74,87,69452,6,0,P|118:15|214:35,1,195,0|0,0:0|1:0,0:0:0:0:
288,172,70508,2,0,P|344:188|416:168,1,130,10|0,0:2|1:0,0:0:0:0:
477,121,71142,2,0,B|513:181|482:217|453:253|485:309,1,195,2|0,0:2|1:0,0:0:0:0:
336,360,72198,2,0,L|264:376,2,65,10|0|0,1:2|1:0|1:0,0:0:0:0:
368,208,73044,6,0,P|385:146|367:85,1,130,10|0,0:2|1:0,0:0:0:0:
231,6,73890,2,0,P|214:68|232:129,1,130,8|0,0:3|1:0,0:0:0:0:
236,280,74734,2,0,P|174:297|113:279,1,130,8|0,0:3|1:0,0:0:0:0:
68,212,75368,2,0,B|76:148|76:148|64:80,1,130,8|0,0:3|1:0,0:0:0:0:
108,16,76001,1,2,1:2:0:0:
264,24,76424,6,0,B|332:32|332:32|396:20,1,130,10|2,0:2|1:0,0:0:0:0:
486,145,77269,2,0,B|418:137|418:137|354:149,1,130,8|0,0:3|1:0,0:0:0:0:
283,122,77903,1,0,0:0:0:0:
236,188,78114,2,0,B|204:248|232:284|260:320|228:376,2,195,8|8|2,0:3|0:3|1:2,0:0:0:0:
284,124,79593,1,2,0:2:0:0:
228,68,79804,6,0,P|172:52|100:72,1,130,10|0,0:2|1:0,0:0:0:0:
20,204,80649,2,0,P|76:220|148:200,1,130,8|0,0:3|1:0,0:0:0:0:
224,195,81283,2,0,L|360:203,1,130
431,180,81917,1,0,1:0:0:0:
496,324,82339,2,0,B|447:320|447:320|408:333|408:333|357:331,1,130,10|0,0:2|1:0,0:0:0:0:
300,292,82973,6,0,B|236:276|200:292|168:308|108:280,1,195,0|0,0:0|1:0,0:0:0:0:
5,162,84029,2,0,B|-7:98|-7:98|17:26,1,130,10|0,0:2|1:0,0:0:0:0:
94,25,84663,2,0,P|194:9|294:29,1,195,0|0,0:0|1:0,0:0:0:0:
333,87,85508,1,0,3:0:0:0:
408,66,85720,2,0,L|476:54,2,65,10|0|8,1:2|1:0|1:3,0:0:0:0:
404,222,86565,6,0,L|412:314,2,65,8|0|2,0:3|0:0|0:1,0:0:0:0:
328,202,87199,2,0,L|323:137,2,65,8|0|0,3:3|0:0|0:0,0:0:0:0:
264,250,87833,2,0,L|272:342,2,65,0|0|0,0:0|0:0|0:0,0:0:0:0:
188,230,88467,2,0,L|183:165,2,65,0|0|8,0:0|0:0|0:3,0:0:0:0:
142,295,89100,1,8,3:3:0:0:
25,193,89522,1,8,3:3:0:0:
256,192,89945,12,12,92480,0:3:0:0:
448,44,93325,6,0,P|468:104|448:172,1,130,2|2,0:3|0:1,0:0:0:0:
336,272,94170,2,0,P|316:212|336:144,1,130,8|0,0:3|0:0,0:0:0:0:
220,44,95015,2,0,B|152:36|152:36|80:48,1,130,8|2,0:3|3:1,0:0:0:0:
41,108,95649,2,0,B|33:176|33:176|45:248,2,130,8|2|2,0:3|0:1|0:1,0:0:0:0:
91,46,96706,6,0,B|152:36|152:36|220:44,1,130,8|2,3:3|0:1,0:0:0:0:
288,184,97551,1,8,0:3:0:0:
288,184,97762,2,0,L|416:165,1,130,2|2,3:1|3:1,0:0:0:0:
490,131,98396,2,0,B|514:175|483:224|454:271|499:339,2,195,8|8|0,0:3|0:3|3:0,0:0:0:0:
356,48,100086,6,0,P|296:28|228:48,1,130,8|2,3:3|0:1,0:0:0:0:
128,160,100931,2,0,P|188:180|256:160,1,130,8|0,0:3|0:0,0:0:0:0:
404,196,101776,2,0,B|412:264|412:264|400:336,1,130,8|2,0:3|3:1,0:0:0:0:
340,375,102410,2,0,B|272:383|272:383|200:371,2,130,8|2|2,0:3|0:1|0:1,0:0:0:0:
401,324,103467,6,0,B|411:263|411:263|403:195,1,130,8|2,3:3|0:1,0:0:0:0:
337,152,104100,1,0,0:0:0:0:
337,152,104311,2,0,B|327:91|327:91|335:23,1,130,8|2,3:3|0:1,0:0:0:0:
178,17,105156,2,0,B|172:63|172:63|157:92|157:92|148:145,1,130,0|0,3:3|0:0,0:0:0:0:
90,195,105790,1,8,0:3:0:0:
90,195,106001,2,0,L|66:323,1,130,0|0,0:0|3:0,0:0:0:0:
222,365,106846,6,0,P|285:378|348:366,1,130,8|0,3:3|0:1,0:0:0:0:
396,304,107480,2,0,L|420:176,2,130,8|2|2,3:3|3:1|3:1,0:0:0:0:
348,365,108537,2,0,P|285:378|221:365,1,130,8|2,0:3|3:1,0:0:0:0:
110,260,109382,2,0,P|97:197|110:133,1,130,8|0,3:3|3:0,0:0:0:0:
172,81,110015,6,0,P|83:57|26:132,1,195,2|2,0:1|0:1,0:0:0:0:
110,260,111072,2,0,P|173:273|237:260,1,130,8|0,0:3|0:0,0:0:0:0:
282,197,111706,2,0,B|338:171|374:205|414:237|470:209,2,195,2|2|2,3:1|3:1|0:1,0:0:0:0:
204,191,113184,1,0,3:0:0:0:
258,59,113607,6,0,L|397:61,1,130,8|2,3:0|0:1,0:0:0:0:
442,1,114241,2,0,P|469:76|427:132,1,130,8|2,3:3|3:1,0:0:0:0:
392,170,114876,2,0,P|386:203|390:235,1,65,0|2,0:0|3:1,0:0:0:0:
384,313,115298,2,0,P|322:329|261:311,1,130,0|2,0:0|3:1,0:0:0:0:
224,240,115932,2,0,P|162:224|101:242,1,130,8|2,0:3|0:1,0:0:0:0:
43,294,116565,1,0,0:0:0:0:
14,140,116987,6,0,B|26:96|26:96|22:64|22:64|42:4,1,130,8|2,3:3|0:1,0:0:0:0:
194,19,117832,2,0,P|256:1|318:18,1,130,8|0,0:3|0:0,0:0:0:0:
424,131,118677,2,0,P|362:148|301:130,1,130,8|2,0:3|0:1,0:0:0:0:
227,105,119311,1,8,3:3:0:0:
227,105,119522,2,0,L|95:113,1,130,8|0,0:3|0:0,0:0:0:0:
25,257,120368,2,0,B|71:260|71:260|107:276|107:276|151:280,1,130,8|2,0:3|3:1,0:0:0:0:
305,301,121213,2,0,L|383:308,2,65,8|2|0,0:3|3:1|0:0,0:0:0:0:
249,148,122058,6,0,P|266:86|248:25,1,130,8|0,0:3|1:0,0:0:0:0:
105,88,122904,2,0,P|88:150|106:211,1,130,8|0,0:3|1:0,0:0:0:0:
230,305,123748,2,0,P|292:322|353:304,1,130,8|0,0:3|1:0,0:0:0:0:
417,258,124382,2,0,B|420:212|420:212|436:176|436:176|440:132,1,130,8|2,0:3|1:2,0:0:0:0:
431,54,125015,1,2,1:2:0:0:
278,18,125438,6,0,B|210:26|210:26|146:14,1,130,10|0,0:2|1:0,0:0:0:0:
50,135,126283,2,0,B|118:127|118:127|182:139,1,130,8|0,0:3|1:0,0:0:0:0:
255,122,126917,1,0,0:0:0:0:
306,182,127128,2,0,B|338:242|310:278|282:314|314:370,2,195,8|8|2,0:3|0:3|1:2,0:0:0:0:
274,110,128607,1,2,0:2:0:0:
196,119,128818,6,0,P|134:102|73:120,1,130,10|0,0:2|1:0,0:0:0:0:
104,269,129664,2,0,P|166:286|227:268,1,130,8|0,0:3|1:0,0:0:0:0:
286,215,130297,2,0,B|332:218|332:218|368:234|368:234|412:238,1,130
489,249,130931,1,0,1:0:0:0:
506,94,131353,2,0,L|371:85,1,130,10|0,0:2|1:0,0:0:0:0:
348,8,131987,6,0,P|293:82|342:160,1,195,0|0,0:0|1:0,0:0:0:0:
364,315,133044,2,0,P|308:299|236:319,1,130,10|0,0:2|1:0,0:0:0:0:
175,366,133678,2,0,B|139:306|170:270|199:234|167:178,1,195,0|0,0:0|1:0,0:0:0:0:
72,61,134734,2,0,L|32:4,2,65,10|0|0,1:2|1:0|1:0,0:0:0:0:
230,36,135579,6,0,P|292:19|353:37,1,130,10|0,0:2|1:0,0:0:0:0:
290,180,136425,2,0,P|228:197|167:179,1,130,8|0,0:3|1:0,0:0:0:0:
22,120,137269,2,0,P|5:182|23:243,1,130,8|0,0:3|1:0,0:0:0:0:
81,295,137903,2,0,B|145:303|145:303|213:291,1,130,8|0,0:3|1:0,0:0:0:0:
286,277,138537,1,2,1:2:0:0:
428,213,138959,6,0,P|445:151|427:90,1,130,10|0,0:2|1:0,0:0:0:0:
284,153,139805,2,0,P|267:215|285:276,1,130,8|0,0:3|1:0,0:0:0:0:
365,293,140438,1,0,0:0:0:0:
409,227,140649,2,0,B|441:167|413:131|385:95|417:39,2,195,8|8|2,0:3|0:3|1:2,0:0:0:0:
365,293,142128,1,2,0:2:0:0:
303,242,142339,6,0,P|247:258|175:238,1,130,10|0,0:2|1:0,0:0:0:0:
95,106,143184,2,0,P|151:90|223:110,1,130,8|0,0:3|1:0,0:0:0:0:
297,114,143818,2,0,L|433:106,1,130,0|0,0:0|0:0,0:0:0:0:
502,129,144452,1,0,1:0:0:0:
430,268,144875,2,0,B|386:272|386:272|350:288|350:288|304:291,1,130,10|0,0:2|1:0,0:0:0:0:
271,366,145508,6,0,P|222:287|277:214,1,195,0|0,0:0|1:0,0:0:0:0:
430,268,146565,2,0,P|447:206|431:143,1,130,10|0,0:3|1:0,0:0:0:0:
384,82,147198,2,0,B|328:50|292:79|256:110|196:74,1,195,0|0,0:0|1:0,0:0:0:0:
126,109,148044,1,8,0:3:0:0:
159,179,148255,2,0,L|155:256,2,65,10|0|0,1:2|1:0|1:0,0:0:0:0:
282,82,149100,5,8,3:0:0:0:
13,359,155860,5,8,0:3:0:0:
66,301,156072,2,0,P|86:240|66:179,2,130,0|0|0,3:0|3:0|3:0,0:0:0:0:
209,361,157339,2,0,B|299:346|299:346|411:358,1,195,0|0,3:0|1:0,0:0:0:0:
471,216,158396,2,0,P|491:155|471:94,1,130,8|0,0:3|1:0,0:0:0:0:
316,71,159241,6,0,L|251:65,2,65,8|0|0,0:3|1:0|1:0,0:0:0:0:
336,147,159875,2,0,L|401:152,2,65,8|0|0,0:3|1:0|1:0,0:0:0:0:
288,211,160508,2,0,L|223:205,2,65,8|0|0,0:3|0:0|0:0,0:0:0:0:
308,287,161143,2,0,L|373:292,2,65,8|0|0,0:3|0:0|0:0,0:0:0:0:
248,338,161777,2,0,P|172:350|108:326,1,130,8|0,0:3|0:0,0:0:0:0:
256,192,162621,12,8,165156,1:3:0:0:
455,117,166001,5,8,0:3:0:0:
238,28,166635,1,8,0:3:0:0:
238,28,166846,2,0,L|107:13,1,130,8|0,0:3|0:0,0:0:0:0:
4,129,167691,1,8,0:3:0:0:
99,252,168114,2,0,B|169:219|232:250|283:274|360:239,1,260,0|8,0:0|0:3,0:0:0:0:
455,117,169382,5,8,0:3:0:0:
393,342,170015,1,8,0:0:0:0:
393,342,170227,2,0,P|343:363|241:353,1,130,8|0,0:3|0:0,0:0:0:0:
119,314,171072,1,8,0:3:0:0:
238,213,171494,2,0,B|215:141|244:23|244:23|227:54|169:74,1,260,0|4,0:0|0:3,0:0:0:0:
57,143,172762,6,0,P|45:194|62:278,1,130,12|2,0:2|0:1,0:0:0:0:
112,325,173396,1,8,0:3:0:0:
160,263,173607,2,0,P|211:251|295:268,1,130,8|2,0:3|0:1,0:0:0:0:
429,325,174452,2,0,P|442:261|430:198,1,130,8|2,0:3|0:1,0:0:0:0:
367,150,175086,2,0,L|240:96,2,130,8|2|2,0:3|0:1|0:1,0:0:0:0:
430,198,176142,6,0,P|442:261|429:325,1,130,8|2,0:3|0:1,0:0:0:0:
360,362,176776,1,8,0:0:0:0:
320,295,176987,2,0,B|276:291|276:291|240:275|240:275|194:272,1,130,8|0,0:3|1:0,0:0:0:0:
55,343,177832,2,0,P|42:279|53:216,1,130,8|2,0:3|0:1,0:0:0:0:
113,165,178466,2,0,L|132:32,2,130,8|2|2,0:3|0:1|0:1,0:0:0:0:
53,216,179522,6,0,P|42:279|55:343,1,130,8|2,0:3|0:1,0:0:0:0:
127,373,180156,1,8,0:3:0:0:
177,313,180368,2,0,P|240:301|303:314,1,130,8|0,0:3|1:0,0:0:0:0:
444,381,181213,2,0,P|456:317|445:254,1,130,8|2,0:3|0:1,0:0:0:0:
414,182,181846,1,8,0:3:0:0:
347,222,182058,2,0,B|303:218|303:218|267:202|267:202|221:199,1,130,8|0,0:3|1:1,0:0:0:0:
64,205,182903,6,0,P|52:141|63:77,1,130,8|2,0:3|0:1,0:0:0:0:
109,14,183537,1,8,0:3:0:0:
178,49,183748,2,0,P|241:60|305:49,1,130,8|0,0:3|1:0,0:0:0:0:
454,2,184593,2,0,P|470:74|446:134,1,130,8|0,0:3|0:0,0:0:0:0:
382,162,185227,2,0,P|366:234|390:294,1,130,8|2,0:3|0:1,0:0:0:0:
460,313,185860,1,0,0:0:0:0:
307,344,186283,6,0,P|244:357|181:345,1,130,8|2,0:3|0:1,0:0:0:0:
135,280,186917,2,0,L|111:128,2,130,8|2|2,3:3|3:1|3:1,0:0:0:0:
180,344,187973,2,0,P|243:357|307:344,1,130,8|2,0:3|3:1,0:0:0:0:
445,263,188818,2,0,P|458:199|445:136,1,130,8|0,3:3|3:0,0:0:0:0:
483,64,189452,6,0,B|426:38|390:72|350:104|295:77,1,195,2|2,0:1|0:1,0:0:0:0:
145,35,190508,2,0,P|81:23|18:35,1,130,8|0,0:3|0:0,0:0:0:0:
37,110,191142,2,0,B|65:166|33:206|-1:242|32:320,2,195,2|2|2,3:1|3:1|0:1,0:0:0:0:
48,32,192621,1,0,3:0:0:0:
201,65,193044,6,0,L|332:60,1,130,8|2,0:3|0:1,0:0:0:0:
387,2,193677,2,0,P|410:45|382:123,1,130,8|2,3:3|3:1,0:0:0:0:
334,178,194311,2,0,L|341:252,1,65,0|2,0:0|3:1,0:0:0:0:
352,319,194734,2,0,P|280:335|220:311,1,130,8|2,0:3|0:1,0:0:0:0:
192,247,195368,2,0,P|120:231|60:255,1,130,8|0,3:3|0:0,0:0:0:0:
7,296,196001,1,0,3:0:0:0:
3,142,196424,6,0,B|-5:74|-5:74|7:10,1,130,8|2,0:3|0:1,0:0:0:0:
154,71,197269,2,0,B|165:131|165:131|157:199,1,130,8|0,0:3|0:0,0:0:0:0:
94,342,198114,2,0,P|156:359|217:341,1,130,8|2,0:3|0:1,0:0:0:0:
298,318,198748,1,8,3:3:0:0:
298,318,198959,2,0,L|430:326,1,130,8|0,0:3|0:0,0:0:0:0:
512,194,199804,2,0,B|468:190|468:190|432:174|432:174|375:170,1,130,8|0,0:3|0:0,0:0:0:0:
234,131,200649,2,0,L|166:126,2,65,12|0|0,0:2|0:0|0:0,0:0:0:0:
270,282,201494,5,2,0:0:0:0:
256,192,211635,12,0,214170,1:0:0:0:
356,354,215015,6,0,P|418:371|479:353,1,130,10|0,0:2|1:0,0:0:0:0:
416,210,215861,2,0,P|354:193|293:211,1,130,8|0,0:0|1:0,0:0:0:0:
148,270,216705,2,0,P|131:208|149:147,1,130,8|0,0:0|1:0,0:0:0:0:
207,95,217339,2,0,B|270:88|270:88|343:95,1,130,8|2,0:0|1:2,0:0:0:0:
412,113,217973,1,2,1:2:0:0:
433,267,218396,6,0,B|370:274|370:274|297:267,1,130,10|0,0:2|1:0,0:0:0:0:
154,220,219241,2,0,L|156:81,1,130,8|0,0:0|1:0,0:0:0:0:
212,31,219875,2,0,P|152:10|95:37,1,130
49,101,220508,2,0,L|48:167,1,65,0|8,1:0|0:0,0:0:0:0:
20,239,220931,2,0,B|23:285|23:285|39:321|39:321|43:365,1,130,2|2,0:2|1:2,0:0:0:0:
198,347,221776,6,0,P|254:363|326:343,1,130,10|0,0:2|1:0,0:0:0:0:
406,211,222621,2,0,P|350:195|278:215,1,130,8|0,0:0|1:0,0:0:0:0:
216,254,223255,2,0,B|170:251|170:251|134:235|134:235|90:231,1,130,0|0,0:0|0:0,0:0:0:0:
30,179,223889,1,0,1:0:0:0:
169,110,224311,2,0,P|232:97|296:110,1,130,10|0,0:2|1:0,0:0:0:0:
347,174,224945,6,0,P|371:85|297:28,1,195,0|0,0:0|1:0,0:0:0:0:
169,110,226001,2,0,P|156:173|169:250,1,130,10|0,0:2|1:0,0:0:0:0:
237,273,226635,2,0,B|297:305|333:277|369:249|425:281,1,195,0|0,0:0|1:0,0:0:0:0:
473,219,227480,1,0,3:0:0:0:
428,155,227691,2,0,P|365:142|301:155,1,130,10|0,0:2|1:0,0:0:0:0:
191,266,228537,6,0,P|128:279|64:266,1,130,10|0,0:2|1:0,0:0:0:0:
32,113,229382,2,0,L|12:51,2,65,0|0|0,1:0|1:0|1:0,0:0:0:0:
109,115,230015,1,12,0:2:0:0:
256,192,231917,12,8,235297,0:0:0:0:
483,28,236987,5,8,3:0:0:0:
463,182,237410,2,0,P|359:190|323:174,1,130,2|8,0:1|0:0,0:0:0:0:
299,113,238044,2,0,P|195:105|159:121,1,130,2|2,3:1|3:1,0:0:0:0:
115,165,238677,2,0,B|87:225|107:257|127:313|91:373,2,195,8|8|0,0:0|3:0|3:0,0:0:0:0:
76,13,240368,5,8,3:0:0:0:
228,44,240790,2,0,B|242:111|242:111|228:187,1,130,2|8,0:1|0:0,0:0:0:0:
172,223,241424,2,0,B|158:290|158:290|172:366,1,130,2|2,3:1|3:1,0:0:0:0:
245,368,242058,2,0,B|296:376|296:376|363:365|363:365|444:379,2,195,8|8|0,0:0|3:0|3:0,0:0:0:0:
104,299,243748,6,0,L|13:282,2,65,8|0|2,3:0|0:0|0:1,0:0:0:0:
142,230,244382,2,0,L|206:241,2,65,8|0|2,3:0|0:0|3:1,0:0:0:0:
112,156,245016,2,0,L|21:139,2,65,8|2|0,0:0|3:1|0:0,0:0:0:0:
151,88,245650,2,0,L|215:99,2,65,8|2|8,3:0|0:1|3:0,0:0:0:0:
84,48,246283,1,8,3:0:0:0:
237,18,246706,1,8,3:0:0:0:
256,192,247128,12,2,250508,0:3:0:0:
