osu file format v14

[General]
AudioFilename: audio.mp3
AudioLeadIn: 0
PreviewTime: 58346
Countdown: 0
SampleSet: Soft
StackLeniency: 0.7
Mode: 0
LetterboxInBreaks: 0
WidescreenStoryboard: 0

[Editor]
Bookmarks: 368,17269,30790,44311,59522,73044,86565,93325,106846,122058,135579,149100,159241,172762,186283,201494,215015,230015,240368,250508
DistanceSpacing: 1.5
BeatDivisor: 4
GridSize: 16
TimelineZoom: 1

[Metadata]
Title:Harumachi Clover -blooming mix-
TitleUnicode:春待ちクローバー -blooming mix-
Artist:Hanasaka Yui(CV:M.A.O)
ArtistUnicode:花坂結衣(CV:M・A・O)
Creator:Naotoshi
Version:Akitoshi's Hard
Source:OneRoom
Tags:小森成雄 Shigeo Komori Ichimichi Mao akitoshi misure mentai kantoku カントク one room ワンルーム lolis
BeatmapID:1356818
BeatmapSetID:627085

[Difficulty]
HPDrainRate:5
CircleSize:3.5
OverallDifficulty:5.8
ApproachRate:7
SliderMultiplier:1.5
SliderTickRate:1

[Events]
//Background and Video events
0,0,"5.jpg",0,0
//Break Periods
2,166201,171862
2,201494,211580
//Storyboard Layer 0 (Background)
//Storyboard Layer 1 (Fail)
//Storyboard Layer 2 (Pass)
//Storyboard Layer 3 (Foreground)
//Storyboard Sound Samples

[TimingPoints]
368,422.535211267606,4,2,1,67,1,0
16424,-100,4,2,2,67,0,0
17691,-100,4,2,1,67,0,0
30368,-100,4,2,2,67,0,0
31213,-100,4,2,1,67,0,0
43889,-100,4,2,2,67,0,0
44311,-111.111111111111,4,2,2,67,0,0
44734,-111.111111111111,4,2,1,67,0,0
51072,-100,4,2,1,67,0,0
59522,-90.9090909090909,4,2,1,85,0,1
86565,-100,4,2,1,67,0,0
92269,-100,4,2,2,67,0,0
93748,-100,4,2,1,67,0,0
106846,-111.111111111111,4,2,1,67,0,0
113607,-100,4,2,1,67,0,0
122058,-90.9090909090909,4,2,1,85,0,1
149100,-100,4,2,1,67,0,0
172762,-100,4,2,1,67,0,0
186283,-100,4,2,1,67,0,0
193044,-100,4,2,1,67,0,0
201494,-100,4,2,1,50,0,0
212903,-100,4,2,1,67,0,0
215015,-90.9090909090909,4,2,3,85,0,1
217551,-90.9090909090909,4,2,4,85,0,1
217656,-90.9090909090909,4,2,1,85,0,1
218396,-90.9090909090909,4,2,5,85,0,1
218607,-90.9090909090909,4,2,1,85,0,1
220931,-90.9090909090909,4,2,4,85,0,1
221037,-90.9090909090909,4,2,1,85,0,1
221776,-90.9090909090909,4,2,3,85,0,1
221987,-90.9090909090909,4,2,1,85,0,1
224311,-90.9090909090909,4,2,4,85,0,1
224522,-90.9090909090909,4,2,1,85,0,1
225156,-90.9090909090909,4,2,5,85,0,1
225368,-90.9090909090909,4,2,1,85,0,1
226001,-90.9090909090909,4,2,3,85,0,1
226213,-90.9090909090909,4,2,1,85,0,1
226846,-90.9090909090909,4,2,5,85,0,1
227058,-90.9090909090909,4,2,1,85,0,1
227691,-90.9090909090909,4,2,4,85,0,1
227903,-90.9090909090909,4,2,1,85,0,1
228537,-90.9090909090909,4,2,3,85,0,1
228748,-90.9090909090909,4,2,1,85,0,1
230015,-100,4,2,1,67,0,0
233607,-100,4,2,1,67,0,0
249663,-100,4,2,2,67,0,0
250508,-100,4,2,2,67,0,0

[Colours]
Combo1 : 235,124,207
Combo2 : 254,222,148

[HitObjects]
194,285,368,6,0,L|318:275,1,112.5,8|0,0:3|0:0,0:0:0:0:
335,270,790,2,0,P|342:236|331:185,1,75,0|8,0:0|3:3,0:0:0:0:
278,117,1213,1,8,0:3:0:0:
185,147,1424,2,0,P|143:150|96:136,2,75,2|0|2,3:1|0:0|3:1,0:0:0:0:
278,117,2058,6,0,P|328:101|439:114,1,150,0|0,0:0|0:1,0:0:0:0:
485,183,2691,2,0,L|470:344,1,150,8|2,3:3|0:1,0:0:0:0:
383,375,3325,1,0,3:0:0:0:
297,329,3537,1,0,0:0:0:0:
284,320,3642,1,0,3:0:0:0:
270,313,3748,6,0,L|140:321,1,112.5,8|0,3:3|0:0,0:0:0:0:
127,319,4170,2,0,P|116:278|117:245,1,75,2|0,0:1|0:0,0:0:0:0:
167,162,4593,1,8,0:3:0:0:
257,196,4804,2,0,P|295:201|350:189,2,75,2|0|2,3:1|0:0|3:1,0:0:0:0:
167,162,5438,6,0,B|66:176|66:176|12:149,1,150,8|2,0:3|0:1,0:0:0:0:
27,56,6072,2,0,B|128:42|128:42|182:69,1,150,8|2,0:3|0:1,0:0:0:0:
253,116,6706,1,0,3:0:0:0:
167,162,6917,1,0,0:0:0:0:
156,172,7022,1,0,3:0:0:0:
144,181,7128,6,0,L|153:271,1,75,8|0,3:0|0:0,0:0:0:0:
228,324,7551,1,2,0:1:0:0:
228,324,7762,2,0,P|267:313|303:313,1,75,8|8,3:3|0:3,0:0:0:0:
393,344,8184,2,0,P|423:282|414:189,1,150,2|2,3:1|3:1,0:0:0:0:
365,120,8818,6,0,L|377:29,2,75,8|0|2,0:3|3:0|0:1,0:0:0:0:
294,187,9452,2,0,P|217:206|147:187,1,150,8|2,0:3|0:1,0:0:0:0:
73,127,10086,1,0,3:0:0:0:
146,63,10297,1,0,0:0:0:0:
158,55,10403,1,0,3:0:0:0:
170,47,10508,6,0,L|266:53,2,75,8|0|2,3:3|0:0|0:1,0:0:0:0:
208,137,11142,2,0,L|304:131,2,75,8|0|2,3:3|0:0|3:1,0:0:0:0:
170,235,11776,6,0,L|266:241,2,75,8|2|0,0:3|3:1|0:0,0:0:0:0:
208,332,12410,2,0,L|304:326,2,75,8|2|0,3:3|3:1|0:0,0:0:0:0:
110,321,13044,6,0,P|76:287|73:202,1,112.5,8|0,3:3|0:0,0:0:0:0:
91,209,13466,2,0,L|102:82,1,112.5,8|0,3:3|3:0,0:0:0:0:
123,76,13889,6,0,B|175:70|175:70|224:84|224:84|301:71,1,150,0|2,3:0|0:1,0:0:0:0:
367,76,14522,1,0,3:0:0:0:
432,148,14734,2,0,L|428:243,1,75,0|2,0:0|3:1,0:0:0:0:
413,319,15156,1,0,0:0:0:0:
318,343,15368,1,8,3:3:0:0:
247,284,15579,5,8,3:3:0:0:
247,284,15790,2,0,B|175:264|163:322|81:286,1,150,4|0,0:0|0:0,0:0:0:0:
23,233,16424,2,0,L|16:189,3,37.5,4|4|8|0,0:3|0:3|0:3|0:0,0:0:0:0:
38,175,16846,2,0,L|45:131,3,37.5,8|0|0|0,0:3|0:0|0:0|0:0,0:0:0:0:
37,108,17269,6,0,P|97:133|196:101,1,150,2|2,0:3|0:1,0:0:0:0:
255,55,17903,1,8,3:3:0:0:
345,90,18114,2,0,P|384:78|433:80,2,75,8|2|0,0:3|3:1|0:0,0:0:0:0:
287,168,18748,6,0,B|260:243|319:241|284:340,1,150,2|0,3:1|3:0,0:0:0:0:
203,358,19382,1,2,3:1:0:0:
203,358,19593,2,0,P|160:369|124:366,2,75,8|8|2,0:3|3:3|0:1,0:0:0:0:
151,274,20227,1,0,3:0:0:0:
95,194,20438,1,2,0:1:0:0:
87,180,20544,1,0,3:0:0:0:
81,166,20649,6,0,P|126:114|220:108,2,150,8|2|8,3:3|0:1|0:3,0:0:0:0:
96,262,21706,2,0,L|113:365,1,75,2|0,3:1|0:0,0:0:0:0:
198,372,22128,1,2,3:1:0:0:
275,312,22339,6,0,P|313:321|366:310,2,75,8|0|2,0:3|3:0|3:1,0:0:0:0:
200,249,22973,2,0,B|181:183|234:168|197:88,1,150,8|2,0:3|0:1,0:0:0:0:
157,15,23607,1,0,3:0:0:0:
157,15,23818,1,2,0:1:0:0:
253,23,24029,6,0,L|350:29,1,75,8|0,3:3|0:0,0:0:0:0:
328,125,24452,2,0,L|231:131,1,75,2|8,0:1|3:3,0:0:0:0:
210,217,24875,2,0,P|271:250|377:227,1,150,8|0,0:3|0:0,0:0:0:0:
427,185,25508,6,0,L|414:29,1,150,2|0,3:1|3:0,0:0:0:0:
319,14,26142,1,2,3:1:0:0:
228,50,26353,2,0,B|183:73|183:73|63:55,1,150,8|2,0:3|0:1,0:0:0:0:
20,132,26987,1,0,3:0:0:0:
59,220,27198,1,2,0:1:0:0:
71,227,27304,1,0,3:0:0:0:
83,235,27410,6,0,P|152:254|248:227,2,150,8|2|8,3:3|0:1|0:3,0:0:0:0:
108,140,28466,2,0,P|147:131|196:138,1,75,2|0,3:1|0:0,0:0:0:0:
274,162,28889,1,2,3:1:0:0:
322,246,29100,6,0,L|307:353,2,75,8|2|8,0:3|0:2|3:3,0:0:0:0:
364,158,29734,2,0,P|412:148|503:195,1,150,2|2,0:2|0:1,0:0:0:0:
507,288,30368,1,4,0:3:0:0:
430,348,30579,1,8,0:3:0:0:
417,356,30684,1,8,0:3:0:0:
404,363,30790,6,0,L|319:354,1,75,2|0,0:3|0:0,0:0:0:0:
261,284,31213,2,0,L|176:293,1,75,2|8,0:1|3:3,0:0:0:0:
127,213,31635,2,0,L|42:204,2,75,8|2|0,0:3|3:1|0:0,0:0:0:0:
204,153,32269,6,0,B|263:169|263:169|384:148,1,150,2|0,3:1|3:0,0:0:0:0:
434,104,32903,1,2,3:1:0:0:
434,104,33114,2,0,L|454:199,2,75,8|8|2,0:3|3:3|0:1,0:0:0:0:
381,21,33748,1,0,3:0:0:0:
293,61,33959,1,2,0:1:0:0:
280,70,34065,1,0,3:0:0:0:
268,79,34170,6,0,P|204:50|103:67,2,150,8|2|8,3:3|0:1|0:3,0:0:0:0:
306,168,35227,2,0,L|294:254,1,75,2|0,3:1|0:0,0:0:0:0:
274,337,35649,1,2,3:1:0:0:
182,302,35860,6,0,P|138:292|94:296,2,75,8|0|2,0:3|3:0|3:1,0:0:0:0:
274,337,36494,1,8,0:3:0:0:
363,297,36706,2,0,P|373:253|369:209,1,75,8|2,3:3|0:1,0:0:0:0:
322,139,37128,1,0,3:0:0:0:
246,77,37339,1,0,0:0:0:0:
231,74,37445,1,0,3:0:0:0:
216,71,37551,6,0,L|107:84,1,75,8|0,3:3|0:0,0:0:0:0:
89,162,37973,2,0,L|198:175,1,75,2|0,0:1|0:0,0:0:0:0:
211,256,38396,2,0,P|162:307|72:305,1,150,8|0,0:3|0:0,0:0:0:0:
10,250,39029,6,0,L|-5:145,2,75,2|0|0,3:1|0:0|3:0,0:0:0:0:
86,311,39663,1,2,3:1:0:0:
148,235,39875,2,0,P|218:210|305:236,1,150,8|2,0:3|0:1,0:0:0:0:
380,260,40508,1,0,3:0:0:0:
465,211,40720,1,2,0:1:0:0:
477,202,40825,1,0,3:0:0:0:
488,192,40931,6,0,P|496:116|450:40,2,150,8|2|8,3:3|0:1|0:3,0:0:0:0:
420,262,41987,2,0,L|432:361,1,75,2|0,3:1|0:0,0:0:0:0:
335,365,42410,1,0,3:0:0:0:
242,335,42621,6,0,P|193:345|163:341,2,75,8|2|0,0:3|0:0|3:0,0:0:0:0:
287,248,43255,2,0,B|312:185|259:172|289:96,1,150,2|2,0:0|0:1,0:0:0:0:
221,29,43889,1,4,0:3:0:0:
140,84,44100,1,8,0:3:0:0:
130,95,44206,1,8,0:3:0:0:
122,106,44311,6,0,L|135:245,1,134.999995880127,2|2,0:3|0:1,0:0:0:0:
148,327,44945,2,0,P|185:332|226:326,1,67.4999979400635,8|8,3:3|0:3,0:0:0:0:
295,293,45368,2,0,P|332:288|373:294,1,67.4999979400635,2|0,3:1|0:0,0:0:0:0:
432,342,45790,6,0,P|404:281|416:200,1,134.999995880127,2|0,3:1|3:0,0:0:0:0:
443,133,46424,2,0,L|346:116,1,67.4999979400635,2|8,3:1|0:3,0:0:0:0:
334,44,46846,2,0,L|237:61,1,67.4999979400635,8|0,3:3|0:0,0:0:0:0:
203,116,47269,1,0,3:0:0:0:
140,177,47480,6,0,P|83:175|12:100,1,134.999995880127,2|0,0:1|0:0,0:0:0:0:
68,52,48114,2,0,L|144:58,1,67.4999979400635,2|8,0:1|3:3,0:0:0:0:
203,115,48537,2,0,P|220:142|228:202,1,67.4999979400635,8|0,0:3|3:0,0:0:0:0:
193,256,48959,1,0,0:0:0:0:
224,337,49170,6,0,L|380:318,1,134.999995880127,2|0,3:1|3:0,0:0:0:0:
444,301,49804,1,2,3:1:0:0:
496,230,50015,2,0,P|501:190|493:148,1,67.4999979400635,8|0,0:3|0:0,0:0:0:0:
439,96,50438,1,2,0:1:0:0:
352,99,50649,2,0,L|312:93,3,33.7499989700318,0|0|2|0,3:0|0:0|0:1|3:0,0:0:0:0:
299,70,51072,6,0,L|280:231,1,150,8|2,3:3|0:1,0:0:0:0:
245,309,51706,2,0,P|187:313|157:307,1,75,8|8,3:3|0:3,0:0:0:0:
75,289,52128,1,2,3:1:0:0:
75,289,52339,1,0,0:0:0:0:
122,203,52551,6,0,P|151:119|131:50,1,150,2|0,3:1|3:0,0:0:0:0:
221,12,53184,1,2,3:1:0:0:
312,45,53396,2,0,L|395:33,2,75,8|8|2,0:3|3:3|0:1,0:0:0:0:
270,133,54029,1,0,3:0:0:0:
335,206,54241,1,2,0:1:0:0:
343,218,54346,1,0,3:0:0:0:
352,230,54452,6,0,L|344:316,1,75,8|0,3:3|0:0,0:0:0:0:
257,348,54875,2,0,L|249:262,1,75,2|8,0:1|3:3,0:0:0:0:
157,242,55297,2,0,P|110:246|72:238,1,75,8|2,0:3|3:1,0:0:0:0:
77,143,55720,2,0,P|114:137|151:142,1,75,0|2,0:0|3:1,0:0:0:0:
241,178,56142,6,0,L|397:163,1,150,8|2,0:3|0:1,0:0:0:0:
467,103,56776,1,8,3:3:0:0:
403,29,56987,1,8,0:3:0:0:
403,29,57198,2,0,P|357:52|250:47,1,150,2|2,3:1|3:1,0:0:0:0:
170,12,57832,6,0,B|143:92|206:90|159:179,1,150,8|2,0:3|0:1,0:0:0:0:
109,237,58466,1,8,3:3:0:0:
164,317,58677,2,0,L|159:356,2,37.5,8|0|0,0:3|3:0|0:0,0:0:0:0:
256,284,59100,1,0,0:0:0:0:
256,284,59311,1,8,3:3:0:0:
343,345,59522,6,0,L|442:330,1,82.5000025177003,8|0,0:3|0:0,0:0:0:0:
488,246,59945,2,0,L|389:231,1,82.5000025177003,0|8,1:0|0:3,0:0:0:0:
324,164,60368,1,8,0:3:0:0:
324,164,60579,1,0,0:0:0:0:
416,110,60790,1,0,1:0:0:0:
416,110,61001,1,0,0:0:0:0:
328,47,61213,6,0,L|215:40,1,82.5000025177003,8|0,0:3|0:0,0:0:0:0:
138,36,61635,1,0,1:0:0:0:
59,109,61846,2,0,P|48:152|63:205,1,82.5000025177003,8|0,0:3|0:0,0:0:0:0:
122,272,62269,1,2,1:2:0:0:
122,272,62480,2,0,L|221:260,1,82.5000025177003,2|2,1:2|0:2,0:0:0:0:
219,266,62797,1,2,0:2:0:0:
234,270,62903,6,0,P|243:227|231:169,1,82.5000025177003,10|0,0:2|0:0,0:0:0:0:
144,138,63325,2,0,P|135:95|147:37,1,82.5000025177003,0|0,1:0|0:0,0:0:0:0:
236,9,63748,1,8,0:3:0:0:
236,9,63959,1,0,0:0:0:0:
339,36,64170,1,0,1:0:0:0:
339,36,64381,1,0,0:0:0:0:
401,123,64593,6,0,L|398:226,1,82.5000025177003,8|0,0:3|0:0,0:0:0:0:
304,256,65015,2,0,L|301:153,1,82.5000025177003,0|0,1:0|0:0,0:0:0:0:
231,91,65438,1,10,0:2:0:0:
123,91,65649,1,2,1:2:0:0:
47,166,65860,2,0,P|39:210|47:254,1,82.5000025177003,10|0,1:2|0:0,0:0:0:0:
53,261,66177,1,0,0:0:0:0:
62,274,66283,6,0,L|159:259,1,82.5000025177003,10|0,0:2|0:0,0:0:0:0:
224,190,66706,2,0,L|321:205,1,82.5000025177003,0|8,1:0|0:3,0:0:0:0:
411,216,67128,1,8,0:3:0:0:
483,136,67339,1,0,1:0:0:0:
483,136,67551,1,0,1:0:0:0:
423,47,67762,6,0,B|366:41|366:41|312:60|312:60|228:50,1,165.000005035401,2|0,0:0|0:0,0:0:0:0:
159,21,68396,2,0,P|118:16|70:29,1,82.5000025177003,0|0,1:0|0:0,0:0:0:0:
26,118,68818,1,10,0:2:0:0:
103,202,69029,1,0,1:0:0:0:
103,202,69241,2,0,L|210:196,1,82.5000025177003,0|0,1:0|0:0,0:0:0:0:
199,205,69558,1,0,0:0:0:0:
213,212,69663,6,0,P|280:183|391:217,2,165.000005035401,10|0|10,0:2|1:0|0:2,0:0:0:0:
143,293,70720,1,0,0:0:0:0:
143,293,70931,1,0,1:0:0:0:
58,226,71142,6,0,B|25:149|88:147|51:55,1,165.000005035401,2|0,0:2|0:0,0:0:0:0:
154,24,71776,2,0,P|171:59|209:89,1,82.5000025177003,0|8,1:0|0:3,0:0:0:0:
310,98,72198,2,0,L|351:90,2,41.2500012588501,10|0|0,1:2|1:0|0:0,0:0:0:0:
315,205,72621,2,0,L|329:243,2,41.2500012588501,0|0|0,1:0|1:0|1:0,0:0:0:0:
207,203,73044,6,0,P|167:214|118:214,1,82.5000025177003,10|0,0:2|0:0,0:0:0:0:
100,110,73466,2,0,P|140:99|189:99,1,82.5000025177003,0|8,1:0|0:3,0:0:0:0:
286,120,73889,1,8,0:3:0:0:
286,120,74100,1,0,0:0:0:0:
376,62,74311,1,0,1:0:0:0:
376,62,74522,1,0,0:0:0:0:
464,123,74734,6,0,L|454:212,1,82.5000025177003,8|0,0:3|0:0,0:0:0:0:
433,309,75156,1,0,1:0:0:0:
342,250,75368,2,0,P|297:237|252:243,1,82.5000025177003,8|10,0:3|0:2,0:0:0:0:
174,302,75790,1,2,1:2:0:0:
174,302,76001,2,0,P|129:315|84:309,1,82.5000025177003,2|0,1:2|0:0,0:0:0:0:
79,304,76318,1,2,0:2:0:0:
65,295,76424,6,0,L|58:189,1,82.5000025177003,10|0,0:2|0:0,0:0:0:0:
138,140,76846,2,0,L|244:133,1,82.5000025177003,2|0,1:0|0:0,0:0:0:0:
304,201,77269,1,8,0:3:0:0:
304,201,77480,1,0,0:0:0:0:
397,148,77691,1,0,1:0:0:0:
397,148,77902,1,0,0:0:0:0:
363,45,78114,6,0,P|322:28|271:31,1,82.5000025177003,8|0,0:3|0:0,0:0:0:0:
188,75,78537,2,0,P|150:91|109:92,1,82.5000025177003,0|8,1:0|0:3,0:0:0:0:
15,39,78959,1,10,0:2:0:0:
0,145,79170,1,2,1:2:0:0:
77,219,79382,2,0,L|184:206,1,82.5000025177003,2|2,1:2|0:2,0:0:0:0:
172,200,79698,1,2,0:2:0:0:
185,190,79804,6,0,L|292:177,1,82.5000025177003,10|0,0:2|0:0,0:0:0:0:
366,219,80227,1,0,1:0:0:0:
366,219,80438,1,8,0:3:0:0:
451,154,80649,2,0,P|459:115|443:59,1,82.5000025177003,8|0,0:3|0:0,0:0:0:0:
350,112,81072,1,0,1:0:0:0:
270,40,81283,6,0,B|190:28|195:78|101:64,1,165.000005035401,2|0,0:0|0:0,0:0:0:0:
12,111,81917,1,0,1:0:0:0:
12,111,82128,1,8,0:3:0:0:
90,183,82339,2,0,P|110:216|108:284,1,82.5000025177003,10|0,0:2|0:0,0:0:0:0:
7,252,82762,1,0,1:0:0:0:
58,344,82973,6,0,P|136:359|210:298,1,165.000005035401,2|0,0:0|0:0,0:0:0:0:
284,240,83607,2,0,L|381:251,1,82.5000025177003,0|8,1:0|0:3,0:0:0:0:
464,208,84029,1,10,0:2:0:0:
442,102,84241,1,0,0:0:0:0:
442,102,84452,1,0,1:0:0:0:
336,120,84663,6,0,B|278:136|278:136|149:117,1,165.000005035401,2|0,0:0|0:0,0:0:0:0:
85,60,85297,2,0,P|69:101|71:151,1,82.5000025177003,0|8,1:0|0:3,0:0:0:0:
111,237,85720,2,0,L|96:291,2,41.2500012588501,10|0|0,1:2|1:0|1:0,0:0:0:0:
185,160,86142,2,0,L|170:106,2,41.2500012588501,8|0|0,1:3|0:0|0:0,0:0:0:0:
253,230,86565,6,0,P|244:282|262:331,2,75,8|0|2,0:3|0:0|0:1,0:0:0:0:
340,272,87198,2,0,P|358:321|400:356,2,75,8|8|0,3:3|3:3|0:1,0:0:0:0:
253,230,87832,6,0,P|201:239|147:223,2,75,2|2|8,0:0|3:1|0:3,0:0:0:0:
209,142,88466,2,0,P|159:123|120:82,2,75,0|2|8,3:0|3:1|0:3,0:0:0:0:
292,91,89100,6,0,L|421:83,1,112.5,8|0,3:3|0:0,0:0:0:0:
434,86,89522,2,0,P|454:127|450:196,1,112.5,8|0,3:3|3:0,0:0:0:0:
440,220,89945,6,0,B|372:205|361:249|294:236,1,150,8|2,3:3|0:1,0:0:0:0:
208,187,90579,1,0,3:0:0:0:
231,92,90790,2,0,L|338:88,1,75,0|2,0:0|3:1,0:0:0:0:
403,85,91213,1,0,0:0:0:0:
476,149,91424,1,2,3:1:0:0:
436,238,91635,5,0,0:0:0:0:
436,238,91846,2,0,B|393:259|393:259|270:248,1,150,0|12,0:0|0:3,0:0:0:0:
196,224,92480,2,0,L|133:231,3,37.5,12|12|8|0,0:3|0:3|0:3|0:0,0:0:0:0:
136,248,92903,2,0,L|73:240,3,37.5,8|0|8|0,0:3|0:0|0:3|0:0,0:0:0:0:
72,258,93325,6,0,P|45:184|70:100,1,150,2|2,0:3|0:1,0:0:0:0:
121,40,93959,1,8,3:3:0:0:
216,60,94170,2,0,P|251:49|301:47,2,75,8|0|0,0:3|0:0|0:0,0:0:0:0:
181,151,94804,6,0,P|241:187|348:184,1,150,2|0,3:1|3:0,0:0:0:0:
402,140,95438,1,2,3:1:0:0:
402,140,95649,2,0,P|433:128|485:126,2,75,8|8|2,0:3|3:3|0:1,0:0:0:0:
319,192,96283,1,0,3:0:0:0:
238,246,96494,1,2,0:1:0:0:
226,255,96600,1,0,3:0:0:0:
214,264,96706,6,0,P|129:230|54:248,2,150,8|2|8,3:3|0:1|0:3,0:0:0:0:
276,339,97762,2,0,L|358:327,1,75,2|0,3:1|0:0,0:0:0:0:
444,303,98184,1,2,3:1:0:0:
500,223,98396,6,0,P|503:184|486:135,2,75,8|0|2,0:3|3:0|3:1,0:0:0:0:
406,195,99029,1,8,0:3:0:0:
312,166,99241,2,0,L|211:174,1,75,8|2,3:3|0:1,0:0:0:0:
140,182,99663,1,0,3:0:0:0:
55,231,99875,1,2,0:1:0:0:
44,241,99980,1,0,3:0:0:0:
35,253,100086,6,0,L|18:99,1,150,8|2,3:3|0:1,0:0:0:0:
88,35,100720,1,8,3:3:0:0:
169,89,100931,2,0,P|208:92|256:79,1,75,8|2,0:3|3:1,0:0:0:0:
324,31,101353,1,0,0:0:0:0:
402,89,101565,6,0,B|433:160|381:170|416:248,1,150,2|0,3:1|3:0,0:0:0:0:
458,320,102198,1,2,3:1:0:0:
364,349,102410,2,0,L|276:359,2,75,8|8|2,0:3|3:3|0:1,0:0:0:0:
458,320,103044,1,0,3:0:0:0:
489,227,103255,1,2,0:1:0:0:
494,213,103360,1,0,3:0:0:0:
498,198,103466,6,0,P|445:158|346:184,2,150,8|2|8,3:3|0:1|0:3,0:0:0:0:
417,252,104522,2,0,P|382:263|338:256,1,75,2|0,3:1|0:0,0:0:0:0:
259,209,104945,1,2,3:1:0:0:
172,164,105156,6,0,L|93:168,2,75,8|0|2,0:3|0:0|3:1,0:0:0:0:
213,75,105790,2,0,P|267:51|361:65,1,150,8|2,0:3|0:1,0:0:0:0:
437,115,106424,1,0,3:0:0:0:
467,207,106635,1,0,0:0:0:0:
459,219,106741,1,0,3:0:0:0:
451,229,106846,6,0,B|401:253|401:253|302:235,1,134.999995880127,8|0,3:3|0:1,0:0:0:0:
246,195,107480,2,0,L|149:203,1,67.4999979400635,8|8,3:3|0:3,0:0:0:0:
128,272,107903,2,0,L|31:264,1,67.4999979400635,2|0,3:1|0:0,0:0:0:0:
21,188,108325,6,0,P|13:138|53:53,1,134.999995880127,2|0,3:1|3:0,0:0:0:0:
125,26,108959,2,0,L|222:34,1,67.4999979400635,2|8,3:1|0:3,0:0:0:0:
247,100,109382,2,0,L|344:92,1,67.4999979400635,8|2,3:3|0:1,0:0:0:0:
401,88,109804,1,0,3:0:0:0:
463,149,110015,6,0,P|482:214|460:303,1,134.999995880127,2|0,0:1|0:0,0:0:0:0:
401,332,110649,2,0,L|320:321,1,67.4999979400635,2|8,0:1|3:3,0:0:0:0:
256,280,111072,2,0,L|175:291,1,67.4999979400635,8|0,0:3|3:0,0:0:0:0:
115,336,111494,1,0,0:0:0:0:
40,289,111706,6,0,B|19:246|19:246|32:127,1,134.999995880127,2|0,3:1|3:0,0:0:0:0:
81,89,112339,1,2,3:1:0:0:
161,125,112551,2,0,P|195:136|249:127,1,67.4999979400635,8|8,0:3|3:3,0:0:0:0:
298,84,112973,1,2,0:1:0:0:
380,112,113184,2,0,L|386:163,3,33.7499989700318,0|0|0|0,3:0|0:0|0:0|0:0,0:0:0:0:
402,169,113607,6,0,P|342:180|292:261,1,150,8|2,3:0|0:1,0:0:0:0:
235,328,114241,2,0,P|197:294|158:287,1,75,8|8,3:3|0:3,0:0:0:0:
79,306,114663,1,2,3:1:0:0:
79,306,114875,1,0,0:0:0:0:
12,234,115086,6,0,L|26:63,1,150,2|0,3:1|3:0,0:0:0:0:
103,27,115720,1,2,3:1:0:0:
193,61,115931,2,0,P|228:52|275:52,2,75,8|8|2,0:3|3:3|0:1,0:0:0:0:
126,133,116565,1,0,3:0:0:0:
190,206,116776,1,2,0:1:0:0:
200,216,116882,1,0,3:0:0:0:
211,225,116987,6,0,L|313:221,1,75,8|0,3:3|0:0,0:0:0:0:
358,156,117410,2,0,L|460:160,1,75,2|8,0:1|3:3,0:0:0:0:
493,82,117832,2,0,P|453:64|404:67,1,75,8|2,0:3|3:1,0:0:0:0:
324,68,118255,2,0,P|284:86|235:83,1,75,0|2,0:0|3:1,0:0:0:0:
170,36,118677,6,0,L|156:196,1,150,8|2,0:3|0:1,0:0:0:0:
142,282,119311,1,8,3:3:0:0:
225,331,119522,1,8,0:3:0:0:
225,331,119734,2,0,B|299:308|303:363|391:335,1,150,2|2,3:1|3:1,0:0:0:0:
452,284,120368,6,0,L|433:117,1,150,8|2,0:3|3:1,0:0:0:0:
382,53,121001,1,8,0:3:0:0:
319,128,121213,2,0,L|324:177,2,37.5,8|0|2,0:3|3:0|3:1,0:0:0:0:
240,69,121635,1,0,0:0:0:0:
240,69,121846,1,2,3:1:0:0:
141,111,122058,6,0,L|39:117,1,82.5000025177003,8|0,0:3|0:0,0:0:0:0:
13,213,122480,2,0,L|115:219,1,82.5000025177003,0|8,1:0|0:3,0:0:0:0:
202,232,122903,1,8,0:3:0:0:
202,232,123114,1,0,0:0:0:0:
281,160,123325,1,0,1:0:0:0:
281,160,123536,1,0,0:0:0:0:
275,52,123748,6,0,P|317:44|358:46,1,82.5000025177003,8|0,0:3|0:0,0:0:0:0:
450,96,124170,1,0,1:0:0:0:
492,194,124382,2,0,L|485:297,1,82.5000025177003,8|10,0:3|0:2,0:0:0:0:
385,312,124804,1,2,1:2:0:0:
385,312,125015,2,0,L|378:209,1,82.5000025177003,2|0,1:2|0:0,0:0:0:0:
369,216,125332,1,2,0:2:0:0:
355,205,125438,6,0,P|313:195|270:200,1,82.5000025177003,10|0,0:2|0:0,0:0:0:0:
189,264,125860,2,0,P|147:274|104:269,1,82.5000025177003,0|0,1:0|0:0,0:0:0:0:
27,198,126283,1,8,0:3:0:0:
27,198,126494,1,0,0:0:0:0:
72,100,126706,1,0,1:0:0:0:
72,100,126917,1,0,0:0:0:0:
177,119,127128,6,0,L|280:105,1,82.5000025177003,8|0,0:3|0:0,0:0:0:0:
342,39,127551,2,0,L|445:53,1,82.5000025177003,0|8,1:0|0:3,0:0:0:0:
504,121,127973,1,10,0:2:0:0:
489,227,128184,1,2,1:2:0:0:
398,284,128396,2,0,P|354:287|301:276,1,82.5000025177003,2|2,1:2|0:2,0:0:0:0:
302,271,128713,1,2,0:2:0:0:
288,261,128818,6,0,L|200:270,1,82.5000025177003,10|0,0:2|0:0,0:0:0:0:
123,338,129241,2,0,L|35:329,1,82.5000025177003,0|8,1:0|0:3,0:0:0:0:
4,228,129663,1,8,0:3:0:0:
69,142,129875,1,0,1:0:0:0:
69,142,130086,1,0,1:0:0:0:
168,180,130297,6,0,B|224:193|278:210|278:210|353:199,1,165.000005035401,2|0,0:0|0:0,0:0:0:0:
435,190,130931,2,0,L|458:95,1,82.5000025177003,0|0,1:0|0:0,0:0:0:0:
450,2,131353,1,10,0:2:0:0:
350,36,131565,1,0,1:0:0:0:
350,36,131776,2,0,P|310:47|246:42,1,82.5000025177003,0|0,1:0|0:0,0:0:0:0:
253,43,132093,1,0,0:0:0:0:
238,35,132198,6,0,P|274:100|240:194,2,165.000005035401,10|0|10,0:2|1:0|0:2,0:0:0:0:
132,13,133255,1,0,0:0:0:0:
132,13,133466,1,0,1:0:0:0:
38,64,133677,6,0,L|55:234,1,165.000005035401,0|0,0:0|0:0,0:0:0:0:
149,277,134311,2,0,L|158:179,1,82.5000025177003,0|8,1:0|0:3,0:0:0:0:
220,108,134734,2,0,L|215:61,2,41.2500012588501,10|0|0,1:2|1:0|1:0,0:0:0:0:
287,191,135156,2,0,L|282:237,2,41.2500012588501,0|0|0,1:0|1:0|1:0,0:0:0:0:
362,114,135579,6,0,P|419:111|455:124,1,82.5000025177003,10|0,0:2|0:0,0:0:0:0:
500,208,136001,2,0,P|503:265|490:301,1,82.5000025177003,0|0,1:0|0:0,0:0:0:0:
419,365,136424,1,8,0:3:0:0:
419,365,136635,1,0,0:0:0:0:
312,356,136846,1,0,1:0:0:0:
312,356,137058,1,0,0:0:0:0:
260,262,137269,6,0,L|168:272,1,82.5000025177003,8|0,0:3|0:0,0:0:0:0:
71,281,137691,1,0,1:0:0:0:
19,186,137903,2,0,P|7:142|12:99,1,82.5000025177003,8|10,0:3|0:2,0:0:0:0:
96,41,138325,1,2,1:2:0:0:
96,41,138537,2,0,L|185:34,1,82.5000025177003,2|2,1:2|0:2,0:0:0:0:
190,45,138853,1,2,0:2:0:0:
203,55,138959,6,0,L|292:48,1,82.5000025177003,10|0,0:2|0:0,0:0:0:0:
333,144,139382,2,0,L|244:151,1,82.5000025177003,0|8,1:0|0:3,0:0:0:0:
159,205,139804,1,8,0:3:0:0:
159,205,140015,1,0,0:0:0:0:
206,301,140227,1,0,1:0:0:0:
206,301,140438,1,0,0:0:0:0:
312,311,140649,6,0,P|354:302|399:309,1,82.5000025177003,8|0,0:3|0:0,0:0:0:0:
490,352,141072,2,0,P|499:310|492:265,1,82.5000025177003,0|8,1:0|0:3,0:0:0:0:
461,168,141494,1,10,0:2:0:0:
366,116,141706,1,2,1:2:0:0:
366,116,141917,2,0,L|274:109,1,82.5000025177003,2|2,1:2|0:2,0:0:0:0:
269,100,142234,1,2,0:2:0:0:
255,90,142339,6,0,L|163:97,1,82.5000025177003,10|0,0:2|0:0,0:0:0:0:
76,144,142762,1,0,1:0:0:0:
76,144,142973,1,8,0:3:0:0:
53,248,143184,2,0,P|85:275|138:287,1,82.5000025177003,8|0,0:3|0:0,0:0:0:0:
230,273,143607,1,0,1:0:0:0:
305,196,143818,6,0,B|363:213|363:213|475:201,1,165.000005035401
507,103,144452,1,0,1:0:0:0:
507,103,144663,1,8,0:3:0:0:
427,30,144875,2,0,P|386:24|331:38,1,82.5000025177003,10|0,0:2|1:0,0:0:0:0:
259,95,145297,1,0,1:0:0:0:
174,161,145508,6,0,B|117:168|117:168|62:122|-4:152,1,165.000005035401,0|0,0:0|0:0,0:0:0:0:
45,248,146142,2,0,L|56:346,1,82.5000025177003,0|8,1:0|0:3,0:0:0:0:
152,374,146565,1,10,0:3:0:0:
252,336,146776,1,0,0:0:0:0:
252,336,146987,1,0,1:0:0:0:
246,229,147198,6,0,P|305:212|411:248,1,165.000005035401,0|0,0:0|0:0,0:0:0:0:
496,292,147832,2,0,L|507:188,1,82.5000025177003,0|0,1:0|0:0,0:0:0:0:
464,109,148255,2,0,L|458:54,2,41.2500012588501,10|0|0,1:2|1:0|1:0,0:0:0:0:
405,198,148677,2,0,L|399:253,2,41.2500012588501,0|0|0,1:0|0:0|0:0,0:0:0:0:
340,124,149100,5,8,3:0:0:0:
340,124,149311,2,0,L|237:112,1,75,0|0,3:0|1:0,0:0:0:0:
209,35,149734,2,0,L|113:76,1,75,0|8,3:0|0:3,0:0:0:0:
56,14,150156,2,0,L|-5:97,1,75,0|0,3:0|1:0,0:0:0:0:
11,172,150579,6,0,P|52:181|120:270,1,150,0|0,3:0|3:0,0:0:0:0:
186,331,151213,2,0,P|218:312|271:310,1,75,0|0,1:0|3:0,0:0:0:0:
346,341,151635,1,8,0:3:0:0:
429,290,151846,1,0,3:0:0:0:
429,290,152058,2,0,L|419:201,1,75,0|0,1:0|0:0,0:0:0:0:
361,138,152480,5,0,3:3:0:0:
361,138,152691,2,0,P|313:145|278:137,1,75,0|0,3:0|1:0,0:0:0:0:
277,237,153114,2,0,P|231:219|205:194,1,75,0|8,3:0|0:3,0:0:0:0:
154,281,153537,2,0,P|123:242|113:208,1,75,0|0,3:0|1:0,0:0:0:0:
106,121,153959,6,0,P|182:107|248:34,1,150,0|0,3:0|3:0,0:0:0:0:
328,32,154593,2,0,P|362:46|419:49,1,75,0|0,1:0|3:0,0:0:0:0:
497,53,155015,1,8,0:3:0:0:
448,137,155227,1,0,3:0:0:0:
448,137,155438,2,0,L|461:231,1,75,0|0,1:0|0:0,0:0:0:0:
410,295,155860,5,8,0:3:0:0:
410,295,156072,2,0,P|370:307|321:305,1,75,0|0,3:0|1:0,0:0:0:0:
273,233,156494,2,0,P|233:221|184:223,1,75,0|8,3:0|0:3,0:0:0:0:
133,292,156917,2,0,P|93:304|44:302,1,75,0|0,3:0|1:0,0:0:0:0:
11,220,157339,6,0,L|28:59,1,150,0|0,3:0|3:0,0:0:0:0:
115,29,157973,2,0,L|124:121,1,75,0|0,1:0|3:0,0:0:0:0:
193,171,158396,1,8,0:3:0:0:
279,124,158607,1,0,3:0:0:0:
279,124,158818,2,0,P|321:121|363:130,1,75,0|0,1:0|0:0,0:0:0:0:
428,189,159241,6,0,L|512:183,2,75,8|0|0,0:3|1:0|1:0,0:0:0:0:
354,253,159875,2,0,L|429:289,2,75,8|0|0,0:3|1:0|1:0,0:0:0:0:
259,277,160508,2,0,L|306:346,2,75,8|0|0,0:3|1:0|1:0,0:0:0:0:
166,245,161142,2,0,L|171:329,2,75,8|0|0,0:3|1:0|1:0,0:0:0:0:
102,170,161776,6,0,L|104:127,3,37.5,8|0|0|0,0:3|0:0|1:0|0:0,0:0:0:0:
128,114,162198,2,0,L|125:71,3,37.5,8|0|0|0,0:3|0:0|1:0|0:0,0:0:0:0:
103,55,162621,6,0,P|166:63|246:31,2,150,8|0|8,0:3|1:0|0:3,0:0:0:0:
19,104,163677,1,0,0:0:0:0:
19,104,163889,2,0,L|29:190,1,75,0|0,1:0|0:0,0:0:0:0:
77,262,164311,6,0,B|152:237|158:288|231:261,1,150,8|0,0:3|1:0,0:0:0:0:
304,208,164945,2,0,L|292:121,2,75,0|8|0,0:0|1:3|1:0,0:0:0:0:
392,250,165579,2,0,L|404:163,1,75,0|0,1:0|0:0,0:0:0:0:
374,82,166001,5,2,0:0:0:0:
223,284,172762,6,0,L|70:274,2,150,12|2|8,0:2|0:1|0:3,0:0:0:0:
317,324,173818,1,2,0:1:0:0:
317,324,174029,2,0,L|393:319,1,75,2|2,0:1|1:1,0:0:0:0:
468,258,174452,6,0,B|484:187|431:185|462:104,1,150,8|2,0:3|0:1,0:0:0:0:
505,25,175086,2,0,P|458:70|354:74,1,150,8|2,0:3|0:1,0:0:0:0:
288,38,175720,1,0,1:0:0:0:
206,90,175931,1,2,0:1:0:0:
193,98,176037,1,0,0:0:0:0:
180,106,176142,6,0,P|130:85|24:105,2,150,8|2|8,0:3|0:1|0:3,0:0:0:0:
254,179,177198,1,2,0:1:0:0:
254,179,177410,2,0,L|343:172,1,75,0|2,1:0|0:1,0:0:0:0:
425,163,177832,6,0,L|413:59,2,75,8|2|2,0:3|0:0|0:1,0:0:0:0:
452,256,178466,2,0,P|378:261|310:310,1,150,8|2,0:3|0:1,0:0:0:0:
232,352,179100,1,0,1:0:0:0:
140,318,179311,1,2,0:1:0:0:
126,311,179417,1,0,0:0:0:0:
112,304,179522,6,0,L|96:150,2,150,8|2|8,0:3|0:1|0:3,0:0:0:0:
200,261,180579,2,0,P|240:251|287:253,1,75,2|0,0:1|1:0,0:0:0:0:
368,272,181001,1,2,0:1:0:0:
427,194,181213,6,0,P|467:204|514:202,2,75,8|0|2,0:3|0:0|0:1,0:0:0:0:
353,130,181846,2,0,B|276:109|272:161|185:134,1,150,8|2,0:3|0:1,0:0:0:0:
115,102,182480,2,0,L|64:109,3,37.5,0|0|2|0,1:1|0:0|0:1|0:0,0:0:0:0:
52,90,182903,6,0,L|75:243,1,150,8|2,0:3|0:1,0:0:0:0:
92,334,183537,1,8,0:3:0:0:
184,363,183748,1,8,0:3:0:0:
276,331,183959,1,2,0:1:0:0:
336,254,184170,2,0,L|432:262,1,75,0|2,1:0|0:1,0:0:0:0:
473,185,184593,6,0,P|471:112|428:41,1,150,8|0,0:3|0:0,0:0:0:0:
348,95,185227,2,0,P|277:112|198:89,1,150,8|2,0:3|0:1,0:0:0:0:
120,42,185860,1,0,1:0:0:0:
43,105,186072,1,2,0:1:0:0:
33,116,186177,1,0,0:0:0:0:
23,127,186283,6,0,B|6:187|55:217|29:286,1,150,8|2,0:3|0:1,0:0:0:0:
81,358,186917,2,0,P|115:341|152:333,1,75,8|8,3:3|0:3,0:0:0:0:
249,333,187339,2,0,P|285:341|319:357,1,75,2|0,3:1|0:0,0:0:0:0:
416,362,187762,6,0,L|424:203,1,150,2|0,3:1|3:0,0:0:0:0:
329,184,188396,2,0,P|292:195|223:190,1,75,2|8,3:1|0:3,0:0:0:0:
234,101,188818,2,0,P|271:90|340:95,1,75,8|0,3:3|0:0,0:0:0:0:
400,117,189241,1,0,3:0:0:0:
423,212,189452,6,0,B|432:314|432:314|378:363,1,150,2|0,0:1|0:0,0:0:0:0:
312,295,190086,2,0,P|271:281|222:279,1,75,2|8,0:1|3:3,0:0:0:0:
155,327,190508,2,0,P|114:341|65:343,1,75,8|2,0:3|3:1,0:0:0:0:
9,278,190931,1,0,0:0:0:0:
14,180,191142,6,0,P|68:138|153:128,1,150,2|0,3:1|3:0,0:0:0:0:
239,159,191776,1,2,3:1:0:0:
329,194,191987,2,0,L|403:185,1,75,8|8,0:3|3:3,0:0:0:0:
472,116,192410,1,2,0:1:0:0:
404,46,192621,2,0,L|335:38,3,37.5,0|0|2|0,3:0|0:0|0:1|3:0,0:0:0:0:
341,24,193044,6,0,P|297:62|181:58,1,150,8|2,0:3|0:1,0:0:0:0:
115,41,193677,2,0,L|101:125,1,75,8|8,3:3|0:3,0:0:0:0:
85,214,194100,1,2,3:1:0:0:
85,214,194311,1,0,0:0:0:0:
174,251,194522,6,0,B|220:239|220:239|338:252,1,150,2|0,3:1|3:0,0:0:0:0:
417,268,195156,1,2,0:1:0:0:
485,197,195368,2,0,P|496:161|484:108,2,75,8|8|0,3:3|3:3|0:0,0:0:0:0:
398,153,196001,1,0,3:0:0:0:
308,112,196213,1,2,0:1:0:0:
294,106,196318,1,0,3:0:0:0:
280,99,196424,6,0,P|240:93|189:102,1,75,8|0,0:3|0:0,0:0:0:0:
137,28,196846,2,0,P|97:34|46:25,1,75,2|8,0:1|3:3,0:0:0:0:
7,110,197269,2,0,L|13:196,1,75,8|2,0:3|3:1,0:0:0:0:
100,226,197691,2,0,L|94:312,1,75,0|2,0:0|3:1,0:0:0:0:
180,348,198114,6,0,P|225:318|333:321,1,150,8|2,0:3|0:1,0:0:0:0:
406,358,198748,1,8,3:3:0:0:
488,307,198959,1,8,0:3:0:0:
488,307,199170,2,0,B|508:240|458:236|483:158,1,150,2|2,3:1|3:1,0:0:0:0:
500,64,199804,6,0,P|440:41|345:72,1,150,8|0,0:3|0:0,0:0:0:0:
284,123,200438,1,8,1:3:0:0:
206,63,200649,1,12,0:2:0:0:
256,192,212480,12,2,214593,0:0:0:0:
241,191,215015,6,0,L|143:178,1,82.5000025177003,10|0,0:2|0:0,0:0:0:0:
97,91,215438,2,0,L|195:78,1,82.5000025177003,0|8,1:0|0:0,0:0:0:0:
285,67,215860,1,8,0:0:0:0:
285,67,216072,1,0,0:0:0:0:
378,120,216283,1,0,1:0:0:0:
378,120,216494,1,0,0:0:0:0:
423,217,216706,6,0,L|410:321,1,82.5000025177003,8|0,0:0|0:0,0:0:0:0:
316,345,217128,1,0,1:0:0:0:
236,272,217339,2,0,P|190:256|141:256,1,82.5000025177003,8|10,0:0|0:2,0:0:0:0:
52,283,217762,1,2,1:2:0:0:
52,283,217973,2,0,L|42:187,1,82.5000025177003,2|2,1:2|0:2,0:0:0:0:
34,186,218290,1,2,0:2:0:0:
25,171,218396,6,0,L|35:75,1,82.5000025177003,10|0,0:2|0:0,0:0:0:0:
129,41,218818,2,0,L|139:137,1,82.5000025177003,0|8,1:0|0:0,0:0:0:0:
219,193,219241,1,8,0:0:0:0:
238,87,219452,1,0,1:0:0:0:
238,87,219663,1,0,1:0:0:0:
320,154,219875,6,0,P|398:142|480:167,1,165.000005035401,0|0,0:0|0:0,0:0:0:0:
498,271,220508,2,0,L|480:360,1,82.5000025177003,0|8,1:0|0:0,0:0:0:0:
374,362,220931,1,2,0:2:0:0:
280,309,221142,1,2,1:2:0:0:
280,309,221353,2,0,P|235:316|184:303,1,82.5000025177003,2|2,1:2|0:2,0:0:0:0:
184,302,221670,1,2,0:2:0:0:
170,292,221776,6,0,L|68:299,1,82.5000025177003,10|0,0:2|0:0,0:0:0:0:
12,221,222198,1,0,1:0:0:0:
12,221,222410,1,8,0:0:0:0:
89,147,222621,2,0,L|191:140,1,82.5000025177003,8|0,0:0|0:0,0:0:0:0:
263,85,223044,1,0,1:0:0:0:
347,150,223255,6,0,B|380:216|313:250|353:319,1,165.000005035401,0|0,0:0|0:0,0:0:0:0:
449,272,223889,1,0,1:0:0:0:
449,272,224100,1,8,0:0:0:0:
502,179,224311,2,0,L|495:75,1,82.5000025177003,10|0,0:2|0:0,0:0:0:0:
417,24,224734,1,0,1:0:0:0:
316,62,224945,6,0,B|257:66|257:66|210:49|210:49|117:57,1,165.000005035401,0|0,0:0|0:0,0:0:0:0:
58,101,225579,2,0,P|41:155|49:205,1,82.5000025177003,0|8,1:0|0:0,0:0:0:0:
73,282,226001,1,10,0:2:0:0:
168,332,226213,1,0,0:0:0:0:
168,332,226424,1,0,1:0:0:0:
265,287,226635,6,0,B|346:265|345:320|435:296,1,165.000005035401,0|0,0:0|0:0,0:0:0:0:
510,230,227269,1,0,1:0:0:0:
453,138,227480,2,0,L|350:127,1,82.5000025177003,8|10,0:0|0:2,0:0:0:0:
270,90,227903,1,0,0:0:0:0:
167,57,228114,2,0,L|115:62,3,41.2500012588501,0|0|0|0,1:0|0:0|0:0|0:0,0:0:0:0:
101,38,228537,6,0,P|71:114|112:195,2,165.000005035401,10|0|0,0:2|1:0|1:0,0:0:0:0:
182,116,229593,1,0,1:0:0:0:
182,116,229804,1,0,1:0:0:0:
258,43,230015,1,12,0:2:0:0:
258,43,231283,5,0,1:0:0:0:
339,97,231494,2,0,L|388:85,2,37.5,0|0|0,1:0|1:0|1:0,0:0:0:0:
298,186,231917,1,0,1:0:0:0:
256,192,232022,12,0,233184,0:0:0:0:
249,199,233607,6,0,L|114:192,1,112.5,8|0,0:0|0:0,0:0:0:0:
106,188,234029,2,0,P|94:145|103:101,1,75,2|8,0:1|3:0,0:0:0:0:
158,38,234452,1,8,0:0:0:0:
248,75,234663,2,0,P|291:87|335:78,2,75,2|0|2,3:1|0:0|3:1,0:0:0:0:
158,38,235297,6,0,P|102:62|-6:54,1,150,8|2,0:0|3:1,0:0:0:0:
3,157,235931,2,0,P|63:164|153:225,1,150,8|2,0:0|0:1,0:0:0:0:
204,282,236565,1,0,3:0:0:0:
287,232,236776,1,0,0:0:0:0:
299,224,236882,1,0,3:0:0:0:
312,217,236987,6,0,L|434:220,1,112.5,8|0,3:0|0:0,0:0:0:0:
453,210,237410,2,0,P|463:167|456:120,1,75,2|8,0:1|3:0,0:0:0:0:
407,54,237832,1,8,0:0:0:0:
310,72,238044,2,0,L|222:61,2,75,2|0|2,3:1|0:0|3:1,0:0:0:0:
331,166,238677,6,0,P|306:191|171:206,1,150,8|2,0:0|0:1,0:0:0:0:
112,167,239311,2,0,P|137:191|152:327,1,150,8|2,3:0|0:1,0:0:0:0:
236,362,239945,1,0,3:0:0:0:
322,317,240156,1,2,0:1:0:0:
335,310,240262,1,0,3:0:0:0:
348,302,240368,6,0,L|344:212,1,75,8|0,3:0|0:0,0:0:0:0:
266,168,240790,1,2,0:1:0:0:
266,168,241001,2,0,P|222:170|189:160,1,75,8|8,3:0|0:0,0:0:0:0:
174,65,241424,2,0,P|212:38|313:33,1,150,2|2,3:1|3:1,0:0:0:0:
402,71,242058,6,0,L|488:60,2,75,8|0|2,0:0|3:0|0:1,0:0:0:0:
359,158,242691,2,0,B|327:223|378:243|345:312,1,150,8|2,3:0|0:1,0:0:0:0:
265,356,243325,1,0,3:0:0:0:
173,320,243537,1,0,0:0:0:0:
160,311,243642,1,0,3:0:0:0:
146,303,243748,6,0,L|62:312,2,75,8|0|2,3:0|0:0|0:1,0:0:0:0:
197,220,244382,2,0,L|281:229,2,75,8|0|2,3:0|0:0|3:1,0:0:0:0:
114,169,245015,6,0,L|105:85,2,75,8|2|0,0:0|3:1|0:0,0:0:0:0:
197,220,245649,2,0,L|188:304,2,75,8|2|8,3:0|0:1|3:0,0:0:0:0:
261,146,246283,6,0,P|316:134|391:162,1,112.5,8|0,3:0|0:0,0:0:0:0:
384,174,246706,2,0,P|439:186|514:158,1,112.5,8|0,3:0|3:0,0:0:0:0:
506,145,247128,6,0,L|493:311,1,150,8|2,3:0|0:1,0:0:0:0:
411,347,247762,1,8,3:0:0:0:
328,295,247973,2,0,P|279:285|248:291,1,75,8|2,0:0|3:1,0:0:0:0:
170,338,248396,1,0,0:0:0:0:
73,321,248607,1,2,3:1:0:0:
37,230,248818,5,8,0:0:0:0:
37,230,249029,2,0,L|50:48,1,150,4|0,0:0|0:0,0:0:0:0:
135,36,249663,2,0,L|179:41,3,37.5,4|4|8|0,0:3|0:3|0:3|0:0,0:0:0:0:
196,58,250086,2,0,L|240:53,3,37.5,8|0|8|0,0:3|0:0|0:3|0:0,0:0:0:0:
256,72,250508,5,6,0:3:0:0:
256,192,250614,12,0,253625,0:0:0:0:
