osu file format v14

[General]
AudioFilename: audio.mp3
AudioLeadIn: 0
PreviewTime: 1372
Countdown: 1
SampleSet: Normal
StackLeniency: 0.7
Mode: 0
LetterboxInBreaks: 0
WidescreenStoryboard: 1

[Editor]
Bookmarks: 2534,3801,4646,5069,5914,7182,7604,8027,8449
DistanceSpacing: 2.8
BeatDivisor: 4
GridSize: 4
TimelineZoom: 1

[Metadata]
Title:Harumachi Clover (TheNutritiousGuy Remix)
TitleUnicode:Harumachi Clover (TheNutritiousGuy Remix)
Artist:Hanasaka Yui(CV: M.A.O) x TheNutritiousGuy
ArtistUnicode:Hanasaka Yui(CV: M.A.O) x TheNutritiousGuy
Creator:Y33ZY69
Version:Clowover
Source:
Tags:
BeatmapID:2140873
BeatmapSetID:812719

[Difficulty]
HPDrainRate:5
CircleSize:4
OverallDifficulty:9
ApproachRate:8
SliderMultiplier:1
SliderTickRate:1

[Events]
//Background and Video events
0,0,"yeetz.jpg",0,0
//Break Periods
//Storyboard Layer 0 (Background)
//Storyboard Layer 1 (Fail)
//Storyboard Layer 2 (Pass)
//Storyboard Layer 3 (Foreground)
//Storyboard Layer 4 (Overlay)
//Storyboard Sound Samples

[TimingPoints]
-846,422.535211267606,4,2,0,70,1,0
2534,-100,4,1,0,70,0,0

[Colours]
Combo1 : 157,255,255
Combo2 : 255,128,192
Combo3 : 128,128,255
Combo4 : 194,129,254
Combo5 : 255,255,185
Combo6 : 185,255,185

[HitObjects]
282,148,1477,5,0,0:0:0:0:
256,0,1689,1,0,0:0:0:0:
265,49,1900,1,0,0:0:0:0:
273,98,2111,1,0,0:0:0:0:
282,148,2322,1,0,0:0:0:0:
308,296,2534,5,0,0:0:0:0:
367,132,2745,1,0,0:0:0:0:
252,229,2956,5,0,0:0:0:0:
424,200,3168,1,0,0:0:0:0:
282,148,3379,5,0,0:0:0:0:
393,281,3590,1,0,0:0:0:0:
223,311,3801,5,0,0:0:0:0:
193,140,4013,1,0,0:0:0:0:
364,111,4224,5,0,0:0:0:0:
393,281,4435,1,0,0:0:0:0:
380,120,4646,5,0,0:0:0:0:
409,290,4857,1,0,0:0:0:0:
474,229,5069,5,0,0:0:0:0:
403,179,5280,1,0,0:0:0:0:
353,249,5491,1,0,0:0:0:0:
425,299,5703,1,0,0:0:0:0:
212,314,5914,5,0,0:0:0:0:
153,150,6125,1,0,0:0:0:0:
268,247,6336,5,0,0:0:0:0:
96,218,6548,1,0,0:0:0:0:
238,165,6759,5,0,0:0:0:0:
127,299,6970,1,0,0:0:0:0:
14,114,7182,5,0,0:0:0:0:
185,84,7394,1,0,0:0:0:0:
44,284,7605,5,0,0:0:0:0:
214,255,7816,1,0,0:0:0:0:
30,124,8027,5,0,0:0:0:0:
201,94,8239,1,0,0:0:0:0:
121,36,8449,5,0,0:0:0:0:
35,50,8660,1,0,0:0:0:0:
49,135,8871,1,0,0:0:0:0:
135,120,9083,1,0,0:0:0:0:
157,273,9294,5,0,0:0:0:0:
312,198,9505,1,0,0:0:0:0:
158,374,9717,5,0,0:0:0:0:
313,299,9928,1,0,0:0:0:0:
174,281,10139,5,0,0:0:0:0:
329,206,10350,1,0,0:0:0:0:
345,365,10562,5,0,0:0:0:0:
174,384,10773,1,0,0:0:0:0:
187,125,10984,5,0,0:0:0:0:
347,349,11196,1,0,0:0:0:0:
272,95,11407,5,0,0:0:0:0:
259,372,11618,1,0,0:0:0:0:
358,64,11830,5,0,0:0:0:0:
435,326,12042,1,0,0:0:0:0:
444,33,12252,5,0,0:0:0:0:
183,111,12463,1,0,0:0:0:0:
288,306,12675,5,0,0:0:0:0:
303,68,12886,1,0,0:0:0:0:
188,238,13097,5,0,0:0:0:0:
403,136,13309,1,0,0:0:0:0:
197,121,13520,5,0,0:0:0:0:
392,254,13731,1,0,0:0:0:0:
484,33,13942,5,0,0:0:0:0:
484,33,14154,1,0,0:0:0:0:
405,67,14365,5,0,0:0:0:0:
385,76,14470,1,0,0:0:0:0:
395,95,14576,1,0,0:0:0:0:
414,86,14682,1,0,0:0:0:0:
446,155,14787,5,0,0:0:0:0:
426,164,14892,1,0,0:0:0:0:
436,183,14998,1,0,0:0:0:0:
455,174,15104,1,0,0:0:0:0:
349,196,15210,5,0,0:0:0:0:
329,205,15315,1,0,0:0:0:0:
338,225,15421,1,0,0:0:0:0:
358,216,15527,1,0,0:0:0:0:
308,108,15633,5,0,0:0:0:0:
288,117,15738,1,0,0:0:0:0:
297,136,15844,1,0,0:0:0:0:
317,128,15950,1,0,0:0:0:0:
267,20,16055,5,0,0:0:0:0:
152,151,16266,1,0,0:0:0:0:
294,102,16477,5,0,0:0:0:0:
123,68,16689,1,0,0:0:0:0:
237,167,16900,5,0,0:0:0:0:
181,3,17111,1,0,0:0:0:0:
182,235,17323,5,0,0:0:0:0:
353,206,17534,1,0,0:0:0:0:
153,64,17745,5,0,0:0:0:0:
324,35,17956,1,0,0:0:0:0:
195,248,18168,5,0,0:0:0:0:
366,219,18379,1,0,0:0:0:0:
430,162,18590,5,0,0:0:0:0:
359,112,18801,1,0,0:0:0:0:
309,182,19012,1,0,0:0:0:0:
381,232,19224,1,0,0:0:0:0:
179,265,19435,5,0,0:0:0:0:
238,101,19646,1,0,0:0:0:0:
123,198,19857,5,0,0:0:0:0:
295,169,20069,1,0,0:0:0:0:
153,117,20280,5,0,0:0:0:0:
264,250,20491,1,0,0:0:0:0:
451,230,20703,5,0,0:0:0:0:
280,260,20915,1,0,0:0:0:0:
421,60,21126,5,0,0:0:0:0:
251,89,21337,1,0,0:0:0:0:
435,220,21548,5,0,0:0:0:0:
264,250,21760,1,0,0:0:0:0:
380,332,21970,5,0,0:0:0:0:
365,246,22181,1,0,0:0:0:0:
280,260,22392,1,0,0:0:0:0:
295,346,22604,1,0,0:0:0:0:
130,335,22815,5,0,0:0:0:0:
189,171,23026,1,0,0:0:0:0:
74,268,23237,5,0,0:0:0:0:
246,239,23449,1,0,0:0:0:0:
104,187,23660,5,0,0:0:0:0:
215,320,23871,1,0,0:0:0:0:
97,160,24083,5,0,0:0:0:0:
235,326,24294,1,0,0:0:0:0:
119,167,24506,5,0,0:0:0:0:
258,333,24717,1,0,0:0:0:0:
272,87,24928,5,0,0:0:0:0:
463,223,25139,1,0,0:0:0:0:
269,337,25351,5,0,0:0:0:0:
421,199,25562,1,0,0:0:0:0:
291,344,25773,5,0,0:0:0:0:
462,176,25984,1,0,0:0:0:0:
105,156,26196,5,0,0:0:0:0:
342,170,26407,1,0,0:0:0:0:
173,56,26618,5,0,0:0:0:0:
274,271,26830,1,0,0:0:0:0:
289,64,27041,5,0,0:0:0:0:
157,260,27252,1,0,0:0:0:0:
352,158,27463,5,0,0:0:0:0:
352,158,27675,1,0,0:0:0:0:
202,298,27886,5,0,0:0:0:0:
268,72,28097,1,0,0:0:0:0:
318,272,28308,5,0,0:0:0:0:
154,99,28520,1,0,0:0:0:0:
351,156,28731,5,0,0:0:0:0:
120,215,28942,1,0,0:0:0:0:
268,72,29154,5,0,0:0:0:0:
248,81,29259,1,0,0:0:0:0:
258,100,29365,1,0,0:0:0:0:
277,91,29471,1,0,0:0:0:0:
242,189,29576,5,0,0:0:0:0:
256,192,29682,12,0,31477,2:2:0:0:
