osu file format v14

[General]
AudioFilename: audio.mp3
AudioLeadIn: 0
PreviewTime: 1372
Countdown: 1
SampleSet: Normal
StackLeniency: 0.7
Mode: 0
LetterboxInBreaks: 0
WidescreenStoryboard: 0

[Editor]
DistanceSpacing: 2.8
BeatDivisor: 4
GridSize: 4
TimelineZoom: 1

[Metadata]
Title:Harumachi Clover (TheNutritiousGuy Remix)
TitleUnicode:Harumachi Clover (TheNutritiousGuy Remix)
Artist:Hanasaka Yui(CV: M.A.O) x TheNutritiousGuy
ArtistUnicode:Hanasaka Yui(CV: M.A.O) x TheNutritiousGuy
Creator:Y33ZY69
Version:Clover
Source:
Tags:
BeatmapID:1704621
BeatmapSetID:812719

[Difficulty]
HPDrainRate:5
CircleSize:4
OverallDifficulty:9
ApproachRate:9.5
SliderMultiplier:1
SliderTickRate:1

[Events]
//Background and Video events
0,0,"4 way with hanasaka yui owo2.jpg",0,0
//Break Periods
//Storyboard Layer 0 (Background)
//Storyboard Layer 1 (Fail)
//Storyboard Layer 2 (Pass)
//Storyboard Layer 3 (Foreground)
//Storyboard Layer 4 (Overlay)
//Storyboard Sound Samples

[TimingPoints]
-846,422.535211267606,4,1,0,100,1,0

[Colours]
Combo1 : 157,255,255
Combo2 : 255,128,192
Combo3 : 128,128,255
Combo4 : 194,129,254
Combo5 : 255,255,185
Combo6 : 185,255,185

[HitObjects]
202,242,1477,5,0,0:0:0:0:
166,44,1689,1,0,0:0:0:0:
174,93,1900,1,0,0:0:0:0:
183,142,2111,1,0,0:0:0:0:
192,191,2322,1,0,0:0:0:0:
201,240,2534,5,0,0:0:0:0:
396,156,2745,1,0,0:0:0:0:
159,139,2956,5,0,0:0:0:0:
243,333,3167,1,0,0:0:0:0:
259,96,3379,5,0,0:0:0:0:
65,181,3590,1,0,0:0:0:0:
301,194,3801,5,0,0:0:0:0:
217,0,4012,1,0,0:0:0:0:
213,233,4224,5,0,0:0:0:0:
407,148,4435,1,0,0:0:0:0:
172,137,4646,5,0,0:0:0:0:
256,331,4857,1,0,0:0:0:0:
275,93,5069,5,0,0:0:0:0:
81,178,5280,1,0,0:0:0:0:
280,141,5492,1,0,0:0:0:0:
86,226,5703,1,0,0:0:0:0:
312,247,5914,5,0,0:0:0:0:
227,52,6125,1,0,0:0:0:0:
221,287,6337,5,0,0:0:0:0:
415,202,6548,1,0,0:0:0:0:
178,186,6759,5,0,0:0:0:0:
263,381,6970,1,0,0:0:0:0:
280,141,7182,5,0,0:0:0:0:
86,226,7393,1,0,0:0:0:0:
324,241,7604,5,0,0:0:0:0:
239,46,7815,1,0,0:0:0:0:
228,285,8027,5,0,0:0:0:0:
422,200,8238,1,0,0:0:0:0:
187,188,8449,5,0,0:0:0:0:
272,383,8660,1,0,0:0:0:0:
224,150,8872,1,0,0:0:0:0:
309,345,9083,1,0,0:0:0:0:
326,106,9294,5,0,0:0:0:0:
132,191,9505,1,0,0:0:0:0:
373,211,9717,5,0,0:0:0:0:
288,16,9928,1,0,0:0:0:0:
279,253,10139,5,0,0:0:0:0:
464,160,10350,1,0,0:0:0:0:
237,156,10562,5,0,0:0:0:0:
322,351,10773,1,0,0:0:0:0:
326,106,10984,5,0,0:0:0:0:
141,199,11195,1,0,0:0:0:0:
373,211,11407,5,0,0:0:0:0:
288,16,11618,1,0,0:0:0:0:
279,253,11830,5,0,0:0:0:0:
464,160,12041,1,0,0:0:0:0:
237,159,12252,5,0,0:0:0:0:
322,354,12463,1,0,0:0:0:0:
59,95,12675,5,0,0:0:0:0:
144,290,12886,1,0,0:0:0:0:
153,116,13097,1,0,0:0:0:0:
238,311,13308,1,0,0:0:0:0:
453,95,13520,1,0,0:0:0:0:
368,290,13731,1,0,0:0:0:0:
359,116,13942,1,0,0:0:0:0:
274,311,14153,1,0,0:0:0:0:
59,95,14365,5,0,0:0:0:0:
86,160,14470,1,0,0:0:0:0:
114,225,14576,1,0,0:0:0:0:
144,290,14682,1,0,0:0:0:0:
153,116,14787,5,0,0:0:0:0:
180,181,14892,1,0,0:0:0:0:
208,246,14998,1,0,0:0:0:0:
238,311,15104,1,0,0:0:0:0:
453,95,15210,5,0,0:0:0:0:
426,160,15315,1,0,0:0:0:0:
398,225,15421,1,0,0:0:0:0:
368,290,15527,1,0,0:0:0:0:
359,116,15632,5,0,0:0:0:0:
332,181,15737,1,0,0:0:0:0:
304,246,15843,1,0,0:0:0:0:
274,311,15949,1,0,0:0:0:0:
359,116,16055,5,0,0:0:0:0:
161,181,16266,1,0,0:0:0:0:
390,214,16477,5,0,0:0:0:0:
325,16,16688,1,0,0:0:0:0:
293,246,16900,5,0,0:0:0:0:
491,181,17111,1,0,0:0:0:0:
262,151,17323,5,0,0:0:0:0:
330,352,17534,1,0,0:0:0:0:
359,116,17745,5,0,0:0:0:0:
161,181,17956,1,0,0:0:0:0:
393,217,18168,5,0,0:0:0:0:
325,16,18379,1,0,0:0:0:0:
294,251,18590,5,0,0:0:0:0:
492,186,18801,1,0,0:0:0:0:
251,284,19013,1,0,0:0:0:0:
449,219,19224,1,0,0:0:0:0:
220,186,19435,5,0,0:0:0:0:
285,384,19646,1,0,0:0:0:0:
323,152,19858,5,0,0:0:0:0:
125,217,20069,1,0,0:0:0:0:
355,247,20280,5,0,0:0:0:0:
290,49,20491,1,0,0:0:0:0:
251,284,20703,5,0,0:0:0:0:
449,219,20914,1,0,0:0:0:0:
220,186,21125,5,0,0:0:0:0:
285,384,21336,1,0,0:0:0:0:
322,154,21548,5,0,0:0:0:0:
124,219,21759,1,0,0:0:0:0:
356,255,21970,5,0,0:0:0:0:
291,57,22181,1,0,0:0:0:0:
408,217,22393,1,0,0:0:0:0:
343,19,22604,1,0,0:0:0:0:
312,251,22815,5,0,0:0:0:0:
510,186,23026,1,0,0:0:0:0:
280,151,23238,5,0,0:0:0:0:
345,349,23449,1,0,0:0:0:0:
382,120,23661,5,0,0:0:0:0:
184,185,23872,1,0,0:0:0:0:
417,222,24083,5,0,0:0:0:0:
352,24,24294,1,0,0:0:0:0:
314,257,24506,5,0,0:0:0:0:
512,192,24717,1,0,0:0:0:0:
280,152,24928,5,0,0:0:0:0:
345,350,25139,1,0,0:0:0:0:
381,121,25351,5,0,0:0:0:0:
183,186,25562,1,0,0:0:0:0:
416,225,25773,5,0,0:0:0:0:
351,27,25984,1,0,0:0:0:0:
314,260,26196,5,0,0:0:0:0:
512,195,26407,1,0,0:0:0:0:
263,245,26618,1,0,0:0:0:0:
461,180,26829,1,0,0:0:0:0:
212,227,27041,1,0,0:0:0:0:
410,162,27252,1,0,0:0:0:0:
159,207,27463,1,0,0:0:0:0:
357,142,27674,1,0,0:0:0:0:
126,101,27886,5,0,0:0:0:0:
191,299,28097,1,0,0:0:0:0:
228,68,28308,5,0,0:0:0:0:
30,133,28519,1,0,0:0:0:0:
274,200,28731,5,0,0:0:0:0:
209,2,28942,1,0,0:0:0:0:
185,231,29154,5,0,0:0:0:0:
383,166,29365,1,0,0:0:0:0:
155,135,29576,5,0,0:0:0:0:
256,192,29682,12,0,31477,0:0:0:0:
