osu file format v14

[General]
AudioFilename: audio.mp3
AudioLeadIn: 0
PreviewTime: 284
Countdown: 1
SampleSet: Normal
StackLeniency: 0.5
Mode: 0
LetterboxInBreaks: 0
WidescreenStoryboard: 1

[Editor]
DistanceSpacing: 1
BeatDivisor: 4
GridSize: 4
TimelineZoom: 1

[Metadata]
Title:Harumachi Clover
TitleUnicode:Harumachi Clover
Artist:Hanasaka Yui(CV: M.A.O)
ArtistUnicode:Hanasaka Yui(CV: M.A.O)
Creator:pashty
Version:kms
Source:
Tags:
BeatmapID:1832347
BeatmapSetID:876256

[Difficulty]
HPDrainRate:4
CircleSize:4
OverallDifficulty:9.5
ApproachRate:8.3
SliderMultiplier:2
SliderTickRate:1

[Events]
//Background and Video events
0,0,"pp.png",0,0
//Break Periods
//Storyboard Layer 0 (Background)
//Storyboard Layer 1 (Fail)
//Storyboard Layer 2 (Pass)
//Storyboard Layer 3 (Foreground)
//Storyboard Sound Samples

[TimingPoints]
-349,422.535211267606,4,1,0,100,1,0
284,-125,4,1,0,50,0,0
1341,-100,4,1,0,100,0,0
13172,-100,4,1,0,100,0,0
30390,-100,4,1,0,5,0,0

[HitObjects]
102,168,284,6,0,P|134:125|187:113,1,80
181,205,707,1,0,0:0:0:0:
176,307,918,2,0,L|254:251,1,80
289,225,1235,1,0,0:0:0:0:
289,225,1341,5,0,0:0:0:0:
258,362,1552,1,0,0:0:0:0:
237,160,1763,5,0,0:0:0:0:
277,337,1974,1,0,0:0:0:0:
346,128,2186,5,0,0:0:0:0:
191,273,2397,1,0,0:0:0:0:
400,251,2608,1,0,0:0:0:0:
214,105,2820,1,0,0:0:0:0:
214,105,2925,1,0,0:0:0:0:
214,105,3031,5,0,0:0:0:0:
322,322,3242,1,0,0:0:0:0:
310,55,3453,5,0,0:0:0:0:
226,347,3665,2,0,L|215:397,2,50
183,84,4087,5,0,0:0:0:0:
399,292,4298,1,0,0:0:0:0:
104,337,4510,1,0,0:0:0:0:
293,154,4721,2,0,L|389:69,1,100
300,273,5143,2,0,P|262:326|210:330,1,100
196,201,5566,5,0,0:0:0:0:
312,366,5777,1,0,0:0:0:0:
322,145,5989,5,0,0:0:0:0:
196,335,6200,1,0,0:0:0:0:
196,335,6305,1,0,0:0:0:0:
196,335,6411,5,0,0:0:0:0:
431,232,6622,1,0,0:0:0:0:
214,211,6834,5,0,0:0:0:0:
466,330,7045,2,0,L|520:354,2,50
399,127,7467,5,0,0:0:0:0:
329,374,7679,1,0,0:0:0:0:
198,143,7890,2,0,L|165:96,2,50
368,244,8312,1,0,0:0:0:0:
168,321,8524,2,0,L|63:360,1,100
266,158,8946,5,0,0:0:0:0:
189,384,9158,1,0,0:0:0:0:
174,95,9369,5,0,0:0:0:0:
266,366,9581,1,0,0:0:0:0:
266,366,9686,1,0,0:0:0:0:
266,366,9791,5,0,0:0:0:0:
340,261,10003,1,0,0:0:0:0:
190,209,10214,2,0,P|143:179|127:130,1,100
364,121,10636,5,0,0:0:0:0:
94,219,10848,1,0,0:0:0:0:
358,267,11059,5,0,0:0:0:0:
57,130,11270,2,0,L|7:108,2,50
217,77,11693,1,0,0:0:0:0:
84,63,11904,5,0,0:0:0:0:
213,179,12115,1,0,0:0:0:0:
151,83,12327,5,0,0:0:0:0:
162,264,12538,1,0,0:0:0:0:
270,142,12749,2,0,P|290:90|275:39,1,100
235,8,13066,1,0,0:0:0:0:
235,8,13172,5,0,0:0:0:0:
401,290,13383,1,0,0:0:0:0:
377,24,13594,5,0,0:0:0:0:
201,358,13805,1,0,0:0:0:0:
86,16,14017,5,0,0:0:0:0:
477,326,14228,2,0,L|520:361,1,50
451,199,14439,1,0,0:0:0:0:
425,156,14544,1,0,0:0:0:0:
380,138,14650,1,0,0:0:0:0:
333,151,14755,1,0,0:0:0:0:
303,191,14861,5,0,0:0:0:0:
508,116,15073,1,0,0:0:0:0:
235,116,15284,5,0,0:0:0:0:
481,206,15496,1,0,0:0:0:0:
263,291,15707,2,0,L|147:333,1,100
292,159,16129,2,0,P|330:116|396:128,1,100
421,140,16446,1,0,0:0:0:0:
421,140,16552,5,0,0:0:0:0:
202,18,16763,1,0,0:0:0:0:
375,17,16974,5,0,0:0:0:0:
263,291,17186,1,0,0:0:0:0:
411,236,17397,2,0,L|515:204,1,100
342,97,17820,6,0,L|238:129,1,100
192,147,18136,1,0,0:0:0:0:
192,147,18242,1,0,0:0:0:0:
408,173,18453,1,0,0:0:0:0:
149,190,18665,5,0,0:0:0:0:
452,136,18876,1,0,0:0:0:0:
157,127,19087,5,0,0:0:0:0:
442,194,19298,1,0,0:0:0:0:
99,222,19510,5,0,0:0:0:0:
510,115,19721,1,0,0:0:0:0:
510,115,19827,1,0,0:0:0:0:
510,115,19932,5,0,0:0:0:0:
69,61,20143,1,0,0:0:0:0:
247,384,20355,1,0,0:0:0:0:
415,45,20566,1,0,0:0:0:0:
424,22,20671,1,0,0:0:0:0:
434,0,20777,5,0,0:0:0:0:
512,286,20989,1,0,0:0:0:0:
512,40,21200,5,0,0:0:0:0:
364,353,21411,2,0,L|342:401,2,50
348,179,21834,5,0,0:0:0:0:
207,285,22045,2,0,P|157:315|95:302,1,100
69,278,22362,1,0,0:0:0:0:
69,278,22467,5,0,0:0:0:0:
364,353,22679,1,0,0:0:0:0:
90,384,22890,5,0,0:0:0:0:
314,152,23101,2,0,L|393:65,1,100
327,265,23524,5,0,0:0:0:0:
299,78,23735,1,0,0:0:0:0:
175,232,23946,2,0,L|136:281,2,50
429,120,24369,5,0,0:0:0:0:
106,178,24580,1,0,0:0:0:0:
416,294,24791,2,0,L|515:331,1,100
358,186,25214,5,0,0:0:0:0:
253,320,25425,1,0,0:0:0:0:
290,107,25636,1,0,0:0:0:0:
290,107,25742,1,0,0:0:0:0:
290,107,25848,5,0,0:0:0:0:
368,340,26059,1,0,0:0:0:0:
369,55,26270,5,0,0:0:0:0:
281,322,26481,2,0,P|257:367|210:391,1,100
268,125,26904,5,0,0:0:0:0:
360,273,27115,1,0,0:0:0:0:
417,160,27327,1,0,0:0:0:0:
417,160,27432,1,0,0:0:0:0:
417,160,27538,5,0,0:0:0:0:
456,279,27749,1,0,0:0:0:0:
355,236,27960,1,0,0:0:0:0:
319,201,28065,1,0,0:0:0:0:
307,153,28171,1,0,0:0:0:0:
322,106,28276,1,0,0:0:0:0:
359,73,28382,1,0,0:0:0:0:
256,192,28489,12,0,30495,0:0:0:0:
