osu file format v14

[General]
AudioFilename: Harumachi Your Mother.mp3
AudioLeadIn: 0
PreviewTime: 179
Countdown: 0
SampleSet: Soft
StackLeniency: 0.7
Mode: 0
LetterboxInBreaks: 0
WidescreenStoryboard: 0

[Editor]
DistanceSpacing: 1
BeatDivisor: 4
GridSize: 4
TimelineZoom: 1

[Metadata]
Title:Harumachi Clover
TitleUnicode:春待ちクローバー
Artist:Hanasaka Yui(CV: M.A.O)
ArtistUnicode:花坂結衣(CV:M・A・O)
Creator:ezek
Version:Normal
Source:OneRoom
Tags:tvsize tv size kantoku カントク one room ワンルーム MkGuh ReFaller fieryrage
BeatmapID:1383390
BeatmapSetID:652412

[Difficulty]
HPDrainRate:4
CircleSize:3.5
OverallDifficulty:4
ApproachRate:4
SliderMultiplier:1.3
SliderTickRate:1

[Events]
//Background and Video events
0,0,"TwoRooms.png",0,0
//Break Periods
//Storyboard Layer 0 (Background)
//Storyboard Layer 1 (Fail)
//Storyboard Layer 2 (Pass)
//Storyboard Layer 3 (Foreground)
//Storyboard Sound Samples

[TimingPoints]
-349,422.535211267606,4,2,1,60,1,0
1341,-100,4,2,1,100,0,0
28383,-100,4,2,1,10,0,0

[Colours]
Combo1 : 234,77,179
Combo2 : 255,203,96
Combo3 : 71,143,209
Combo4 : 100,193,72

[HitObjects]
32,40,284,5,0,0:0:0:0:
32,40,496,2,0,P|64:32|96:40,1,65,0|0,0:0|0:0,0:0:0:0:
152,72,918,2,0,P|183:79|214:71,1,65,0|0,0:0|0:0,0:0:0:0:
268,32,1341,6,0,B|248:96|248:96|268:156,1,130,4|8,0:0|0:0,0:0:0:0:
364,244,2186,2,0,B|384:308|384:308|364:368,1,130,2|8,0:0|0:0,0:0:0:0:
300,348,2820,1,0,0:0:0:0:
300,348,3031,2,0,P|236:324|180:348,1,130,2|8,0:0|0:0,0:0:0:0:
120,368,3665,2,0,B|88:320|120:280|120:276|120:272|156:232|120:184,1,195,0|8,0:0|0:0,0:0:0:0:
60,68,4721,6,0,P|124:52|184:68,1,130,2|8,0:0|0:0,0:0:0:0:
268,172,5566,2,0,P|330:188|392:172,1,130,2|8,0:0|0:0,0:0:0:0:
424,116,6200,1,0,0:0:0:0:
424,116,6411,2,0,L|424:248,1,130,2|8,0:0|0:0,0:0:0:0:
400,308,7045,2,0,B|336:308|336:308|288:336|288:336|212:336,1,195,0|8,0:0|0:0,0:0:0:0:
156,364,7890,1,0,0:0:0:0:
156,364,8101,6,0,L|120:236,1,130,4|8,0:0|0:0,0:0:0:0:
204,136,8946,2,0,L|240:260,1,130,2|8,0:0|0:0,0:0:0:0:
293,307,9580,1,0,0:0:0:0:
293,307,9791,2,0,B|353:331|353:331|413:307,1,130,4|8,0:0|0:0,0:0:0:0:
508,216,10636,2,0,L|504:148,1,65,2|0,0:0|0:0,0:0:0:0:
448,120,11059,2,0,L|444:52,1,65,8|0,0:0|0:0,0:0:0:0:
396,12,11481,6,0,B|338:12|323:61|319:63|316:65|303:117|243:114,1,195,4|0,0:0|0:0,0:0:0:0:
176,112,12327,1,2,0:0:0:0:
52,148,12749,2,0,P|44:176|52:212,1,65,8|0,0:0|0:0,0:0:0:0:
112,236,13172,2,0,B|144:236|144:236|168:260,1,65,4|8,0:0|0:0,0:0:0:0:
228,284,13594,2,0,B|256:300|256:300|284:284,1,65,4|8,0:0|0:0,0:0:0:0:
344,260,14017,2,0,B|368:236|368:236|400:236,1,65,4|8,0:0|0:0,0:0:0:0:
460,210,14439,2,0,P|468:179|460:148,1,65,8|8,0:0|0:0,0:0:0:0:
424,92,14862,6,0,P|364:92|320:40,1,130,4|8,0:0|0:0,0:0:0:0:
191,42,15707,2,0,P|151:90|88:92,1,130,2|8,0:0|0:0,0:0:0:0:
28,68,16341,1,0,0:0:0:0:
28,68,16552,2,0,L|28:200,1,130,2|8,0:0|0:0,0:0:0:0:
60,256,17186,2,0,B|108:288|148:256|152:256|156:256|196:220|244:256,1,195,0|8,0:0|0:0,0:0:0:0:
300,300,18031,1,0,0:0:0:0:
300,300,18242,6,0,B|354:251|354:251|412:256,1,130,4|8,0:0|0:0,0:0:0:0:
412,128,19087,2,0,B|354:132|354:132|300:84,1,130,2|8,0:0|0:0,0:0:0:0:
280,28,19721,1,0,0:0:0:0:
280,28,19932,2,0,L|148:28,1,130,2|8,0:0|0:0,0:0:0:0:
96,64,20566,2,0,B|96:128|96:128|124:176|124:176|124:252,1,195,0|8,0:0|0:0,0:0:0:0:
188,276,21411,1,0,0:0:0:0:
188,276,21622,6,0,B|240:276|240:276|280:276|308:312,1,130,4|8,0:0|0:0,0:0:0:0:
192,368,22467,2,0,B|140:368|140:368|100:368|72:332,1,130,2|8,0:0|0:0,0:0:0:0:
24,288,23101,2,0,P|-4:224|24:172,1,130,4|8,0:0|0:0,0:0:0:0:
72,132,23735,1,8,0:0:0:0:
192,84,24158,2,0,L|192:12,2,65,8|8|2,0:0|0:0|0:0,0:0:0:0:
232,132,24791,6,0,P|292:156|352:132,1,130,4|8,0:0|0:0,0:0:0:0:
384,80,25425,2,0,L|408:216,2,130,8|8|8,0:0|0:0|0:0,0:0:0:0:
372,16,26481,5,4,0:0:0:0:
252,60,26904,1,8,0:0:0:0:
252,60,27115,2,0,P|244:96|252:128,1,65,0|8,1:0|0:0,0:0:0:0:
280,184,27538,2,0,P|288:220|280:252,1,65,8|4,0:0|3:0,0:0:0:0:
256,308,27960,1,8,0:0:0:0:
256,192,28383,12,0,30284,0:0:0:0:
