osu file format v14

[General]
AudioFilename: Harumachi Your Mother.mp3
AudioLeadIn: 0
PreviewTime: 179
Countdown: 0
SampleSet: Soft
StackLeniency: 0.7
Mode: 0
LetterboxInBreaks: 0
WidescreenStoryboard: 0

[Editor]
Bookmarks: 37033,47139,57244,67507,74928,77454,97665,102718,107770,118033,125454,140297,158454
DistanceSpacing: 1
BeatDivisor: 4
GridSize: 4
TimelineZoom: 1

[Metadata]
Title:Harumachi Clover
TitleUnicode:春待ちクローバー
Artist:Hanasaka Yui(CV: M.A.O)
ArtistUnicode:花坂結衣(CV:M・A・O)
Creator:ezek
Version:Maximum Clover Power
Source:OneRoom
Tags:tvsize tv size kantoku カントク one room ワンルーム MkGuh ReFaller fieryrage
BeatmapID:1383389
BeatmapSetID:652412

[Difficulty]
HPDrainRate:6
CircleSize:6.3
OverallDifficulty:9
ApproachRate:9
SliderMultiplier:2.1
SliderTickRate:1

[Events]
//Background and Video events
0,0,"TwoRooms.png",0,0
//Break Periods
//Storyboard Layer 0 (Background)
//Storyboard Layer 1 (Fail)
//Storyboard Layer 2 (Pass)
//Storyboard Layer 3 (Foreground)
//Storyboard Sound Samples

[TimingPoints]
-349,422.535211267606,4,2,1,60,1,0
1341,-100,4,2,1,100,0,0
23101,-66.6666666666667,4,2,1,100,0,0
23524,-100,4,2,1,100,0,0
24791,-66.6666666666667,4,2,1,100,0,0
25214,-100,4,2,1,100,0,0
26481,-66.6666666666667,4,2,1,100,0,0
27327,-100,4,2,1,100,0,0
28489,-100,4,2,1,10,0,0

[Colours]
Combo1 : 234,77,179
Combo2 : 255,203,96
Combo3 : 71,143,209
Combo4 : 100,193,72

[HitObjects]
256,48,284,5,0,0:0:0:0:
256,68,496,1,0,0:0:0:0:
256,88,707,1,0,0:0:0:0:
256,108,918,1,0,0:0:0:0:
256,128,1129,1,0,0:0:0:0:
360,368,1341,5,4,0:0:0:0:
256,180,1552,1,0,0:0:0:0:
152,368,1763,1,8,0:0:0:0:
376,264,1974,1,0,0:0:0:0:
136,264,2186,1,2,0:0:0:0:
256,368,2397,1,0,0:0:0:0:
256,124,2608,1,8,0:0:0:0:
376,264,2820,1,0,0:0:0:0:
424,284,2925,1,0,0:0:0:0:
472,260,3031,6,0,P|492:212|472:164,1,105,2|0,0:0|0:0,0:0:0:0:
256,44,3453,1,8,0:0:0:0:
428,212,3665,1,0,0:0:0:0:
412,36,3876,1,2,0:0:0:0:
276,220,4087,1,0,0:0:0:0:
40,140,4298,2,0,P|88:120|136:140,1,105,8|0,0:0|0:0,0:0:0:0:
328,301,4721,5,2,0:0:0:0:
206,337,4932,1,0,0:0:0:0:
171,216,5143,1,8,0:0:0:0:
289,180,5355,1,0,0:0:0:0:
243,361,5566,5,2,0:0:0:0:
77,271,5777,1,0,0:0:0:0:
166,108,5989,1,8,0:0:0:0:
328,194,6200,1,0,0:0:0:0:
64,244,6411,6,0,P|44:197|62:149,1,105,2|0,0:0|0:0,0:0:0:0:
288,196,6834,1,8,0:0:0:0:
32,308,7045,1,0,0:0:0:0:
84,296,7151,1,0,0:0:0:0:
136,284,7256,1,2,0:0:0:0:
300,240,7467,1,0,0:0:0:0:
120,144,7679,1,8,0:0:0:0:
76,356,7890,1,0,0:0:0:0:
128,344,7995,1,0,0:0:0:0:
180,332,8101,6,0,L|284:304,1,105,4|0,0:0|0:0,0:0:0:0:
332,76,8524,2,0,L|228:104,1,105,8|0,0:0|0:0,0:0:0:0:
408,252,8946,2,0,L|380:148,1,105,2|0,0:0|0:0,0:0:0:0:
152,100,9369,2,0,L|180:204,1,105,8|0,0:0|0:0,0:0:0:0:
192,252,9686,1,0,0:0:0:0:
208,304,9791,5,4,0:0:0:0:
136,380,10003,1,0,0:0:0:0:
296,312,10214,1,8,0:0:0:0:
260,208,10425,1,0,0:0:0:0:
244,156,10531,1,0,0:0:0:0:
228,104,10636,2,0,P|272:88|328:104,1,105,2|0,0:0|0:0,0:0:0:0:
224,296,11059,2,0,P|180:312|124:296,1,105,8|0,0:0|0:0,0:0:0:0:
104,248,11376,1,0,0:0:0:0:
88,196,11481,5,4,0:0:0:0:
88,196,11693,1,0,0:0:0:0:
256,84,11904,1,8,0:0:0:0:
256,84,12115,1,0,0:0:0:0:
424,196,12327,1,2,0:0:0:0:
424,196,12538,1,0,0:0:0:0:
200,296,12749,1,8,0:0:0:0:
312,296,12960,1,0,0:0:0:0:
257,26,13172,5,4,0:0:0:0:
354,325,13383,1,8,0:0:0:0:
99,140,13594,1,4,0:0:0:0:
414,140,13805,1,8,0:0:0:0:
159,325,14017,1,4,0:0:0:0:
256,76,14228,5,8,0:0:0:0:
239,125,14333,1,8,0:0:0:0:
245,177,14439,1,8,0:0:0:0:
267,224,14544,1,8,0:0:0:0:
270,276,14650,1,8,0:0:0:0:
255,327,14756,1,8,0:0:0:0:
219,368,14862,5,4,0:0:0:0:
20,283,15073,1,0,0:0:0:0:
197,160,15284,1,8,0:0:0:0:
311,307,15496,1,0,0:0:0:0:
108,223,15707,1,2,0:0:0:0:
285,100,15918,1,0,0:0:0:0:
397,241,16129,1,8,0:0:0:0:
198,162,16340,1,0,0:0:0:0:
198,162,16446,1,0,0:0:0:0:
198,162,16552,6,0,L|188:54,1,105,2|0,0:0|0:0,0:0:0:0:
256,248,16974,1,8,0:0:0:0:
136,172,17186,2,0,P|80:152|40:172,1,105,0|2,0:0|0:0,0:0:0:0:
256,248,17608,1,0,0:0:0:0:
376,172,17820,2,0,P|432:152|472:172,1,105,8|0,0:0|0:0,0:0:0:0:
496,216,18136,1,0,0:0:0:0:
472,264,18242,5,4,0:0:0:0:
350,300,18453,1,0,0:0:0:0:
315,179,18664,1,8,0:0:0:0:
433,143,18876,1,0,0:0:0:0:
410,323,19087,5,2,0:0:0:0:
244,233,19298,1,0,0:0:0:0:
334,70,19509,1,8,0:0:0:0:
496,156,19721,1,0,0:0:0:0:
496,156,19827,1,0,0:0:0:0:
496,156,19932,5,2,0:0:0:0:
256,152,20143,1,0,0:0:0:0:
432,232,20355,1,8,0:0:0:0:
203,235,20566,1,0,0:0:0:0:
203,235,20671,1,0,0:0:0:0:
203,235,20777,1,2,0:0:0:0:
368,156,20989,5,0,0:0:0:0:
144,156,21200,1,8,0:0:0:0:
256,0,21411,1,0,0:0:0:0:
256,52,21517,1,0,0:0:0:0:
256,104,21622,5,4,0:0:0:0:
160,192,21834,1,0,0:0:0:0:
352,192,22045,1,8,0:0:0:0:
256,384,22256,1,0,0:0:0:0:
256,332,22362,1,0,0:0:0:0:
256,280,22467,1,2,0:0:0:0:
320,112,22679,1,0,0:0:0:0:
192,112,22890,1,8,0:0:0:0:
312,280,23101,6,0,B|256:176|256:176|200:280,1,236.250009012223,4|0,0:0|0:0,0:0:0:0:
176,324,23524,1,8,0:0:0:0:
472,192,23735,1,8,0:0:0:0:
204,152,23946,1,8,0:0:0:0:
179,200,24052,1,8,0:0:0:0:
152,246,24158,1,8,0:0:0:0:
64,384,24369,1,8,0:0:0:0:
260,232,24580,1,2,0:0:0:0:
46,20,24791,6,0,P|41:114|132:69,1,236.250009012223,4|0,0:0|0:0,0:0:0:0:
133,19,25214,1,8,0:0:0:0:
4,192,25425,1,8,0:0:0:0:
240,360,25636,1,2,0:0:0:0:
188,348,25742,1,0,0:0:0:0:
140,332,25848,1,8,0:0:0:0:
388,188,26059,1,8,0:0:0:0:
124,188,26270,1,8,0:0:0:0:
340,288,26481,6,0,B|264:292|256:354|256:354|248:292|172:288,1,236.250009012223,4|0,0:0|0:0,0:0:0:0:
120,280,26904,1,8,0:0:0:0:
256,108,27115,1,0,1:0:0:0:
392,280,27327,1,8,0:0:0:0:
408,328,27432,1,8,0:0:0:0:
392,376,27538,1,8,0:0:0:0:
120,376,27749,1,4,3:0:0:0:
256,56,27960,5,8,0:0:0:0:
268,108,28065,1,8,0:0:0:0:
256,160,28171,1,8,0:0:0:0:
244,212,28276,1,8,0:0:0:0:
256,264,28382,5,4,0:0:0:0:
256,192,28489,12,0,30284,0:0:0:0:
