osu file format v14

[General]
AudioFilename: audio.mp3
AudioLeadIn: 0
PreviewTime: 231
Countdown: 0
SampleSet: Soft
StackLeniency: 0.7
Mode: 0
LetterboxInBreaks: 0
WidescreenStoryboard: 0

[Editor]
DistanceSpacing: 1
BeatDivisor: 4
GridSize: 4
TimelineZoom: 2.5

[Metadata]
Title:Harumachi Clover
TitleUnicode:春待ちクローバー
Artist:Hanasaka Yui(CV: M.A.O)
ArtistUnicode:花坂結衣(CV:M・A・O)
Creator:_kotachi_
Version:Extra
Source:OneRoom
Tags:tv size one_room カントク kantoku Akitoshi
BeatmapID:1374528
BeatmapSetID:648816

[Difficulty]
HPDrainRate:6
CircleSize:4
OverallDifficulty:8.5
ApproachRate:8.5
SliderMultiplier:1.7
SliderTickRate:1

[Events]
//Background and Video events
0,0,"BBBgg.jpg",0,0
//Break Periods
//Storyboard Layer 0 (Background)
//Storyboard Layer 1 (Fail)
//Storyboard Layer 2 (Pass)
//Storyboard Layer 3 (Foreground)
//Storyboard Sound Samples

[TimingPoints]
-349,422.535211267606,4,2,1,40,1,0
284,-133.333333333333,4,2,1,40,0,0
1341,-100,4,2,1,70,0,0
30284,-100,4,2,1,5,0,0

[Colours]
Combo1 : 128,64,64
Combo2 : 69,231,222
Combo3 : 248,251,132
Combo4 : 226,160,254

[HitObjects]
192,136,284,5,0,0:0:0:0:
192,136,496,2,0,P|223:134|255:129,1,63.7500024318696
317,228,918,2,0,P|285:222|254:221,1,63.7500024318696
366,123,1341,5,4,3:2:0:0:
373,317,1552,1,0,0:0:0:0:
475,111,1763,1,8,0:0:0:0:
317,228,1974,1,2,0:0:0:0:
263,37,2186,5,0,3:0:0:0:
421,218,2397,1,2,0:0:0:0:
214,240,2608,2,0,P|171:241|111:246,1,85,8|2,0:0|0:0,0:0:0:0:
148,52,3031,5,2,3:0:0:0:
317,228,3242,1,0,0:0:0:0:
374,13,3453,5,8,0:0:0:0:
144,152,3665,1,2,0:0:0:0:
421,218,3876,5,2,3:0:0:0:
263,37,4087,1,0,0:0:0:0:
214,240,4298,5,8,0:0:0:0:
496,144,4510,1,2,0:0:0:0:
496,144,4615,1,0,0:0:0:0:
496,144,4721,5,4,3:2:0:0:
302,251,4932,1,0,0:0:0:0:
263,37,5143,1,8,0:0:0:0:
394,209,5355,1,2,0:0:0:0:
394,209,5460,1,0,0:0:0:0:
394,209,5566,2,0,P|396:254|393:309,1,85,0|2,3:0|0:0,0:0:0:0:
106,163,5989,2,0,P|104:121|105:78,1,85,8|2,0:0|0:0,0:0:0:0:
339,115,6411,5,4,3:2:0:0:
185,256,6622,1,0,0:0:0:0:
263,37,6834,5,8,0:0:0:0:
428,197,7045,1,2,0:0:0:0:
428,197,7151,1,0,0:0:0:0:
428,197,7256,5,0,3:0:0:0:
228,144,7467,1,2,3:2:0:0:
450,70,7679,1,8,0:0:0:0:
256,30,7890,1,0,3:0:0:0:
256,30,7996,1,0,3:0:0:0:
256,30,8101,6,0,P|213:34|162:40,1,85,4|0,3:2|0:0,0:0:0:0:
302,226,8524,1,8,0:0:0:0:
450,70,8735,1,2,0:0:0:0:
222,143,8946,1,0,3:0:0:0:
385,312,9158,1,2,0:0:0:0:
337,108,9369,1,8,0:0:0:0:
263,334,9580,1,0,0:0:0:0:
263,334,9686,1,0,0:0:0:0:
263,333,9791,6,0,L|178:330,1,85,4|0,3:2|0:0,0:0:0:0:
79,77,10214,1,8,0:0:0:0:
302,226,10425,1,2,0:0:0:0:
48,256,10637,1,0,3:0:0:0:
192,48,10848,1,2,3:2:0:0:
178,330,11059,1,8,0:0:0:0:
25,157,11270,1,2,0:0:0:0:
40,160,11376,1,0,0:0:0:0:
55,163,11481,6,0,L|140:157,1,85,4|0,3:2|0:0,0:0:0:0:
428,245,11904,1,8,0:0:0:0:
302,226,12115,1,2,0:0:0:0:
355,332,12327,1,0,3:0:0:0:
375,145,12538,1,0,3:0:0:0:
473,343,12749,1,8,0:0:0:0:
484,75,12960,1,0,1:0:0:0:
484,75,13066,1,0,1:0:0:0:
484,75,13172,5,4,3:2:0:0:
182,145,13383,1,2,3:2:0:0:
467,265,13594,1,12,0:0:0:0:
307,0,13805,1,2,3:2:0:0:
281,309,14017,1,4,3:2:0:0:
199,22,14228,5,0,1:0:0:0:
163,21,14333,1,0,1:0:0:0:
129,30,14439,1,8,0:3:0:0:
99,49,14544,1,8,0:3:0:0:
76,75,14650,1,4,0:3:0:0:
62,108,14756,1,4,0:3:0:0:
57,143,14861,5,4,3:2:0:0:
316,145,15073,1,0,0:0:0:0:
129,30,15284,1,8,0:0:0:0:
116,277,15495,1,2,0:0:0:0:
264,76,15707,5,0,3:0:0:0:
192,336,15918,1,2,0:0:0:0:
399,153,16129,2,0,P|441:149|484:149,1,85,8|2,0:0|0:0,0:0:0:0:
276,344,16552,5,2,3:0:0:0:
184,142,16763,1,0,0:0:0:0:
429,246,16974,5,8,0:0:0:0:
180,244,17186,1,2,0:0:0:0:
263,96,17397,5,2,3:0:0:0:
355,298,17608,1,0,0:0:0:0:
96,192,17819,5,8,0:0:0:0:
341,47,18031,1,2,0:0:0:0:
341,47,18136,1,0,0:0:0:0:
341,47,18242,5,4,3:2:0:0:
208,240,18453,1,0,0:0:0:0:
432,220,18664,1,8,0:0:0:0:
184,144,18876,1,2,0:0:0:0:
184,144,18981,1,0,0:0:0:0:
184,144,19087,1,0,3:0:0:0:
452,220,19298,1,2,0:0:0:0:
215,53,19510,2,0,L|130:59,1,85,8|2,0:0|0:0,0:0:0:0:
242,328,19932,5,4,3:2:0:0:
341,47,20143,1,0,0:0:0:0:
112,218,20355,5,8,0:0:0:0:
434,266,20566,1,2,0:0:0:0:
434,266,20672,1,8,0:0:0:0:
434,266,20777,5,0,3:0:0:0:
144,96,20988,1,2,3:2:0:0:
452,37,21200,5,8,0:0:0:0:
285,295,21411,1,0,3:0:0:0:
285,295,21517,1,0,3:0:0:0:
285,295,21622,6,0,P|286:341|289:393,1,85,4|0,3:2|0:0,0:0:0:0:
338,113,22045,1,8,0:0:0:0:
123,260,22256,1,2,0:0:0:0:
123,260,22362,1,0,0:0:0:0:
123,260,22467,1,8,0:0:0:0:
376,196,22679,1,0,3:0:0:0:
134,0,22890,1,8,0:0:0:0:
25,273,23101,5,4,3:2:0:0:
25,273,23524,1,0,0:0:0:0:
213,65,23735,1,8,0:0:0:0:
300,332,23946,1,2,0:0:0:0:
300,332,24052,1,0,0:0:0:0:
300,332,24158,1,8,0:0:0:0:
59,115,24369,1,0,3:0:0:0:
332,174,24580,1,8,0:0:0:0:
138,384,24791,5,4,3:2:0:0:
138,384,25214,1,0,3:0:0:0:
216,48,25425,1,8,0:0:0:0:
8,280,25636,1,2,0:0:0:0:
8,280,25742,1,8,0:0:0:0:
8,280,25848,1,0,3:0:0:0:
217,30,26059,1,0,3:0:0:0:
415,276,26270,1,8,0:0:0:0:
94,198,26481,6,0,B|65:155|65:155|96:29,1,170,4|0,3:2|3:0,0:0:0:0:
343,155,27115,1,8,0:0:0:0:
177,157,27327,1,2,0:0:0:0:
179,178,27432,1,8,0:0:0:0:
181,199,27538,5,0,3:0:0:0:
288,96,27749,1,0,3:0:0:0:
75,118,27960,5,8,0:0:0:0:
78,164,28065,1,8,0:0:0:0:
81,211,28171,1,8,0:0:0:0:
85,257,28276,1,8,0:0:0:0:
88,304,28382,5,4,3:2:0:0:
256,192,28489,12,0,30284,0:0:0:0:
