osu file format v14

[General]
AudioFilename: audio.mp3
AudioLeadIn: 0
PreviewTime: 284
Countdown: 0
SampleSet: Soft
StackLeniency: 0.7
Mode: 2
LetterboxInBreaks: 0
WidescreenStoryboard: 1

[Editor]
Bookmarks: 14228,14756
DistanceSpacing: 1.2
BeatDivisor: 4
GridSize: 16
TimelineZoom: 2.4

[Metadata]
Title:Harumachi Clover
TitleUnicode:春待ちクローバー
Artist:Hanasaka Yui(CV: M.A.O)
ArtistUnicode:花坂結衣(CV:M・A・O)
Creator:Yukarin-
Version:Rain
Source:OneRoom
Tags:tv size one_room カントク kantoku
BeatmapID:1349991
BeatmapSetID:636194

[Difficulty]
HPDrainRate:6
CircleSize:4
OverallDifficulty:9
ApproachRate:9
SliderMultiplier:1.4
SliderTickRate:1

[Events]
//Background and Video events
0,0,"bg2.jpg",0,0
//Break Periods
//Storyboard Layer 0 (Background)
//Storyboard Layer 1 (Fail)
//Storyboard Layer 2 (Pass)
//Storyboard Layer 3 (Foreground)
//Storyboard Sound Samples

[TimingPoints]
-349,422.535211267606,4,2,0,80,1,0

[HitObjects]
96,192,284,6,0,L|192:192,2,70
256,128,918,1,0,0:0:0:0:
96,160,1129,1,0,0:0:0:0:
288,224,1341,2,0,L|368:224,2,70
240,224,1974,1,0,0:0:0:0:
384,192,2186,1,0,0:0:0:0:
294,256,2397,2,0,L|224:256,1,70
96,192,2820,2,0,L|144:192,2,35
384,112,3242,5,0,0:0:0:0:
224,112,3453,1,0,0:0:0:0:
352,160,3665,2,0,P|336:224|256:224,1,140
160,144,4298,1,0,0:0:0:0:
368,240,4510,2,0,L|288:240,1,70
192,192,4932,1,0,0:0:0:0:
352,192,5143,1,0,0:0:0:0:
160,112,5355,2,0,P|256:112|256:112,1,70
352,160,5777,5,0,0:0:0:0:
160,160,5989,1,0,0:0:0:0:
320,160,6200,1,0,0:0:0:0:
208,240,6411,2,0,L|304:240,2,70
416,288,7045,2,0,P|400:352|320:352,1,140
176,272,7679,1,0,0:0:0:0:
352,272,7890,2,0,L|304:272,2,35
160,208,8312,2,0,L|256:208,1,70
384,320,8735,6,0,L|288:336,1,70
384,240,9158,1,0,0:0:0:0:
208,240,9369,1,0,0:0:0:0:
288,304,9580,2,0,P|272:352|192:352,1,140
112,208,10214,2,0,L|192:208,1,70
368,208,10636,1,0,0:0:0:0:
80,208,10848,1,0,0:0:0:0:
320,208,11059,1,0,0:0:0:0:
112,240,11270,6,0,P|160:352|256:336,1,210
320,256,12115,1,0,0:0:0:0:
112,256,12327,2,0,L|192:256,1,70
384,256,12749,1,0,0:0:0:0:
192,192,12960,2,0,P|224:128|288:128,1,140
368,240,13594,1,0,0:0:0:0:
96,240,13805,1,0,0:0:0:0:
336,240,14017,1,0,0:0:0:0:
160,112,14228,6,0,L|160:176,1,35
368,144,14439,2,0,L|368:96,1,35
112,144,14651,2,0,L|112:80,1,35
374,256,14862,2,0,L|304:256,1,70
144,320,15284,2,0,L|224:320,1,70
298,224,15707,2,0,L|368:224,2,70
224,224,16341,1,0,0:0:0:0:
64,304,16552,2,0,L|160:304,1,70
336,256,16974,5,0,0:0:0:0:
154,189,17186,2,0,P|154:116|288:117,1,210
384,192,18031,1,0,0:0:0:0:
208,192,18242,1,0,0:0:0:0:
352,272,18453,2,0,L|256:288,2,70
416,224,19087,1,0,0:0:0:0:
256,224,19298,1,0,0:0:0:0:
160,288,19510,2,0,L|256:304,1,70
384,192,19932,5,0,0:0:0:0:
144,192,20143,1,0,0:0:0:0:
336,192,20355,1,0,0:0:0:0:
112,272,20566,2,0,P|144:336|208:320,1,140
320,256,21200,1,0,0:0:0:0:
198,192,21411,2,0,L|128:192,2,70
352,224,22045,1,0,0:0:0:0:
112,256,22256,2,0,L|176:256,2,35
352,192,22679,5,0,0:0:0:0:
144,192,22890,1,0,0:0:0:0:
304,272,23101,2,0,P|288:320|208:304,1,140
384,192,23735,1,0,0:0:0:0:
224,192,23946,1,0,0:0:0:0:
400,96,24158,2,0,L|320:96,2,70
144,160,24791,2,0,P|160:240|240:256,1,140
352,192,25425,1,0,0:0:0:0:
240,192,25636,6,0,L|288:192,2,35
448,288,26059,1,0,0:0:0:0:
272,288,26270,1,0,0:0:0:0:
112,192,26481,2,0,P|96:256|160:288,1,140
272,192,27115,1,0,0:0:0:0:
448,288,27327,2,0,P|416:336|320:336,1,140
192,192,27960,1,0,0:0:0:0:
224,224,28066,1,0,0:0:0:0:
272,224,28172,5,0,0:0:0:0:
304,256,28277,1,0,0:0:0:0:
288,304,28383,1,0,0:0:0:0:
256,192,28594,12,0,29862,0:0:0:0:
